#TITLE:Bacchikoi!;
#SUBTITLE:Naruto Shippuden Ending 8;
#ARTIST:Dev Parade;
#TITLETRANSLIT:;
#SUBTITLETRANSLIT:;
#ARTISTTRANSLIT:;
#GENRE:;
#CREDIT:Naohei;
#BANNER:BacchikoiBN.png;
#BACKGROUND:BacchikoiB.png;
#LYRICSPATH:;
#CDTITLE:Magna Trick title!.png;
#MUSIC:Naruto Shippuuden ED 8 - Bacchikoi [Dev Parade].mp3;
#OFFSET:1.239000;
#SAMPLESTART:47.770000;
#SAMPLELENGTH:12.000000;
#LASTBEATHINT:0.522203;
#SELECTABLE:YES;
#BPMS:0.000000=142.000000
,3.000000=71.000000
,5.000000=284.000000
,7.000000=142.000000
,66.000000=284.000000
,68.000000=142.000000
,111.500000=284.000000
,112.500000=142.000000
,113.000000=284.000000
,114.000000=142.000000
,114.500000=284.000000
,115.500000=142.000000
,116.000000=284.000000
,117.000000=142.000000
,132.000000=284.000000
,134.000000=142.000000
,149.000000=284.000000
,151.000000=142.000000
,166.000000=284.000000
,168.000000=142.000000
,183.000000=284.000000
,185.000000=142.000000
,214.500000=71.000000
,215.500000=284.000000
,223.500000=141.940002
;
#STOPS:
;
#BGCHANGES:3.500=Bacchikoi!video.avi=1.000=0=0=1=====,
221.000=BacchikoiB.png=1.000=0=0=1=====,
99999=-nosongbg-=1.000=0=0=0 // don't automatically add -songbackground-
;
#KEYSOUNDS:;
#ATTACKS:;

//---------------dance-single - ----------------
#NOTES:
     dance-single:
     :
     Hard:
     11:
     0.551780,0.556542,0.210277,0.199210,0.049802,349.000000,330.000000,19.000000,18.000000,0.000000,1.000000,0.551780,0.556542,0.210277,0.199210,0.049802,349.000000,330.000000,19.000000,18.000000,0.000000,1.000000:
0000
0000
0000
0000
0000
0000
0000
0001
,
0001
0001
0002
0000
0000
0003
1001
0000
,
0010
0000
1000
0100
0000
0010
0000
0002
,
0000
2003
3000
0020
1031
0000
0010
1000
,
0100
1000
0010
0100
0001
0010
0001
0100
,
0010
0000
1000
0000
0100
0010
0000
0010
0100
0000
1000
0000
0001
0000
0100
0000
,
0010
1000
0100
0010
1000
0010
0100
1000
,
0001
0100
0010
2000
3200
0000
0000
0300
,
0010
0001
1000
0010
0100
1000
0100
0010
,
1000
0100
0010
0010
0001
0001
0100
0001
,
0010
1000
0010
0001
1000
0010
0001
0010
,
0100
0010
1000
0100
0020
0030
0001
0001
,
0001
0001
1000
1000
0010
0100
0100
0100
,
0000
0010
0010
0010
0000
1000
0100
1000
,
0001
0100
0001
0010
0000
0010
0010
0010
,
0000
0100
0100
0100
0000
0001
0010
0001
,
1000
0010
1000
0100
0020
0000
0000
0000
,
0031
0000
1000
0001
0000
1000
0000
0010
,
0100
0001
0100
0010
1000
0100
1000
0000
,
0001
0100
0010
0010
1000
0100
0100
0001
,
0010
0001
0001
0100
1000
0010
0110
0000
,
0010
0010
0010
0010
0010
1000
0100
0100
,
0000
0010
0010
0010
0100
1000
0010
0010
,
0000
1000
0001
0100
0010
0010
1000
0100
,
0010
0000
1000
0000
1000
0000
0001
0000
0100
0000
1000
0000
0001
0000
0100
0010
,
1000
1000
1000
1000
1000
1000
0100
0010
,
0000
0000
0001
0000
0001
0000
0001
0000
0001
0000
0100
0000
0010
0000
1000
0010
,
1000
0000
0010
0000
0000
0000
0001
1000
0001
0000
1000
0000
0000
0000
0001
0000
,
0000
0010
1000
0000
0100
0001
0000
0010
,
1000
0000
0100
0001
1001
0000
0010
0000
,
0100
0001
0000
1000
0000
0100
0000
0020
,
0000
0031
1000
0010
0000
0100
0001
1000
,
0000
0100
1000
0001
0000
0010
0001
1000
,
0110
0000
0110
1001
,
1000
0000
0001
0010
0000
0100
0000
0001
,
0000
2000
0000
3010
0100
1000
0000
0001
,
0010
0100
0000
0001
0100
0010
0000
1000
,
0010
0100
0110
0000
0000
0000
0110
0000
,
1001
0000
0100
0000
0010
1000
0000
0001
,
0000
0010
0000
0200
0000
1300
0001
0100
,
0010
1000
0000
1000
0100
0000
0010
0001
0010
0000
0001
0000
0100
0000
1000
0000
,
0000
0100
1000
0001
0110
0000
0000
0000
,
0110
0000
1001
0000
0001
0000
1000
0100
,
0000
0010
0000
1000
0000
0002
0000
0103
,
0010
0001
0000
1000
0100
0010
0000
1000
,
0010
0100
0000
0001
0100
0010
0110
0000
,
0100
0000
0110
0000
0010
0000
1000
0100
,
0010
1000
0001
0100
0000
0010
0000
1001
,
0000
0010
0100
0001
0100
0000
0010
1000
,
0100
1000
0001
0010
0000
0100
0000
2002
,
0000
0000
3003
0000
0001
0000
0010
1000
,
0100
0010
1000
0001
0000
0100
0000
1001
,
0000
0010
0100
0001
0100
0000
0010
1000
,
0100
0000
1000
0000
0001
0000
0010
0000
0000
0000
2001
0002
0000
0000
3003
0000
,
0000
0020
0000
0000
0000
2000
0000
0000
,
0000
0000
0000
0000
0000
0000
0000
3030
;

//---------------dance-single - ----------------
#NOTES:
     dance-single:
     :
     Medium:
     7:
     0.510673,0.483637,0.188143,0.066403,0.000000,323.000000,306.000000,17.000000,6.000000,0.000000,0.000000,0.510673,0.483637,0.188143,0.066403,0.000000,323.000000,306.000000,17.000000,6.000000,0.000000,0.000000:
0000
0000
0000
0000
0000
0000
0000
0010
,
0010
0010
0010
0000
0000
0000
1001
0000
,
0100
0000
0010
0001
0000
1000
0000
0001
,
0000
0000
0100
0000
0000
0000
2000
0000
0002
0000
0000
3003
1000
0000
0000
0000
,
0010
0000
0100
0000
0001
0000
0010
1000
,
0010
0100
1000
0001
0100
0010
1000
0000
,
0001
1000
0100
0010
,
1000
0000
0010
0100
1000
0000
0001
0000
,
0100
0000
0010
0000
0100
0001
0010
1000
,
0010
0100
1000
0001
0100
0010
0000
1000
,
0001
0100
0010
1000
0100
0000
0010
0100
,
1000
0001
0100
0010
1000
0000
0001
0001
,
1000
1000
0010
0010
0100
0000
0010
1000
,
0000
1000
0001
0100
0000
0100
0001
1000
,
0100
0010
1000
0010
0000
0010
0100
1000
,
0000
1000
0010
0100
0000
0100
0001
0010
,
0001
1000
0010
0100
2002
0000
0000
3003
,
0010
0000
1000
0100
0000
0010
1000
0010
,
0100
1000
0001
0100
0010
0010
0000
0000
,
0100
0010
1000
0010
0100
1000
0001
0100
,
0010
0010
1000
1000
0001
0100
0010
0000
,
0100
0100
0100
0100
0100
1000
0001
1000
,
0000
0010
0010
0010
0010
1000
0001
1000
,
0000
0001
0001
1000
0010
1000
0100
0010
,
1000
1000
0010
0100
1000
0000
1001
0000
,
0010
0100
0001
0100
0010
1000
0100
0010
,
0000
0010
0100
1000
0001
0100
0010
1000
,
1000
1000
0000
0001
0001
0001
0000
1000
,
0000
0100
0010
0000
0001
1000
0000
0100
,
0010
0000
0001
1000
1001
0000
0010
0000
,
0100
0001
0000
1000
0000
0100
0000
0110
,
0000
0001
1000
0010
0000
0100
0001
0010
,
0000
1000
0010
0100
0000
1000
0001
0100
,
0110
0000
0110
1000
,
0001
0000
0010
1000
0000
0010
0000
0100
,
0000
1100
0000
1000
0010
0001
0000
0001
,
0010
1000
0000
1000
0100
0001
0000
0001
,
0100
1000
0110
0000
0000
0000
0110
0000
,
0010
0000
1000
0000
0001
0010
0000
0100
,
0000
1000
0000
1001
0000
0010
0100
0001
,
1000
1000
0100
0010
1000
0010
0100
1000
,
0000
1000
0001
0100
0110
0000
0000
0000
,
0110
0000
1000
0000
0001
0000
0010
0100
,
0000
1000
0000
0001
0000
0110
0000
1000
,
0100
0001
0000
0010
1000
0010
0000
0010
,
0100
1000
0000
0001
1000
0001
0110
0000
,
0000
0000
0110
0000
1000
0000
0001
0100
,
0001
0100
0010
1000
0000
0100
0000
1100
,
0000
1000
0100
1000
0100
0000
0010
0001
,
0010
0001
1000
0001
0000
0100
0000
0020
,
0000
0030
0000
0000
1000
0000
0001
0100
,
0010
1000
0100
0010
0000
0100
0000
1000
,
0000
0001
0100
0010
0100
0000
0100
0001
,
1000
0100
0010
0100
0000
2000
0000
3000
,
0000
0001
0000
0000
0000
0100
0000
0000
;

//---------------dance-single - ----------------
#NOTES:
     dance-single:
     :
     Easy:
     5:
     0.403163,0.475337,0.110672,0.000000,0.005534,255.000000,245.000000,10.000000,0.000000,0.000000,0.000000,0.403163,0.475337,0.110672,0.000000,0.005534,255.000000,245.000000,10.000000,0.000000,0.000000,0.000000:
0000
0000
0000
0000
,
0000
0000
0000
1001
,
0010
0000
0100
0001
0000
1000
0000
0100
,
0000
0000
0000
0010
0010
0000
0000
0000
,
1000
0001
0100
0010
,
1000
0100
0010
0001
,
1000
0010
0100
0001
,
1000
0000
0001
1000
0001
0000
0100
0000
,
0010
1000
0100
0010
,
1000
0000
0010
0100
0010
0100
0010
0000
,
0001
0100
0010
0100
,
0001
0000
1000
0000
0100
0000
0010
0010
,
0010
0010
0010
0010
0001
0000
1000
0001
,
0000
1000
0001
1000
0000
0000
0010
0000
,
0100
0000
0001
1000
0000
1000
0001
1000
,
0000
1000
0001
1000
0000
0000
0010
0000
,
1000
0000
0100
0010
0000
0000
0000
0000
,
0001
0000
1000
0001
0000
0100
0000
0000
,
0010
1000
0100
0010
,
0001
0001
1000
1000
0010
0010
0100
0100
,
0001
1000
0100
0010
0001
0000
1000
0000
,
0001
0000
0100
0000
0010
1000
0100
0000
,
0010
0000
0001
0000
0100
0001
0010
0000
,
0100
0000
1000
0000
0001
1000
0010
0000
,
0100
0000
0001
0000
1000
0001
1000
0000
,
0010
0000
1000
0000
0100
0010
1000
0000
,
0010
0000
0100
0000
1000
0001
0100
0000
,
0010
0000
1000
0000
,
0000
0100
0000
0000
0010
0000
0000
0001
,
0000
1000
0110
0001
,
1000
0010
0000
0100
0000
0001
0000
1000
,
0000
0001
0000
1000
0000
0010
1000
0100
,
0000
1000
0000
0001
0000
0010
0001
0100
,
1001
0000
1001
0010
,
1000
0000
0100
0010
0000
1000
0000
0010
,
0000
0100
0000
1000
0000
0001
0000
0100
,
0010
1000
0000
0100
0000
0010
0000
0001
,
0100
0010
1001
0000
0000
0000
1001
0000
,
0010
0000
1000
0000
0001
0100
0000
0010
,
0000
1000
0000
0100
0000
1000
1000
1000
,
0001
0001
0001
1000
0010
0100
0001
1000
,
0000
0001
1000
0001
1001
0000
0000
0000
,
1001
0000
0010
0000
1000
0000
0001
0100
,
0000
0010
0000
1000
0000
0100
0000
0010
,
1000
0010
0000
0100
0000
1000
0000
0001
,
0100
0010
0000
0100
0001
0000
1001
0000
,
0000
0000
1001
0000
0010
0000
1000
0001
,
0100
0010
1000
0100
0000
1000
0000
0001
,
0000
0100
0000
0010
1000
0000
1000
0100
,
0010
0000
1000
0010
0000
0100
0000
1000
,
0000
0001
0100
0000
0010
0000
1000
0100
,
1000
0000
0001
1000
0000
0001
0000
0100
,
0000
0010
0100
0000
0001
0000
1000
0001
,
1000
0000
0100
0000
0000
0000
0010
0000
0000
0000
0100
1000
0000
0000
0000
0000
;

//---------------dance-single - ----------------
#NOTES:
     dance-single:
     :
     Challenge:
     16:
     0.973915,1.020328,2.113837,0.243479,0.271147,616.000000,425.000000,191.000000,22.000000,0.000000,4.000000,0.973915,1.020328,2.113837,0.243479,0.271147,616.000000,425.000000,191.000000,22.000000,0.000000,4.000000:
// measure 0
0000
0000
0000
0000
0000
0000
0000
1000
,  // measure 1
1000
1000
2000
0000
0000
3000
1001
0000
,  // measure 2
0100
0000
0000
0000
0001
0000
0010
0100
0010
0100
1000
0001
1000
0001
0100
0010
,  // measure 3
1000
0100
0011
0000
0001
0000
0200
0000
1301
0000
0000
0000
1000
0000
0001
0000
,  // measure 4
1001
1000
0001
0100
1001
1000
0100
0010
,  // measure 5
0011
0000
0001
0000
0010
0100
0000
0100
1001
0000
1000
0000
0001
0000
0010
0000
,  // measure 6
0110
0100
1100
1000
1001
0001
0010
0001
,  // measure 7
0101
0000
0100
0000
0100
0000
0010
0000
1002
0000
0000
1000
0103
0000
0010
0000
,  // measure 8
0110
0100
0010
0001
0101
0100
0010
1000
,  // measure 9
1100
0100
0010
0010
0011
0001
0010
0100
,  // measure 10
0110
0010
0001
1000
1001
0001
0010
0100
,  // measure 11
1100
0000
1000
0000
0001
0000
0010
0000
0200
0000
0300
0000
2000
3000
2000
3000
,  // measure 12
2000
3000
2000
3000
0002
0003
0002
1003
0100
0000
0011
0000
0011
0000
0011
0000
,  // measure 13
0000
0000
1100
0000
1100
0000
1100
0000
0010
0001
0000
0010
0100
1000
0010
0000
,  // measure 14
1000
0100
0010
0001
1001
0000
1001
0000
0000
0000
0101
0000
0101
0000
0101
0000
,  // measure 15
0000
0000
1010
0000
1010
0000
1010
0000
0001
1000
0000
0100
1000
0001
1000
0000
,  // measure 16
0001
0000
0000
0100
0000
0000
0001
0000
0000
1000
0000
0000
0100
0000
0000
0000
0010
0000
0000
0000
0001
0000
0000
0000
0220
0000
0000
0000
0000
0000
0000
0000
0000
0000
0000
0000
0000
0000
0000
0000
0000
0000
0000
0000
0000
0330
0000
0000
,  // measure 17
1100
0000
0000
0000
1001
0000
1100
0000
0000
0000
1001
0000
0001
0100
0000
0010
,  // measure 18
1000
0100
1000
0000
0010
0100
0001
0100
0010
1000
0100
0000
1000
0000
0000
0000
,  // measure 19
1000
0000
0001
0100
0001
0000
0100
0010
0000
0010
0000
1000
0010
0000
1000
0100
,  // measure 20
0010
0000
0001
1000
0000
1000
0010
0000
1000
0000
0001
0000
0101
1000
0001
1000
,  // measure 21
0101
0110
0101
0110
0101
1001
1010
1001
,  // measure 22
0000
1100
1100
1100
0011
0101
0110
0110
,  // measure 23
0000
0001
1000
0010
0100
0100
0001
0010
,  // measure 24
0100
1000
0001
0010
0001
0000
1000
0010
1000
0000
0001
0000
1000
0010
0100
0001
,  // measure 25
0011
0101
0011
0101
0011
0101
0110
1100
,  // measure 26
0000
0000
1100
0000
1010
0000
1100
0000
1010
0000
0110
0000
0101
0000
0011
0100
,  // measure 27
1000
0000
0110
0000
0000
0000
1000
0001
1000
0000
1001
0000
0000
0000
1000
0000
,  // measure 28
0000
0110
0001
0000
0110
1000
0000
0110
,  // measure 29
0001
0000
0110
0010
1010
1000
1100
0100
,  // measure 30
0110
0011
0001
0101
0100
0110
0010
1010
,  // measure 31
1000
1010
1100
1001
0001
0101
0011
0101
,  // measure 32
0100
0110
0101
0110
0010
1010
0110
1010
,  // measure 33
0110
0000
0010
0000
0110
0000
1001
0001
,  // measure 34
0101
0100
0110
1010
1000
1100
0100
0110
,  // measure 35
0010
0011
0001
0101
0011
1001
1000
1100
,  // measure 36
1010
0110
0010
1010
1100
0110
0010
0011
,  // measure 37
0101
1001
1001
0000
1000
0000
0110
0000
,  // measure 38
1001
1000
1001
0001
1001
0101
0100
0110
,  // measure 39
0010
1010
1000
2001
0000
3001
1000
0010
,  // measure 40
0100
0001
0000
0001
0010
0000
0100
1000
0100
0010
0001
0000
0020
0000
1031
0000
,  // measure 41
0000
0011
0101
1010
1100
0000
0001
0000
,  // measure 42
0110
0000
1010
1000
1100
0100
0110
0011
,  // measure 43
0001
1001
1000
1100
0100
0110
0010
0011
,  // measure 44
0101
0110
0100
1100
0110
1100
1001
0011
,  // measure 45
0110
1010
1000
0002
0023
2030
3110
0000
,  // measure 46
0010
0000
0110
0000
1010
1000
1010
0010
,  // measure 47
1010
1000
1010
0010
0110
0100
0101
0001
,  // measure 48
1001
0011
1001
1100
1001
0001
0101
0100
,  // measure 49
0110
1010
0110
0101
1001
1000
1001
1002
,  // measure 50
1100
0103
1100
1000
1010
0010
0110
0101
,  // measure 51
1010
1100
0011
0110
1100
1001
0001
1001
,  // measure 52
1000
1010
0110
1010
1100
0100
1100
1010
,  // measure 53
0101
0000
0011
0000
0110
0000
1001
0000
1000
0000
1002
2000
0000
0000
3003
0000
,  // measure 54
0000
0200
0000
0000
0000
0002
0000
0000
,  // measure 55
0000
0000
0000
0000
0000
0000
0000
0303
;
