#TITLE:Ash Greninja Appears -full version-;
#SUBTITLE:Pokemon XYZ OST;
#ARTIST:The Pokemon Company;
#TITLETRANSLIT:;
#SUBTITLETRANSLIT:;
#ARTISTTRANSLIT:;
#GENRE:;
#CREDIT:Magna Trick;
#BANNER:AGABN.png;
#BACKGROUND:AGAB.png;
#LYRICSPATH:;
#CDTITLE:Magna Trick title!.png;
#MUSIC:Ash Greninja Appears -full version-.mp3;
#OFFSET:-0.041135;
#SAMPLESTART:44.910000;
#SAMPLELENGTH:18.000000;
#SELECTABLE:YES;
#BPMS:0.000000=127.030006
,95.000000=254.060013
,98.000000=127.030006
,154.500000=63.515003
,156.000000=127.030006
,254.500000=254.060013
,331.500000=63.515003
,349.500000=127.030006
,395.500000=63.515003
,396.500000=127.030006
;
#STOPS:208.500000=0.280000,
208.666672=0.270000,
208.833328=0.160000,
349.500000=0.160000
;
#BGCHANGES:0.083=Ash Greninja Appears -full version-.avi=1.000=0=0=1=====,
451.000=AGAB.png=1.000=0=0=1=====,
99999=-nosongbg-=1.000=0=0=0 // don't automatically add -songbackground-
;
#KEYSOUNDS:;
#ATTACKS:;

//---------------dance-single - ----------------
#NOTES:
     dance-single:
     :
     Hard:
     14:
     0.603354,1.171340,0.241066,0.212138,0.520703,876.000000,826.000000,50.000000,44.000000,0.000000,0.000000,0.603354,1.171340,0.241066,0.212138,0.520703,876.000000,826.000000,50.000000,44.000000,0.000000,0.000000:
0000
0000
1000
0000
0000
0100
0000
0000
0010
0000
0000
0001
0000
0000
1000
0000
,
1001
0000
0001
0000
0000
0010
0000
0000
0100
0000
0000
1000
0000
0000
1001
0000
,
0000
0000
1001
0000
0001
0000
1000
0001
1000
0001
0000
0001
1000
0000
1000
0000
,
0001
0000
0010
0000
0100
0000
0010
0100
0010
0100
0000
0100
0010
0000
0100
0000
,
0010
0000
0001
0000
0100
0000
0010
0100
0010
0100
0000
0100
0010
0000
0100
0000
,
0010
0000
1000
0001
1000
0001
1000
0001
1000
0001
1000
0001
1000
0001
1000
0000
,
0001
0000
1001
0000
0001
0000
1000
0000
0001
0000
0010
0000
0100
0010
0000
0010
,
0000
0100
0000
0010
0001
0000
0100
0000
0100
0000
0010
0000
1000
0000
0100
0000
,
0010
0001
0000
0001
0010
0000
0100
0000
1000
0000
0001
0000
1000
0001
0000
0001
,
1000
0000
0001
0000
0100
0000
0010
0000
0100
0000
0010
0100
0000
0100
0010
0000
,
0100
0000
0110
0000
0010
0000
1000
0000
0100
0000
1000
0000
1000
0100
0000
1000
,
0000
0100
1000
0000
0100
0000
1000
0000
0001
0000
0100
0000
0010
0000
0100
0000
,
0001
0100
0000
0100
0001
0000
0001
0000
1000
0000
0001
0000
0000
1000
0000
0000
,
0001
0000
0010
0100
0010
0001
0100
0110
,
0000
0000
0010
1000
0001
1000
0000
0100
0000
1000
0000
0000
0100
0000
1000
0000
,
0010
0000
0100
0000
0001
0000
0100
0000
0010
0000
1000
0000
0100
1000
0000
0000
,
0001
0000
1000
0000
0001
1000
0000
0001
0000
0100
0000
0000
0010
0000
0100
0000
,
0001
0000
1000
0000
0001
1000
0000
0001
1000
0000
0000
0000
0000
0000
0100
0000
,
1000
0002
0000
0203
0000
0320
0000
2030
,
0000
3002
0000
0023
0000
0230
0000
2300
,
0000
0000
3100
0000
0000
1000
0000
0000
0010
0000
0000
0000
0100
0000
0001
0000
,
0010
0000
0100
0000
0000
0010
0000
0000
0001
0000
0000
0000
0100
0000
0010
0000
,
1000
0000
0100
0000
0000
1000
0000
0000
0001
0000
0000
1000
0000
0000
0001
0000
,
1000
0000
0001
0000
0000
1000
0000
0000
1001
0000
0000
0000
0002
0000
0000
0000
,
2003
0000
3000
0000
1001
0001
1000
0100
,
1000
0000
0010
0000
0100
0000
0001
0000
0001
0000
0010
0100
0000
0010
0000
0001
,
0000
0001
1000
0000
1001
0010
0100
0001
,
0100
0000
1000
0000
0100
0000
0001
0000
0010
0000
0000
0010
0000
0000
0010
0000
,
0000
0001
0100
0000
0101
0001
1000
0001
,
0200
0320
2030
3200
,
0320
0000
0000
0000
0030
0000
0001
1000
0001
0000
0001
1000
0000
1000
0000
0001
,
0000
0000
0010
0000
0100
0000
0010
0000
0001
0000
0000
0100
0000
0000
0010
0000
,
0000
1000
0000
0000
0001
0000
1000
0000
0001
0000
0010
0100
0000
0010
0000
0001
,
0000
0000
0100
0000
0010
0000
1000
0000
0001
0000
0000
1000
0000
0000
0001
0000
,
0000
1000
0000
0000
0001
0000
0010
0000
0100
0000
0000
0010
0000
0000
0001
0000
,
0000
0100
0000
0000
1000
0000
0000
0000
1001
0000
0001
0000
1000
0000
0001
0000
,
1000
0000
1000
0001
0000
1000
0000
0001
0000
0000
0010
0000
0100
0000
0010
0000
,
0001
0000
0100
0000
0010
0000
0100
0010
0000
0000
0010
0000
1000
0000
0100
0000
,
1000
0000
0000
0000
0000
0000
0010
0000
0000
0000
0000
0000
0010
0000
0000
0000
0000
0000
0000
0000
1000
0000
0100
0000
0010
0000
0001
0000
0010
0000
0100
1000
,
0100
1000
1001
0000
0100
0000
1000
0000
0001
0000
1000
0000
1000
0001
0000
1000
,
0000
0001
0000
0000
0010
0000
0100
0000
0010
0000
0100
0000
1000
0000
0010
0000
,
0100
0010
0000
0000
0010
0000
0100
0000
1000
0000
0100
0000
0000
0010
0000
0000
,
1000
0000
1000
0100
0001
0100
1000
0010
,
0000
0000
0010
1000
0001
0100
0000
0001
0000
0100
0000
0000
0100
0000
0001
0000
,
0100
0000
0010
0000
1000
0000
0001
0000
1000
0000
0001
0000
1000
0001
0000
0000
,
0001
0000
0010
0000
0100
0010
0000
0010
0000
0001
0000
0000
0001
0000
0100
0000
,
0010
0000
0100
0000
0010
1000
0000
1000
0010
0000
0000
0000
0000
0000
0010
0000
,
1000
0200
0000
0320
0000
0032
0000
0203
,
0000
0320
0000
2030
0000
3200
0000
0320
,
0000
0000
0031
0000
0000
1000
0000
0000
0001
0000
0000
0000
1000
0000
0001
0000
,
1000
0000
0001
0000
0000
0001
0000
0000
1000
0000
0000
0000
0001
0000
0010
0000
,
0100
0000
1000
0000
0000
1000
0000
0000
1000
0000
0000
0001
0000
0000
0001
0000
,
0001
0000
0000
0000
0000
0000
2000
0000
3002
0000
2003
3000
1001
0000
0000
0000
0000
0000
0001
0000
0000
0000
0000
0000
1000
0000
0000
0000
0000
0000
0000
0000
0000
0000
0000
0000
1001
0000
0000
0000
0000
0000
0001
0000
0000
0000
0000
0000
,
1000
0000
0010
0000
1000
0000
0100
0000
0010
0000
0001
0000
0010
0000
0100
0010
,
0000
0010
0000
0100
0000
0000
0100
0000
1000
0000
0000
0000
1100
0000
0001
0000
,
0100
0000
0010
0000
0100
0000
0001
0000
1000
0000
0100
0000
1001
0000
0000
1001
,
0000
0000
1001
0000
0001
1000
0001
1000
0001
1000
0001
0000
1010
0000
0010
0000
,
1000
0100
0020
0000
0032
0000
0203
0000
,
0320
0000
0000
0000
2030
0000
0000
0000
3000
0000
0010
1000
0100
0000
0010
0001
,
0000
0100
0000
0010
0000
0000
0010
0000
1000
0000
0100
0000
1001
0000
0000
1001
,
0000
0000
1001
0000
0000
1001
0000
0000
0001
0000
0100
0010
1000
0000
0100
1000
,
0000
0001
0000
0010
0000
0000
0001
0000
0010
0000
0100
0000
1000
0000
0000
1000
,
0000
0000
1000
0000
0000
0001
0000
0000
0001
0000
0001
0000
1001
0000
0000
1001
,
0000
1001
0001
1000
0010
0000
0000
1000
,
0000
0100
0000
1000
0001
1000
0001
0000
,
0001
1000
0000
1000
0000
0001
0000
0010
,
0000
0100
0000
0010
0100
0010
0100
0000
,
0100
0010
0000
0100
0000
0010
0000
0001
,
0000
0100
0000
0010
0100
0010
0100
0000
,
0100
0010
0000
1000
0000
0001
0000
1001
,
0000
0000
1001
0000
0000
1001
0100
1000
,
0100
0000
0000
1000
0000
0000
0000
0000
0000
0001
0000
0100
0000
0001
0000
0100
0000
0001
0000
0100
0000
0001
0000
0000
,
0000
1000
0010
0000
0010
1000
0000
0100
,
0000
0010
0000
0001
0000
0100
0000
0001
,
0000
0100
0001
0000
0001
0100
0000
0001
,
0000
1000
0000
0100
0000
0010
0000
0100
,
0010
0100
0010
0001
0010
0001
0100
0001
,
0100
0010
1000
0001
1000
0100
0001
0100
,
0010
0001
1000
0100
1000
0001
0010
0001
,
1000
0100
1000
0001
0100
0001
1000
0100
,
0000
1000
0001
0000
1000
0001
0000
1000
,
0000
0001
0000
0010
0000
0100
0000
0010
,
0000
0000
0100
0000
0010
0000
0000
0000
0010
0000
0100
0000
0000
0000
1000
0002
,
2003
0000
3000
0000
1001
0000
0000
0000
0000
0000
0001
0000
1000
0000
0100
0000
1000
0000
0001
0000
0100
0000
0001
1000
0000
1000
0000
0001
0000
0000
0001
0000
,
1000
0000
0000
0000
1001
0000
0000
0000
0001
0000
1000
0000
0010
0000
0100
0000
0001
0000
1000
0000
0010
0000
0000
0010
0000
0000
0010
0000
0000
0000
1000
0000
,
0001
0000
1001
0000
0001
1000
0001
0000
0001
0000
1000
0000
1000
0000
0010
0000
,
0010
0000
0100
0010
0100
0000
0010
0100
0000
0001
0000
0010
0001
0000
0001
0000
1000
0000
0001
0000
0011
0000
0001
0010
0000
0010
0100
0000
0100
1000
0000
1000
,
0100
0000
0000
0000
0000
0000
0010
0000
0000
0000
0000
0000
0001
0000
0000
0000
0000
0000
1000
0000
0000
0000
0000
0000
0100
0000
0000
0000
1000
0000
0000
0000
0100
0000
0000
0000
0010
0000
0000
0000
0001
0000
0000
0000
0010
0000
0000
0000
0100
0000
0000
0000
1000
0000
0000
0000
0001
0000
0000
0000
1000
0000
0000
0000
0100
0000
0000
0000
0010
0000
0000
0000
0001
0000
0000
0000
0000
0000
0000
0000
0000
0000
0000
0000
0000
0000
0000
0000
0000
0000
0000
0000
0000
0000
0000
0000
0001
0000
0000
0000
0000
0000
0000
0000
0000
0000
0000
0000
0000
0000
0000
0000
0000
0000
0000
0000
0000
0000
0000
0000
1000
0000
0000
0000
0000
0000
0000
0000
0000
0000
0000
0000
0000
0000
0000
0000
0000
0000
0000
0000
0000
0000
0000
0000
0000
0000
0000
0000
0000
0000
0000
0000
0000
0000
0000
0000
0000
0000
0000
0000
0000
0000
0000
0000
0000
0000
0000
0000
1001
0000
0000
0000
0000
0000
0000
0000
0000
0000
0000
0000
0000
0000
0000
0000
0000
0000
0000
0000
0000
0000
0000
0000
,
0001
1000
0010
0100
0010
1000
0100
0010
,
0100
0010
0000
0001
0000
0100
0000
0000
0001
0000
1000
0000
0000
0000
1001
0000
,
0001
1000
0010
0100
0001
0100
0001
0001
,
0000
0000
0000
1000
0000
0000
0000
0000
0000
0000
0000
0000
0001
0000
0000
0010
0000
0000
0001
0000
0000
0010
0000
0000
0100
0000
0000
1000
0000
0000
0100
0000
0010
0000
0001
0000
1000
0000
0001
0000
1000
0000
0100
0000
0000
0000
0000
0000
,
0100
1000
0001
0200
0000
0320
0000
2030
,
0000
0000
3002
0000
0000
0000
0023
0000
0000
0000
0030
0000
0001
1000
0100
0000
,
1000
0001
0000
0100
0000
0001
0000
0000
0010
0000
0100
0000
0010
0000
1001
0000
,
0000
0000
0000
1001
0000
0000
0000
0000
0000
0000
0000
0000
1001
0000
0000
0000
0000
0000
0000
0000
0000
1001
0000
0000
0000
0000
0000
0000
0000
0000
0001
0000
1000
0000
0001
0000
1000
0000
0001
0000
1000
0000
1001
0000
0000
0000
0000
0000
,
0000
0000
0001
1000
0010
0100
0010
1000
,
0001
1000
0000
1000
0000
0001
0000
0000
0001
0000
1000
0000
0000
0000
1001
0000
,
0000
0000
0000
0000
0100
0000
0000
0000
0010
0000
0000
0000
0001
0000
0000
0000
1000
0000
0000
0000
0001
0000
0000
0000
1000
0000
0000
0000
0001
0000
0000
0001
,
0000
1000
0000
0000
1000
0000
0001
0000
0000
0000
1001
0000
0000
0000
1000
0000
,
0100
0002
0000
0023
0000
2030
0000
3020
,
0000
0000
0032
0000
0000
0000
0003
0000
0001
0100
1000
0000
0100
0010
0000
1000
,
0000
0100
0000
0000
0010
0000
1000
0000
0010
0000
0100
0000
0000
1000
0000
0000
,
0010
0000
0000
0001
0000
0000
1000
0100
0010
0001
1000
0000
1000
0100
0000
0010
,
0000
1000
0000
0000
0001
0000
0010
0000
0100
0000
1001
0000
0000
1001
0000
0000
,
1001
0000
0000
1001
0000
0000
1000
0000
0001
0000
0110
0000
0000
0110
0000
0000
,
0110
0000
0000
0100
0000
0000
0001
0000
1000
0001
1000
0000
0001
0000
0010
0000
,
0100
0000
1000
0000
0010
1000
0000
1000
0000
0100
0000
0000
0100
0000
0100
0000
,
0010
0010
0001
0001
0000
1001
0001
0100
,
0010
0000
1000
0000
0100
0010
0000
0010
0000
0100
0000
0000
0100
0000
0010
0000
,
0001
0100
0000
0000
0100
0000
0001
0000
1000
0000
0000
0000
1000
0000
0100
0000
,
1000
0100
0000
0000
0100
0000
1000
0000
0001
0000
0000
0000
0001
0000
0100
0000
,
0010
0100
0000
0000
0100
0000
0010
0000
2000
0000
0000
0000
0000
0000
0000
0000
,
3000
0000
0000
0000
;

//---------------dance-single - ----------------
#NOTES:
     dance-single:
     :
     Easy:
     4:
     0.285836,0.571417,0.091605,0.284458,0.040981,415.000000,396.000000,19.000000,59.000000,0.000000,0.000000,0.285836,0.571417,0.091605,0.284458,0.040981,415.000000,396.000000,19.000000,59.000000,0.000000,0.000000:
0000
0000
0000
0000
,
0000
0000
0000
0000
,
0000
0001
0000
0001
0000
1000
0000
1000
,
0000
0010
0000
0010
0000
0100
0000
0100
,
0000
0001
0000
0001
0000
1000
0000
1000
,
0000
0100
0000
0000
0000
0000
0000
0000
,
0000
0010
0000
0000
0000
0001
0000
0000
,
0000
1000
0000
0000
0000
0010
0000
0000
,
0000
0100
0000
0000
0000
0001
0000
0000
,
0000
1000
0000
0000
0000
0100
0000
0100
,
0000
0010
0000
0000
0000
0001
0000
0000
,
0000
1000
0000
0000
0000
0010
0000
0000
,
0000
1000
0000
0010
0000
0010
0000
1000
,
0000
1000
0000
0001
0000
0001
0000
1000
,
0000
1001
0000
0000
0000
0000
0000
0000
,
0000
1000
0000
1000
0000
1000
0000
1000
,
0000
0001
0000
0000
0000
0000
0000
0000
,
0000
0001
0000
0001
0000
0001
0000
1000
,
0000
0100
0000
0100
0000
0010
0000
0010
,
0000
0001
0000
0001
0000
1000
0000
1000
,
0000
0010
0000
0000
0000
0000
0000
0000
,
0000
0100
0000
0000
0000
0000
0000
0000
,
0000
0001
0000
0000
0000
0000
0000
0000
,
0000
1000
0000
0001
0000
1000
0002
0000
,
2003
3000
1001
0001
,
0001
1000
1000
0010
,
1000
0001
1001
1000
,
1000
0001
0001
0010
,
0001
1000
1001
0001
,
0001
1000
1000
0010
,
1000
0000
0001
0001
,
0100
0100
0010
0010
,
1000
1000
0001
1000
,
0001
1000
0001
0001
,
1000
1000
0001
0001
,
1000
1000
1001
0000
,
0010
1000
0100
0010
,
0001
0100
0010
1000
,
1000
0000
0000
0000
0001
0000
0000
0000
0001
0000
1000
0001
1000
0001
1000
0001
,
0000
1001
0000
0000
0000
0001
0000
1000
,
0000
0010
0000
0100
0000
0010
0000
1000
,
0000
0100
0000
0010
0000
0010
0000
0010
,
0000
0010
0000
0001
0000
0001
0000
0001
,
0000
1000
0000
0010
0000
1000
0000
0010
,
0000
1000
0000
1000
0000
1000
0000
1000
,
0000
0001
0000
0001
0000
0001
0000
0001
,
0000
0010
0000
0010
0000
0010
0000
0100
,
0000
1000
0000
0001
0000
0001
0000
0001
,
0000
1000
0000
1000
0000
1000
0000
1000
,
0000
0020
0000
0000
0000
0000
0000
0030
,
0000
0100
0000
0000
0000
0000
0000
0000
,
0000
0001
0000
0000
0000
0000
0000
0000
,
0001
0000
0000
1000
0001
1000
0001
0000
0000
0000
0000
0000
0000
0000
0000
0000
0000
0000
1001
0000
0000
0000
0000
0000
,
0001
0001
1000
1000
,
0010
0100
0001
1001
,
1000
1000
0100
0010
,
0001
1000
0001
1001
,
0010
1000
0010
0001
,
0100
0001
0000
1000
,
1000
0001
0001
0010
,
0100
0010
0001
1000
,
0010
0100
0010
1000
,
1000
1000
1000
0001
,
0001
0000
0001
0000
1000
0000
0000
2000
,
0000
0000
0000
0000
0000
0000
0000
3000
,
0000
0002
0000
0000
0003
2000
0000
3200
,
0000
0300
0020
0000
0000
0032
0000
0000
,
0003
0002
0000
2003
0000
3020
0000
0230
,
0000
0000
0302
0000
0000
2003
0000
3002
,
0000
0003
2000
0000
0000
3002
0000
0203
,
0000
0000
0320
0000
0030
0020
0000
0000
,
0030
0020
0000
0230
0000
0000
0000
0302
,
0000
0000
2003
0000
0000
3200
0000
0000
,
0300
0200
0000
0320
0000
0032
0000
0023
,
0000
0030
0020
0000
0030
0020
0000
0000
,
0000
0032
0000
0203
0000
0320
0000
2030
,
0000
3000
2000
0000
3000
2000
0000
3000
,
2000
0000
3000
2000
0000
3002
0000
0023
,
0000
0030
0020
0000
0030
0020
0000
0030
,
0020
0000
0030
0020
0000
0032
0000
0203
,
0000
0300
0200
0000
0300
0200
0000
0300
,
0000
0020
0000
2030
0000
3200
0000
2300
,
0000
3000
2000
0000
3000
2000
3000
0001
,
1000
1001
0000
1000
1000
0100
0010
0000
,
0001
0000
0000
0000
1001
0000
0000
0000
1000
0000
0000
0000
0001
0000
0000
0000
1000
0000
1000
0000
0100
0000
0000
0100
0000
0000
0100
0000
0000
0000
1000
0000
,
0001
1001
0010
0100
1000
0001
0001
0010
,
0010
0000
0000
0000
0100
0000
0000
0000
0100
0000
0000
0000
1000
0000
0000
0000
1000
0000
0000
0000
0001
0000
0000
1000
0000
0000
0100
0000
0000
0010
0000
0000
,
0001
0000
0100
0000
0010
0000
0000
0010
0000
0000
0010
0000
0010
0000
0000
0000
1000
0000
0000
0000
0001
0000
0000
0000
0000
0000
0000
0000
1001
0000
0000
0000
,
0000
0001
0000
0001
0000
1000
0000
1000
,
0000
0010
0000
0100
0000
0001
0000
1001
,
0000
1000
0000
0100
0000
0010
0000
0001
,
0000
0001
0000
0010
0000
0010
0000
1001
,
0000
1000
0000
1000
0000
0001
0000
0001
,
0000
0100
0000
0020
0000
0030
0000
1000
,
0000
1000
0000
0001
0000
0001
0000
0010
,
0000
0000
0000
0000
0000
0000
0000
1001
,
0000
0000
0000
0010
0000
0010
0000
1000
,
0000
1000
0000
0001
0000
0000
0000
1001
,
0000
0000
0000
0000
0000
0000
0000
0000
0000
0000
0000
0000
0001
0000
0000
0000
0000
0000
0000
0000
0001
0000
0000
0000
1000
0000
0000
0000
0010
0000
0000
0010
,
0000
0010
0000
0000
0000
0000
0000
0000
0000
0000
1001
0000
0000
0000
0000
0000
,
0000
0001
0000
0001
0000
1000
0000
1000
,
0000
0010
0000
0000
0000
1000
0000
0100
,
0000
0010
0000
0001
0000
0100
0000
0100
,
0000
0010
0000
0010
0000
1000
0000
0001
,
0000
1000
0000
0001
0000
1000
0000
1000
,
0000
0001
0000
0001
0000
0010
0000
0100
,
0000
0010
0000
0001
0000
1000
0000
0000
,
0000
0010
0000
0010
0000
1000
0000
0001
,
0000
1000
0000
0001
0000
0100
0000
0000
,
0000
0001
0000
0001
0000
0100
0000
0010
,
0000
1000
0000
0010
0000
0100
0000
0001
,
0000
0100
0000
0010
0000
1000
0000
0001
,
0000
1000
0000
0001
0000
2002
0000
3003
;

//---------------dance-single - ----------------
#NOTES:
     dance-single:
     :
     Medium:
     8:
     0.448383,0.763577,0.086784,0.294101,0.207317,651.000000,633.000000,18.000000,61.000000,0.000000,0.000000,0.448383,0.763577,0.086784,0.294101,0.207317,651.000000,633.000000,18.000000,61.000000,0.000000,0.000000:
0000
0000
1000
0000
0000
0001
0000
0000
1000
0000
0000
0001
0000
0000
1000
0000
,
0100
0000
0010
0000
0000
0100
0000
0000
0010
0000
0000
0100
0000
0000
0010
0000
,
0000
0001
0010
0001
0010
0001
0100
0001
,
0100
0010
1000
0010
1000
0100
1000
0100
,
1000
0001
1000
0001
0100
0001
0100
0001
,
0100
0000
0010
0000
0000
0010
0000
0000
0010
0000
0000
0010
0000
0000
1000
0000
,
0100
1000
0000
0001
0000
1000
0000
0010
,
0000
0100
0000
0010
0000
1000
0000
0100
,
0000
0000
0010
0000
0000
0000
0001
0000
0010
0000
0100
0000
0000
1000
0000
0000
,
0100
0000
1000
0100
0010
0001
0010
0100
,
0000
1000
0000
0001
0000
1000
0000
0001
,
0000
0100
0000
0001
0000
0100
0000
0010
,
0000
0000
0100
0000
0010
0000
1000
0000
0100
0000
1000
0000
0000
0010
0000
0000
,
0100
0000
0010
1000
0100
0010
0001
0010
,
0000
0001
0000
0001
0000
1000
0000
1000
,
0000
0010
0000
0010
0000
0010
0000
0010
,
0000
1000
0000
1000
0000
0100
0000
0100
,
0000
0000
0010
0000
0000
0100
0000
0000
0010
0000
0000
0000
0000
0000
0001
0000
,
0100
0010
0000
0010
0000
1000
0000
1000
,
0000
0001
0000
0001
0000
0010
0000
0010
,
0000
0000
0100
0000
0000
1000
0000
0000
0001
0000
0000
0000
0001
0000
0100
0000
,
0010
0000
1000
0000
0000
1000
0000
0000
1000
0000
0000
0000
0010
0000
1000
0000
,
0100
0000
0010
0000
0000
0010
0000
0000
0010
0000
0000
0010
0000
0000
0001
0000
,
1000
0000
0001
0000
0000
0100
0000
0000
0010
0000
1000
0000
0002
0000
0000
0000
,
2003
0000
3000
0000
1001
0000
0000
0010
,
1000
0100
0010
0001
0010
0100
0010
0001
,
0000
0001
1000
0000
1001
0000
0100
1000
,
0010
0000
0100
0000
0001
0000
0010
0000
0100
0000
0000
1000
0000
0000
0001
0000
,
0000
0001
1000
0000
1001
0000
0010
1000
,
0100
0100
0010
0010
,
0001
0000
0000
1000
0100
1000
0001
0100
,
0001
0000
1000
0000
0010
0000
1000
0000
0100
0000
0000
0100
0000
0000
0100
0000
,
0000
0100
0000
0000
0010
0000
0001
0000
0100
0000
0001
0000
0100
0000
0010
0000
,
0100
0000
0010
0000
1000
0000
0010
0000
1000
0000
0000
1000
0000
0000
1000
0000
,
0000
1000
0000
0000
0001
0000
0001
0000
0001
0000
0000
0001
0000
0000
0001
0000
,
0000
0001
0000
0000
0001
0000
0000
0000
0001
0000
0000
0000
0000
0000
0010
0000
,
0100
0010
0001
0100
0001
0100
0001
1000
,
0100
1000
0100
1000
0001
0000
0001
0000
,
1000
0000
0000
0000
1000
0000
0000
0000
0001
0000
1000
0001
1000
0001
1000
0001
,
0000
1001
0000
0000
0001
0100
0010
1000
,
0010
1000
0010
1000
0100
1000
0100
0010
,
0001
0000
0010
0000
0001
0000
0001
0000
0001
0000
0001
0000
0000
1000
0000
0000
,
0010
0000
1000
0100
1000
0001
1000
0001
,
0000
0001
0000
0100
0000
0010
0000
1000
,
0000
0010
0000
0010
0000
1000
0000
1000
,
0000
0001
0000
0001
0000
0010
0000
0010
,
0000
0000
0100
0000
0000
0100
0000
0000
0100
0000
0000
0000
0000
0000
1000
0000
,
0001
1000
0000
0001
0000
0001
0000
0100
,
0000
0100
0000
0010
0000
0010
0000
0010
,
0000
0000
1000
0000
0000
1000
0000
0000
1000
0000
0000
0000
0001
0000
1000
0000
,
0001
0000
1000
0000
0000
1000
0000
0000
1000
0000
0000
0000
0001
0000
1000
0000
,
0001
0000
1000
0000
0000
1000
0000
0000
1000
0000
0000
1000
0000
0000
1000
0000
,
0001
0000
0000
1000
0100
0010
0001
0000
0000
1000
0000
0000
0001
0000
0000
0000
0000
0000
1001
0000
0000
0001
0000
0000
,
1000
0001
1000
0001
1000
0001
1000
1000
,
1000
0001
0010
0001
1000
0000
1001
0000
,
0001
0000
1000
0000
0001
0000
1000
0000
0001
0000
1000
0000
0001
0000
0000
0001
,
0000
0001
0000
0001
1000
0000
1001
0000
,
0100
0010
0100
0000
0100
0000
1000
0000
,
1000
0000
0001
0000
0000
0001
0100
0010
,
1000
0000
0010
0000
0100
0000
0001
0000
1000
0000
0100
0000
1000
0000
0000
1000
,
0000
0000
1000
0000
0000
1000
0000
0000
1000
0000
0001
0000
0100
0000
0001
0000
,
0100
0000
0001
0000
1000
0000
0001
0000
1000
0000
0001
0000
0010
0000
0000
0010
,
0000
0000
0010
0000
0000
0010
0000
0000
0010
0000
0001
0000
0100
0000
0000
0100
,
0000
0000
0100
0000
0000
0100
0000
0000
0010
0000
0000
0000
0000
0000
2000
0000
,
0000
0000
0000
0000
0000
0000
0000
3000
,
0000
0002
0000
0000
0003
2000
0000
3200
,
0000
0300
0020
0000
0000
0032
0000
0000
,
0003
0002
0000
2003
0000
3020
0000
0230
,
0000
0000
0302
0000
0000
2003
0000
3002
,
0000
0003
2000
0000
0000
3002
0000
0203
,
0000
0000
0320
0000
0030
0020
0000
0000
,
0030
0020
0000
0230
0000
0000
0000
0302
,
0000
0000
2003
0000
0000
3200
0000
0000
,
0300
0200
0000
0320
0000
0032
0000
0023
,
0000
0030
0020
0000
0030
0020
0000
0000
,
0000
0032
0000
0203
0000
0320
0000
2030
,
0000
3000
2000
0000
3000
2000
0000
3000
,
2000
0000
3000
2000
0000
3002
0000
0023
,
0000
0030
0020
0000
0030
0020
0000
0030
,
0020
0000
0030
0020
0000
0032
0000
0203
,
0000
0300
0200
0000
0300
0200
0000
0300
,
0000
0020
0000
2030
0000
3200
0000
2300
,
0000
0000
3000
0000
2000
0000
0000
0000
3000
0000
2000
0000
3000
0000
1001
0001
,
1000
0000
1001
0000
0000
0010
1000
0100
1000
0010
0100
0001
0010
0001
0000
0001
,
1000
0000
0000
0000
1001
0000
0000
0000
0001
0000
1000
0000
0010
0000
0100
0000
0001
0000
1000
0000
0100
0000
0000
0100
0000
0000
0100
0000
0000
0000
1000
0000
,
0001
0000
1001
0000
0001
1000
0001
0000
0001
0000
1000
0000
1000
0000
0010
0000
,
0010
0000
0100
0000
0001
0000
0100
0000
0001
0000
0100
0000
0001
0000
1000
0000
0001
0000
1000
0000
0010
0000
0000
1000
0000
0000
0100
0000
0000
0010
0000
0000
,
0001
0000
0100
0000
0010
0000
0000
0010
0000
0000
0010
0000
0010
0000
0000
0000
1000
0000
0000
0000
0001
0000
0000
0000
0000
0000
0000
0000
1001
0000
0000
0000
,
0001
1000
0010
0100
0010
1000
0100
0010
,
0001
0001
0001
0010
0001
1000
0000
1001
,
0000
0001
1000
0010
0100
0001
1000
0010
,
0000
0010
0000
0000
0010
0000
0000
0000
1000
0000
0001
0000
0000
0000
1001
0000
,
0000
0100
1000
0001
0000
0001
0000
1000
,
0000
1000
0000
0010
0000
0000
0010
0100
,
0001
0100
0010
1000
0100
0010
0001
0010
,
0000
0010
0000
0000
0010
0000
0000
0010
0001
0000
1000
0000
0000
0000
1001
0000
,
0000
0010
1000
0001
1000
0001
1000
0001
,
1000
0001
0000
1000
0000
0001
0000
0000
0001
0000
1000
0000
0000
0000
1001
0000
,
0000
0000
0000
0000
0100
0000
0000
0000
0010
0000
0000
0000
0001
0000
0000
0000
0100
0000
0000
0000
0010
0000
0000
0000
1000
0000
0000
0000
0010
0000
0000
0010
,
0000
0010
0000
0000
1000
0000
0001
0000
0000
0000
1001
0000
0001
0000
1000
0000
,
0010
0200
0000
0302
0000
2003
0000
3200
,
0000
0320
0000
0030
0001
0010
0100
1000
,
0001
0000
0100
0000
0001
0000
0100
0000
0001
0000
1000
0000
0000
1000
0000
0000
,
1000
0000
0000
1000
0000
0000
1000
0000
0100
0000
1000
0000
1000
0000
0100
0000
,
1000
0000
0100
0000
1000
0000
0100
0000
0010
0000
0001
0000
0000
0001
0000
0000
,
0001
0000
0000
0001
0000
0000
0001
0000
0010
0000
0100
0000
0000
0100
0000
0000
,
0100
0000
0000
0100
0000
0000
1000
0000
0000
0000
1001
0000
0000
0000
0001
0000
,
1000
0000
0010
0000
0000
0100
0000
0001
0000
1000
0000
0000
0100
0000
1000
0000
,
0100
0000
1000
0000
0100
0000
1000
0000
0000
0000
0001
0000
0000
0000
0000
0100
,
0000
0010
0000
0000
0100
0000
0001
0000
1000
0000
0000
0000
0100
0000
1000
0000
,
0000
0001
0000
0000
0010
0000
0100
0000
0010
0000
0000
0000
0001
0000
0010
0000
,
0000
0100
0000
0000
1000
0000
0100
0000
1000
0000
0000
0000
0001
0000
0100
0000
,
0000
0010
0000
0000
1000
0000
0100
0000
0020
0000
0000
0000
0000
0000
0000
0000
,
0000
0030
0000
0000
0000
0000
0000
0000
;

//---------------dance-single - ----------------
#NOTES:
     dance-single:
     :
     Challenge:
     17:
     0.767968,1.171340,0.226602,0.173568,0.863017,1115.000000,1068.000000,47.000000,36.000000,0.000000,0.000000,0.767968,1.171340,0.226602,0.173568,0.863017,1115.000000,1068.000000,47.000000,36.000000,0.000000,0.000000:
// measure 0
0000
0000
0001
0010
0001
0100
0010
0100
0001
1000
0001
0010
0100
0010
0001
1000
,  // measure 1
0100
1000
0001
0100
0010
0100
0001
0010
0100
0010
0100
1000
0100
0010
0001
0000
,  // measure 2
0000
0000
1001
0000
1000
0000
0001
0100
0001
1000
0000
1000
0001
0000
0001
0000
,  // measure 3
1000
0000
0100
0000
0010
0000
0100
1000
0100
0010
0000
0010
0100
0000
0010
0000
,  // measure 4
0100
0000
1000
0000
0010
0000
0100
0001
0100
0010
0000
0010
0100
0000
0010
0000
,  // measure 5
0100
0000
0001
1000
0100
1000
0001
0100
0001
1000
0010
1000
0001
0010
0001
0000
,  // measure 6
1000
0000
1001
0000
1000
0000
0001
0000
1000
0000
0100
0000
0010
0100
0000
0100
,  // measure 7
0000
0010
0000
0100
1000
0000
0010
0000
0010
0000
0100
0000
0001
0000
0010
0000
,  // measure 8
0100
1000
0000
1000
0100
0000
0010
0000
0001
0000
1000
0000
0001
1000
0000
1000
,  // measure 9
0001
0000
0000
0000
0000
0000
1000
0000
0001
0000
1000
0000
0001
0000
1000
0000
0001
0000
1000
0000
0001
0000
1000
0000
0001
0000
1000
0000
0001
0000
1000
0000
0001
0000
1000
0000
0001
0000
1000
0000
0001
0000
0100
0000
0000
0010
0000
0000
,  // measure 10
0100
0010
1001
0000
0100
0000
0001
0000
0010
0000
0001
0000
0001
0010
0000
0001
,  // measure 11
0000
0010
0001
0000
0010
0000
0001
0000
1000
0000
0010
0000
0100
0000
0010
0000
,  // measure 12
1000
0010
0000
0010
1000
0000
1000
0000
0001
0000
1000
0000
0000
0001
0000
0000
,  // measure 13
1000
0000
0000
0000
0000
0000
0000
0000
0000
0000
0000
0000
0100
0000
0000
0000
0000
0000
0010
0000
0000
0000
0000
0000
0100
0000
0000
0000
0000
0000
1000
0000
0000
0000
0000
0000
0010
0000
1000
0000
0001
0000
0100
0000
0000
0001
0000
0000
,  // measure 14
0010
0100
0100
1000
0001
1000
0000
0100
0000
0010
0000
0000
0010
0000
0001
0000
,  // measure 15
0100
0000
0010
0000
1000
0000
0010
0000
0100
0000
0001
0000
0010
0001
0000
0000
,  // measure 16
1000
0000
0001
0000
1000
0001
0000
1000
0000
0010
0000
0000
0100
0000
0010
0000
,  // measure 17
1000
0000
0000
0000
0000
0000
0001
0000
0000
0000
0000
0000
1000
0000
0000
0001
0000
0000
0000
0000
0000
1000
0000
0000
1001
0000
0000
0000
0000
0000
0010
0000
0001
0000
0010
0000
0001
0000
0000
1000
0000
0000
0001
0000
0000
1000
0000
0000
,  // measure 18
0001
0100
0010
1000
0010
1000
0100
0010
0100
0010
0001
0100
0001
0100
0010
1000
,  // measure 19
0010
1000
0100
0010
0100
0010
0001
1000
0001
1000
0010
0100
0010
0100
0001
0010
,  // measure 20
0001
0010
1001
0000
1000
0001
0000
1000
0001
0000
0010
0000
0100
0000
1000
0000
,  // measure 21
0100
0000
0010
0000
0001
0100
0000
0001
0100
0000
0010
0000
1000
0000
0100
0000
,  // measure 22
0010
0000
0001
0010
0001
1000
0100
1000
0001
0100
0001
1000
0010
1000
0100
0010
,  // measure 23
0100
0000
0000
1000
0000
0000
0001
0000
1000
0000
0010
0000
0100
0000
0001
0000
0010
0000
0100
0000
1000
0000
0100
0000
0010
0000
0001
0000
0100
0000
0010
0000
0000
0000
0000
0000
2000
0000
0000
0000
0000
0000
0000
0000
0000
0000
0000
0000
,  // measure 24
3002
0000
0003
0000
1001
1000
0001
0010
,  // measure 25
0001
0000
0100
0000
0010
0000
1000
0000
1000
0000
0100
0010
0000
0100
0000
1000
,  // measure 26
0000
1000
0001
0000
1001
0100
0010
1000
,  // measure 27
0010
0000
0001
0000
0010
0000
1000
0001
1100
0000
0000
1100
0000
0000
1100
0000
,  // measure 28
0100
0000
0000
1000
0000
0000
0001
0000
0000
1000
0000
0000
0001
0000
1000
0000
0001
0000
1000
0000
0000
0001
0000
0000
1001
0000
0000
0000
0000
0000
1000
0000
0000
0000
0000
0000
0001
0000
0000
0000
0000
0000
1000
0000
0000
0000
0000
0000
,  // measure 29
0020
0230
0302
0023
,  // measure 30
0230
0000
0000
0000
0300
0000
1000
0001
1000
0000
1000
0001
0000
0001
0000
1000
,  // measure 31
0000
0000
0100
0000
0010
0100
1000
0000
0101
0000
0000
0101
0000
0000
0101
0000
,  // measure 32
0000
0000
0000
0101
0000
0000
0000
0000
0000
0000
0000
0000
1000
0000
0001
0000
1000
0000
0001
0000
0000
0000
0000
0000
1000
0000
0000
0000
0000
0000
0100
0000
0000
0010
0000
0000
0000
0000
0000
0100
0000
0000
0000
0000
0000
1000
0000
0000
,  // measure 33
0000
0000
0010
0000
0100
0000
0001
0000
1000
0100
1000
0001
0100
0001
1000
0010
,  // measure 34
1000
0001
0010
0001
1000
0100
0010
0001
0010
0100
1000
0010
1000
0001
0010
0001
,  // measure 35
1000
0100
1000
0001
0100
0000
0000
0000
1001
0000
1000
0000
0001
0000
1000
0000
,  // measure 36
0001
0000
0001
1000
0000
0001
0000
1000
0000
0000
0100
0000
0010
0000
0100
0000
,  // measure 37
1000
0000
0010
0000
0100
0000
0010
0100
0000
0000
0100
0000
0001
0000
0010
0000
,  // measure 38
0001
0000
0000
0000
0000
0000
0100
0000
0000
0000
0000
0000
0100
0000
0001
0000
1000
0000
0000
0000
0001
0000
0010
0000
0100
0000
1000
0000
0100
0000
0010
0001
,  // measure 39
0010
0001
1001
0000
0010
0000
0001
0000
1000
0000
0001
0000
0001
1000
0000
0001
,  // measure 40
0000
1000
0000
0000
0100
0000
0010
0000
0100
0000
0010
0000
0001
0000
0100
0000
,  // measure 41
0010
0100
0000
0000
0100
0000
0010
0000
0001
0000
0010
0000
0000
0100
0000
0000
,  // measure 42
0001
0000
0000
0000
0000
0000
0000
0000
0000
0000
0000
0000
0001
0000
0000
0000
0000
0000
0010
0000
0000
0000
0000
0000
1000
0000
0000
0000
0000
0000
0010
0000
0000
0000
0000
0000
0001
0000
0100
0000
0001
0000
0100
0000
0000
0010
0000
0000
,  // measure 43
1000
0001
0100
0001
1000
0010
0000
1000
0000
0010
0000
0000
0010
0000
1000
0000
,  // measure 44
0010
0000
0100
0000
0001
0000
1000
0000
0001
0000
1000
0000
0001
1000
0000
0000
,  // measure 45
1000
0000
0100
0000
0010
0100
0000
0100
0000
1000
0000
0000
1000
0000
0010
0000
,  // measure 46
0100
0000
0010
0000
0100
0001
0000
0001
0100
0000
0000
0000
0000
0000
0100
0001
,  // measure 47
0100
0001
0020
0000
0100
0000
0230
0000
1000
0000
2300
0000
0010
0000
3020
0000
,  // measure 48
0100
0230
0001
0302
0010
0023
0100
0230
,  // measure 49
1000
0000
1300
0000
0001
1000
0000
1000
0001
0000
0100
0000
0010
0000
1000
0000
,  // measure 50
1000
0000
0001
0000
1000
0001
0000
0001
1000
0000
0010
0000
1000
0000
0100
0010
,  // measure 51
0100
0010
0001
0000
1000
0001
0000
1000
0001
0000
0001
1000
0000
0001
1000
0000
,  // measure 52
1000
0000
0000
0000
0000
0000
0002
0000
2003
0000
3002
0003
1001
0000
0000
0000
0000
0000
1000
0000
0000
0000
0000
0000
0001
0000
0000
1000
0000
0000
0100
0000
0000
0010
0000
0000
1001
0000
0000
0000
0000
0000
1000
0000
0000
0000
0000
0000
,  // measure 53
0001
0000
0100
0000
0001
0000
0010
0000
0100
0000
1000
0000
0100
0010
0001
0100
,  // measure 54
0000
0100
0000
0010
0000
0000
1000
0000
0001
0000
0000
0000
1001
0000
1000
0000
,  // measure 55
0010
0000
0100
0000
0010
0000
1000
0000
0001
0000
0010
0000
0001
0010
0001
1000
,  // measure 56
0010
0000
0000
1000
0000
0000
0001
0000
0100
0000
0001
0000
0100
0000
0000
0010
0000
0000
0100
0000
0000
0010
0000
0000
1000
0000
0001
0000
1000
0000
0001
0000
0000
0000
0000
0000
1001
0000
0000
0000
0000
0000
0100
0000
0000
0000
0000
0000
,  // measure 57
0001
0010
0200
1000
2300
0010
3020
0100
,  // measure 58
0230
0000
0001
0000
0302
0000
0010
0000
0103
0000
0100
0001
0010
0000
0100
1000
,  // measure 59
0000
0010
0000
0100
0000
0000
0100
0000
0001
0000
0010
0000
0001
0100
0001
1000
,  // measure 60
0100
0000
0000
1000
0000
0000
0010
0000
0000
0001
0000
0000
0010
0000
0000
1000
0000
0000
0100
0000
0000
1000
0000
0000
0001
0000
0010
0000
0100
0000
1000
0000
0000
0100
0000
0000
0010
0000
0000
0001
0000
0000
0010
0000
0000
0001
0000
0000
,  // measure 61
1000
0100
0000
0100
0000
0000
1000
0000
0100
0000
0010
0000
0001
0000
1000
0001
,  // measure 62
0000
1000
0001
0000
0001
1000
0000
0001
1000
0000
1000
0001
1000
0100
0010
0100
,  // measure 63
1000
0010
1000
0001
0100
0001
0010
0100
1000
0000
0000
0000
0000
0000
0001
0000
,  // measure 64
0000
0010
0000
0001
1000
0001
1000
0000
,  // measure 65
1000
0001
0000
0001
0000
1000
0000
0100
,  // measure 66
0000
0010
0000
0100
0010
0100
0010
0000
,  // measure 67
0010
0100
0000
0010
0000
0100
0000
1000
,  // measure 68
0000
0010
0000
0100
0010
0100
0010
0000
,  // measure 69
0010
0100
0000
0001
0000
1000
0000
1001
,  // measure 70
0000
0000
1001
0000
0000
1001
0010
0001
,  // measure 71
0010
0000
0000
0001
0000
0000
0000
0000
0000
1000
0000
0010
0000
1000
0000
0010
0000
1000
0000
0010
0000
1000
0000
0000
,  // measure 72
0000
0001
0100
0000
0100
0001
0000
0010
,  // measure 73
0000
0100
0000
1000
0000
0010
0000
1000
,  // measure 74
0000
0010
1000
0000
1000
0010
0000
1000
,  // measure 75
0000
0001
0000
0010
0000
0100
0000
0010
,  // measure 76
0100
0010
0100
1000
0100
1000
0010
1000
,  // measure 77
0010
0100
0001
1000
0001
0010
1000
0010
,  // measure 78
0100
1000
0001
0010
0001
1000
0100
1000
,  // measure 79
0001
0010
0001
1000
0010
1000
0001
0010
,  // measure 80
0000
0001
1000
0000
0001
1000
0000
0001
,  // measure 81
0000
1000
0000
0100
0000
0010
0000
0100
,  // measure 82
0010
0000
0000
0000
0000
0000
0100
0000
0000
0000
0000
0000
1000
0000
0000
0000
0000
0000
0010
0000
0000
0000
0000
0000
0100
0000
0000
0000
0010
0000
0000
0000
1000
0000
0000
0000
0001
0000
0000
1000
0000
0000
0001
0000
0000
2000
0000
0000
,  // measure 83
3002
0000
0003
0000
1001
0000
0000
0000
0000
0000
1000
0000
0001
0000
0010
0000
0001
0000
1000
0000
0010
0000
1000
0001
0000
0001
0000
1000
0000
0000
1000
0000
,  // measure 84
0001
0000
0000
0000
1001
0000
0000
0000
1000
0000
0001
0000
0100
0000
0010
0000
1000
0000
0001
0000
0100
0000
0000
0100
0000
0000
0100
0000
0000
0000
0001
0000
,  // measure 85
1000
0000
1001
0000
1000
0001
1000
0000
1000
0000
0001
0000
0001
0000
0100
0000
,  // measure 86
0100
0000
0010
0100
0010
0000
0100
0010
0000
1000
0000
0100
1000
0000
1000
0000
0001
0000
1000
0000
1100
0000
1000
0100
0000
0100
0010
0000
0010
0001
0000
0001
,  // measure 87
0010
0000
0000
0000
0000
0000
0100
0000
0000
0000
0000
0000
1000
0000
0000
0000
0000
0000
0001
0000
0000
0000
0000
0000
0010
0000
0000
0000
0001
0000
0000
0000
0010
0000
0000
0000
0100
0000
0000
0000
1000
0000
0000
0000
0100
0000
0000
0000
0010
0000
0000
0000
0001
0000
0000
0000
1000
0000
0000
0000
0001
0000
0000
0000
0010
0000
0000
0000
0100
0000
0000
0000
1000
0000
0000
0000
0000
0000
0000
0000
0000
0000
0000
0000
0000
0000
0000
0000
0000
0000
0000
0000
0000
0000
0000
0000
1000
0000
0000
0000
0000
0000
0000
0000
0000
0000
0000
0000
0000
0000
0000
0000
0000
0000
0000
0000
0000
0000
0000
0000
0001
0000
0000
0000
0000
0000
0000
0000
0000
0000
0000
0000
0000
0000
0000
0000
0000
0000
0000
0000
0000
0000
0000
0000
0000
0000
0000
0000
0000
0000
0000
0000
0000
0000
0000
0000
0000
0000
0000
0000
0000
0000
0000
0000
0000
0000
0000
0000
1001
0000
0000
0000
0000
0000
0000
0000
0000
0000
0000
0000
0000
0000
0000
0000
0000
0000
0000
0000
0000
0000
0000
0000
,  // measure 88
1000
0001
0100
0010
0100
0001
0010
0100
,  // measure 89
0010
0100
0000
1000
0000
0010
0000
0000
1000
0000
0001
0000
0000
0000
1001
0000
,  // measure 90
1000
0000
0001
0000
0100
0000
0010
0000
1000
0000
0010
0000
1000
0001
1100
0000
,  // measure 91
0000
0000
0000
0101
0000
0000
0000
0000
0000
0000
0000
0000
1001
0000
0000
0100
0000
0000
1000
0000
0000
0100
0000
0000
0010
0000
0000
0001
0000
0000
0010
0000
0100
0000
1000
0000
0001
0000
1000
0000
0001
0000
0010
0000
0000
0000
0000
0000
,  // measure 92
0010
0001
1000
0020
0100
0230
0001
0302
,  // measure 93
1000
0000
2003
0000
0100
0000
3200
0000
0010
0000
1300
0000
1000
0001
0010
0000
,  // measure 94
0001
1000
0000
0010
0000
1000
0000
0000
0100
0000
0010
0000
0100
0000
1000
0100
,  // measure 95
1000
0000
0000
0001
0000
0000
0100
0000
0000
0001
0000
0000
1000
0000
0000
0010
0000
0000
1000
0000
0000
0001
0000
0000
0010
0000
0000
0001
0000
0000
1000
0000
0001
0000
0010
0000
0100
0000
1000
0000
0100
0000
1001
0000
0000
0000
0000
0000
,  // measure 96
0000
0000
1000
0001
0100
0010
0100
0001
,  // measure 97
1000
0001
0000
0001
0000
1000
0000
0000
1000
0000
0001
0000
0000
0000
1001
0000
,  // measure 98
0000
0000
0000
0000
0010
0000
0000
0000
0100
0000
0000
0000
1000
0000
0000
0000
0001
0000
0000
0000
1000
0000
0000
0000
0001
0000
0000
0000
1000
0000
0000
1000
,  // measure 99
0000
0001
0000
0000
0001
0000
1000
0001
1000
0001
1001
0000
0001
0000
1000
0000
,  // measure 100
0010
2000
0100
3200
0001
0302
0100
0203
,  // measure 101
1000
0000
2300
0000
0000
0000
3000
0000
1000
0010
0001
0000
0010
0100
0000
0001
,  // measure 102
0000
0010
0000
0000
0100
0000
0001
0000
0100
0000
0010
1000
0010
0001
0100
0001
,  // measure 103
1000
0000
0000
0100
0000
0000
1000
0000
0000
0001
0000
0000
0100
0000
0000
0001
0000
0000
0010
0000
0100
0000
1000
0000
0001
0000
0000
0100
0000
0000
0001
0000
0000
0000
0000
0000
0001
0000
0000
0010
0000
0000
0000
0000
0000
0100
0000
0000
,  // measure 104
0000
1000
0000
0000
1000
0000
0100
0000
0010
0000
1001
0000
0000
1001
0000
0000
,  // measure 105
1001
0000
0000
1001
0000
0000
0001
1000
0001
1000
0110
0000
0000
0110
0000
0000
,  // measure 106
0110
0000
0000
0010
0000
0000
1000
0100
0010
0001
1100
0000
1000
0000
0100
0000
,  // measure 107
0010
0000
0001
0000
0100
0001
0000
0001
0000
0010
0000
0000
0010
0000
0010
0000
,  // measure 108
0100
0000
0000
0100
0000
0000
1000
0000
0000
1000
0000
0000
0001
1000
0001
1000
0000
0000
1000
0000
0000
0010
0000
0000
,  // measure 109
0100
0000
0001
0000
0010
0100
0010
0100
1001
0010
0000
0000
0100
0000
0001
0000
,  // measure 110
1000
0010
0000
0010
1000
0000
1000
0000
1001
0000
0000
0000
0001
0000
0010
0000
,  // measure 111
0001
0010
0000
0010
0001
0000
0001
0000
1001
0000
0000
0000
1000
0000
0010
0000
,  // measure 112
0100
0010
0000
0010
0100
0001
0010
1000
0002
0000
0000
0000
0000
0000
0000
0000
,  // measure 113
0003
0000
0000
0000
;
