#TITLE:Ambiguous;
#SUBTITLE:Kill la Kill Opening 2;
#ARTIST:GARNiDELiA;
#TITLETRANSLIT:;
#SUBTITLETRANSLIT:;
#ARTISTTRANSLIT:;
#GENRE:;
#CREDIT:Magna Trick;
#BANNER:AmbiuousBN.png;
#BACKGROUND:AmbiuousB.png;
#LYRICSPATH:;
#CDTITLE:Magna Trick title!.png;
#MUSIC:Ambiguous.mp3;
#OFFSET:-0.018609;
#SAMPLESTART:51.759998;
#SAMPLELENGTH:15.000000;
#SELECTABLE:YES;
#BPMS:0.000000=89.000000
,10.750000=712.000000
,20.750000=178.000000
,115.000000=89.000000
,131.000000=356.000000
,133.000000=178.000000
;
#STOPS:21.250000=0.080000,
52.500000=0.340000,
115.000000=0.340000
;
#BGCHANGES:0.104=Ambiguous.avi=1.000=0=0=1=====,
237.000=AmbiuousB.png=1.000=0=0=1=====,
99999=-nosongbg-=1.000=0=0=0 // don't automatically add -songbackground-
;
#KEYSOUNDS:;
#ATTACKS:;

//---------------dance-single - ----------------
#NOTES:
     dance-single:
     :
     Hard:
     13:
     0.694673,0.917606,0.391628,0.239328,0.331796,447.000000,411.000000,36.000000,22.000000,0.000000,0.000000,0.694673,0.917606,0.391628,0.239328,0.331796,447.000000,411.000000,36.000000,22.000000,0.000000,0.000000:
0000
0000
0001
1000
0001
1000
0001
0000
0000
0000
1000
0000
0100
0000
0000
0000
0010
0000
0000
0000
0001
0000
0000
0000
0001
0000
0000
0000
1000
0000
0000
0000
,
1000
0000
0000
0010
0000
0100
0001
0000
0010
0000
0100
0000
0100
0000
1000
0000
,
1000
0002
0000
0000
0000
0000
0000
0000
,
0000
0000
0000
0000
,
0000
0000
0000
0000
0000
0000
0000
0000
0000
0000
0000
0003
0000
0000
0000
0000
,
0000
0000
0000
0001
0000
2002
3003
0000
0001
0000
0010
0000
0100
0000
1000
0000
,
0000
0000
1000
0000
0000
0000
0100
0000
0000
0000
0010
0000
0100
0000
0010
0100
,
0010
0001
0001
0010
0001
0010
0001
0100
,
0000
0100
0000
0010
0000
0010
1000
0001
,
0100
0000
0010
0100
0010
0000
1000
0000
1000
0000
0100
0000
0010
0000
0001
0000
,
0000
0100
0000
0100
0000
0010
0010
0100
,
0001
0000
0001
0000
0010
0000
0100
0000
1000
0000
0100
0000
0010
0000
0010
0001
,
0010
0001
0000
0010
0000
0001
0010
0100
,
1100
0000
0000
0000
0000
0000
0000
0000
2002
3003
0000
0000
0000
0000
0000
0000
0001
0000
0000
0000
0000
0000
0000
0000
1000
0000
0000
0000
0000
0000
0000
0000
0001
0000
0000
0000
0000
0000
0000
0000
1000
0000
0000
0000
0000
0000
0000
0000
0001
0000
0000
0000
0000
0000
0000
0000
1000
0000
0000
0000
0000
0000
0000
0000
,
0001
0000
0100
0010
1000
0000
0010
0000
1000
0000
0010
0000
1000
0000
0010
0000
,
1000
0000
0010
1000
0100
0000
0010
0000
0100
0000
0010
0000
0100
0000
0010
0000
,
0100
0000
0010
0001
0100
0000
0001
0000
0100
0000
0001
1000
0010
0000
1000
0000
,
0010
0000
1000
0100
0010
0000
0001
0000
0010
0000
0001
0000
0010
0000
0001
0000
,
0010
0000
0001
0100
0010
0000
0100
0000
0010
0000
0100
0000
0010
0000
0100
0000
,
0010
0000
0100
0010
1000
0000
0001
0000
1000
0000
0001
0000
1000
0000
0001
0000
,
1000
0000
0001
1000
0100
0000
0010
0000
0100
0000
0010
0000
0011
0000
0000
0000
,
0101
0000
1001
0001
0000
0110
0000
0001
,
1000
0100
1000
0001
0000
0101
0000
1000
,
0001
0100
0001
1000
0000
1100
0000
1000
,
0001
0010
0002
0000
2003
0000
3020
0000
,
2030
0000
3100
0010
0100
1100
0000
1000
,
0100
1000
0001
0101
0000
0101
0000
1000
,
0100
1000
0002
0000
0023
0000
0130
0010
,
0001
0000
0100
0000
1010
0000
0000
0000
1100
0000
0000
0000
1001
0001
0000
1000
,
0100
0010
0001
0010
0100
1000
0000
1000
0100
0000
1100
0000
1000
0100
0000
1000
,
0100
0010
0001
0010
0100
1000
0000
1000
0100
0000
1100
0000
1000
0010
0000
1000
,
0010
0100
0001
1000
0010
0100
0000
0001
0000
0001
0000
1000
0000
1000
0000
0001
,
0000
0010
0000
0100
0000
0010
0000
0100
0010
0100
0110
0000
2002
0000
0000
0000
,
0000
3003
0000
0000
0000
0000
0000
0000
0100
0000
0000
0000
0010
0000
0000
0000
1000
0000
0000
0000
0001
0000
0000
0000
1000
0000
0000
0000
0100
0000
0000
0000
,
0010
1000
0010
0100
1000
0001
0100
0010
,
0100
0000
0010
0100
0001
1000
0100
0010
,
0001
0010
0001
0000
0010
0100
0000
0010
,
0001
0100
1000
0000
0100
1000
0100
0001
,
0000
0100
0000
0001
0000
0010
0100
0010
,
0001
0010
0100
0000
1000
0001
0000
1000
,
0000
0000
0001
0000
0000
0000
0100
0000
0010
0000
0100
0000
0001
0000
1000
0100
,
1000
0100
1000
0100
1000
0000
0100
0000
0010
0000
0100
0000
1000
0000
0010
0000
,
0100
0001
0100
1000
0100
0010
1000
0100
,
0010
0000
0100
0010
1000
0010
0001
0010
,
0001
0101
0000
1000
0100
1100
0000
1000
,
0100
0000
0000
0000
0000
0000
1000
0000
0100
0000
0010
0000
0001
0000
0000
0000
0000
0000
0000
0000
0000
0000
0000
0000
1001
0000
0000
0000
0000
0000
1000
0000
0000
0001
0000
0000
1000
0000
0000
0000
0000
0000
0100
0000
0000
0000
0000
0000
,
0010
0000
0000
0000
0000
0000
0110
0000
0000
0000
0000
0000
0000
0000
0000
0000
0000
0000
0001
0000
0000
0000
0000
0000
1000
0000
0000
0000
0000
0000
0001
0000
0010
0000
0100
0000
1000
0000
0000
0000
0000
0000
0001
0000
0000
0010
0000
0000
,
0100
1000
0010
1000
0200
0000
0300
0000
0011
0000
0011
0000
0000
0000
0110
0000
,
0000
0110
0000
1100
0000
1100
0000
1001
,
0002
0003
0110
0100
1000
0002
0000
0203
,
0000
0302
0000
0103
0010
1000
0100
1000
,
0010
0100
0001
0010
0100
0020
0000
0032
,
0000
0000
0023
0000
0000
0000
0031
0000
0100
0000
0001
0000
1000
0100
1000
0001
,
1000
0100
0010
0000
0001
0000
1000
0000
0010
0000
0100
0000
0000
0000
0011
0000
,
0000
0101
0000
1000
0010
1000
0100
0010
,
0001
0100
0000
1000
0000
0100
1000
0100
,
0010
1000
0000
1100
0000
0011
0000
1001
,
0000
0000
1000
0010
0001
0100
1000
0100
,
0001
0020
0000
0000
0000
0000
0000
0000
,
0000
0000
0000
0000
,
0000
0030
0000
0000
;

//---------------dance-single - ----------------
#NOTES:
     dance-single:
     :
     Medium:
     9:
     0.613861,0.884834,0.195814,0.152300,0.174057,395.000000,377.000000,18.000000,14.000000,0.000000,0.000000,0.613861,0.884834,0.195814,0.152300,0.174057,395.000000,377.000000,18.000000,14.000000,0.000000,0.000000:
0000
0000
0000
1000
0000
0001
0010
0000
0100
0000
1000
0000
1000
0000
0001
0000
,
0001
0000
0000
0100
0000
0010
1000
0000
0100
0000
0010
0000
0010
0000
0001
0000
,
0001
2000
0000
0000
0000
0000
0000
0000
,
0000
0000
0000
0000
,
0000
0000
0000
0000
0000
0000
0000
0000
0000
0000
0000
3000
0000
0000
0000
0000
,
0000
0000
0000
1000
0000
0001
0000
0000
1000
0000
0100
0000
0010
0000
0001
0000
,
0000
0001
0000
0010
0000
0100
0010
0100
,
0100
1000
1000
0100
1000
0100
1000
0010
,
0000
0010
0000
0100
0000
0100
0001
1000
,
0010
0100
0100
0001
0001
0010
0100
1000
,
0000
0010
0000
0010
0000
0100
0100
0010
,
1000
1000
0100
0010
0001
0010
0010
0100
,
0100
1000
0000
0100
0000
1000
0100
0010
,
0001
0000
0000
0000
0000
0000
0000
0000
0002
0003
0000
0000
0000
0000
0000
0000
1000
0000
0000
0000
0000
0000
0000
0000
0001
0000
0000
0000
0000
0000
0000
0000
1000
0000
0000
0000
0000
0000
0000
0000
0001
0000
0000
0000
0000
0000
0000
0000
1000
0000
0000
0000
0000
0000
0000
0000
0001
0000
0000
0000
0000
0000
0000
0000
,
1000
0100
0010
0100
0010
0100
0010
0100
,
0010
0100
0010
0001
0010
0001
0010
0001
,
0010
0001
0010
0100
0010
0100
1000
0001
,
1000
0001
0100
0010
0100
0010
0100
0010
,
0100
0001
0010
0001
0010
0001
0010
0001
,
0010
0001
1000
0100
1000
0100
1000
0100
,
1000
0100
0010
0001
0010
0001
1001
0000
,
1001
0000
1001
1000
0000
1001
0000
1000
,
0001
1000
0001
1000
0000
1010
0000
0001
,
1000
0001
1000
0001
0000
0011
0000
0001
,
1000
0001
1000
0000
0001
0000
0100
0000
,
0001
0000
0010
0100
0010
0010
0000
0001
,
0010
0001
1000
1000
0000
1001
0000
0001
,
0010
0001
1000
0000
0100
0000
0010
0100
,
1000
0000
0010
0000
0100
0000
0000
0000
0010
0000
0000
0000
1001
1000
0000
0001
,
0010
0001
0100
0001
1000
0001
0000
0001
1000
0000
1001
0000
0001
1000
0000
1000
,
0001
1000
0010
1000
0000
0001
0000
1000
0001
0000
1001
0000
0001
1000
0000
0001
,
0010
0001
0100
0001
1000
0010
0000
1000
0000
1000
0000
0001
0000
0001
0000
1000
,
0000
0100
0000
0010
0000
0001
0000
1000
0001
0000
1001
0000
2002
0000
0000
0000
,
0000
3003
0000
0000
0000
0000
0000
0000
0010
0000
0000
0000
0100
0000
0000
0000
0010
0000
0000
0000
0100
0000
0000
0000
0001
0000
0000
0000
1000
0000
0000
0000
,
0001
1000
0100
0010
0001
0010
0001
1000
,
1000
0000
0001
1000
0001
1000
0100
0010
,
0100
0010
0001
0000
0100
0010
0000
0100
,
0010
0100
0010
0000
1000
0001
1000
0001
,
0000
0010
0000
0100
0000
1000
0100
1000
,
0100
0010
0001
0000
0001
1000
0000
0001
,
0000
1000
0000
0001
1000
0001
2000
0000
,
3000
0000
0001
0010
0100
0010
0100
1000
,
0010
0100
0010
0100
0001
1000
0001
1000
,
0100
0000
0010
0001
0010
0001
1000
0100
,
1000
1000
0000
0001
0010
0010
0000
0001
,
0010
0100
1000
0000
1000
0001
0001
0010
,
0100
0100
0000
1000
0001
1000
0001
1000
,
0100
0010
0020
0030
0110
0110
0000
0010
,
0000
0010
0000
0100
0000
0100
0000
1000
,
2000
3000
1001
1000
0001
2000
0000
3020
,
0000
2030
0000
3010
0100
0010
0100
0001
,
1000
0001
1000
0100
0010
0200
0000
2300
,
0000
3200
0000
1300
0001
1000
0001
0001
,
0100
0100
0010
1000
0100
1000
0000
0100
,
0000
0010
0000
0001
0100
0001
0010
0100
,
1000
0100
0000
0010
0000
0010
0001
0010
,
0100
1000
0000
1100
0000
1100
0000
1001
,
0000
0000
1000
0100
1000
0001
1000
0010
,
1000
0200
0000
0000
0000
0000
0000
0000
,
0000
0000
0000
0000
,
0000
0300
0000
0000
;

//---------------dance-single - ----------------
#NOTES:
     dance-single:
     :
     Easy:
     5:
     0.304599,0.327716,0.010879,0.021757,0.038075,196.000000,195.000000,1.000000,2.000000,0.000000,0.000000,0.304599,0.327716,0.010879,0.021757,0.038075,196.000000,195.000000,1.000000,2.000000,0.000000,0.000000:
0000
0000
0000
1000
0000
0000
0000
0000
0000
0000
0000
0001
0000
0000
0000
0000
,
0000
0000
0000
1000
0000
0000
0000
0000
0000
0000
0000
0001
0000
0000
0000
1000
,
0000
0000
0000
0001
0000
0000
0000
0000
0000
0000
0000
0000
0000
0000
0000
0000
,
0000
0000
0000
0000
,
0000
0000
0000
0000
,
0000
0000
0000
0000
0000
1001
0000
0000
0001
0000
0000
0000
1000
0000
0000
0000
,
0001
1000
0010
0010
,
0010
0010
1000
0001
,
1000
0001
0100
0100
,
0100
0100
0001
1000
,
0001
1000
0010
0010
,
0010
0010
1000
0001
,
1000
1000
0001
0001
,
0001
1000
1000
1000
,
1000
0010
0010
0010
,
0010
1000
1000
1000
,
1000
0001
0001
1000
,
1000
0001
0001
0001
,
0001
1000
1000
1000
,
1000
0100
0100
0100
,
0100
0010
0010
0001
,
0000
0100
0010
0000
,
1000
0000
0100
0000
,
0010
0001
1000
0000
,
0010
0000
0100
0000
,
0010
1000
0100
0000
,
0010
0000
0010
0000
,
0001
0100
0001
0000
,
1000
0000
0000
0000
0001
0000
0001
0001
,
0000
1000
0000
0001
0000
0001
0000
1000
,
0000
1000
0000
0010
0000
0010
0000
0100
,
0000
0100
0000
0010
0000
0010
0000
1000
,
0000
1000
0000
0001
1000
0001
2000
0000
,
0000
3000
0000
0000
0000
0000
0000
0000
0001
0000
0000
0000
0000
0000
0000
0000
0001
0000
0000
0000
0000
0000
0000
0000
1000
0000
0000
0000
0000
0000
0000
0000
,
1000
0010
0010
0100
,
0100
0001
1000
0100
,
1000
0001
0000
1000
,
1000
0001
0000
0100
,
0100
0010
0000
0010
,
1000
0010
1000
0010
,
1000
0001
0001
1000
,
1000
0001
1000
0001
,
1000
0100
0010
0100
,
0010
0001
0001
1000
,
1000
1000
0000
0000
0000
1000
0000
0000
,
0000
0001
0000
0000
,
0001
1000
0000
0000
0000
0000
0000
0000
,
0000
0010
1000
0100
,
0010
0001
0100
0010
,
1000
0001
0001
1000
,
1000
0100
0100
1000
,
1000
0001
0001
0010
,
0010
0001
1000
0010
,
0100
0001
0001
1000
,
1000
0100
0100
0010
,
0001
0010
0001
0010
,
0100
0010
0100
1000
,
0001
0000
0000
0000
,
0100
0200
0000
0000
0000
0000
0000
0000
,
0000
0000
0000
0000
,
0000
0300
0000
0000
;

//---------------dance-single - ----------------
#NOTES:
     dance-single:
     :
     Challenge:
     14:
     0.786364,1.015921,0.641835,0.184935,0.424264,506.000000,447.000000,59.000000,17.000000,0.000000,0.000000,0.786364,1.015921,0.641835,0.184935,0.424264,506.000000,447.000000,59.000000,17.000000,0.000000,0.000000:
// measure 0
0000
0000
1000
0001
1000
0001
1001
0000
0000
0000
0001
0000
0010
0000
0000
0000
0100
0000
0000
0000
1000
0000
1001
0000
1000
0000
0000
0000
0001
0000
0000
0000
,  // measure 1
0001
0000
0000
1001
0000
0010
1000
0000
0100
0000
0010
1001
0100
0000
0001
1001
,  // measure 2
0001
0000
2000
0001
0000
0000
0000
0000
0000
0000
0000
0000
0000
0000
0000
0000
,  // measure 3
0000
0000
0000
0000
,  // measure 4
0000
0000
0000
0000
0000
0000
0000
0000
0000
0000
0000
3000
0000
0000
0000
0000
,  // measure 5
0000
0000
0000
1000
0000
2002
3003
0000
1000
0000
0100
0000
0010
0000
0001
0000
,  // measure 6
1000
0000
0001
0000
1000
0000
1100
0000
1000
0000
0100
0000
0010
0000
0100
0010
,  // measure 7
0100
1000
1000
0001
0101
0100
0001
1000
,  // measure 8
0001
1000
0001
1001
0010
0100
1000
0100
,  // measure 9
0010
0000
0100
0010
0100
0000
0010
0000
0010
0000
0001
0000
0100
0000
0010
0000
,  // measure 10
1000
0010
0100
0110
0001
0100
0100
0010
,  // measure 11
1000
0000
1000
0000
0010
0000
0100
0010
1000
0000
0100
0000
0010
0000
0001
1000
,  // measure 12
0001
1000
1100
1100
0000
1000
0100
0010
,  // measure 13
0011
0000
0000
0000
0000
0000
0000
0000
2002
3003
0000
0000
0000
0000
0000
0000
1000
0000
0000
0000
0000
0000
0000
0000
0100
0000
0000
0000
0000
0000
0000
0000
1000
0000
0000
0000
0000
0000
0000
0000
0001
0000
0000
0000
0000
0000
0000
0000
1000
0000
0000
0000
0000
0000
0000
0000
0100
0000
0000
0000
0000
0000
0000
0000
,  // measure 14
1000
0000
0010
0100
0001
0000
1000
0000
0001
0000
0100
0000
0001
0000
1000
0000
,  // measure 15
0001
0000
0100
0001
0010
0000
1000
0000
0010
0000
0100
0000
0010
0000
1000
0000
,  // measure 16
0010
0000
0100
1000
0010
0000
1000
0000
0010
0000
1000
0001
0100
0000
0001
0000
,  // measure 17
0100
0000
0001
0010
0100
0000
1000
0000
0100
0000
0001
0000
0100
0000
1000
0000
,  // measure 18
0100
0000
0001
1000
0010
0000
1000
0000
0010
0000
0001
0000
0010
0000
1000
0000
,  // measure 19
0010
0000
0100
1000
0001
0000
1000
0000
0001
0000
0100
0000
0001
0000
0010
0000
,  // measure 20
0001
0000
1000
0001
0010
0000
0100
0000
0010
0000
0100
0000
1100
0000
0000
0000
,  // measure 21
1010
0000
0000
0000
1001
0000
1000
0000
0000
0000
1000
0001
1000
0001
1000
0000
,  // measure 22
0001
0000
0010
0000
0001
0000
1000
0000
0000
0000
0001
1000
0001
1000
0001
0000
,  // measure 23
1000
0000
0010
0000
1000
0000
0001
0000
0000
0000
1000
0001
1000
0001
1000
0000
,  // measure 24
0001
0000
0010
0000
0100
0000
1000
0000
0001
0000
0100
0010
0100
0010
0100
0000
,  // measure 25
0010
1000
0100
0010
0001
0011
0010
0001
,  // measure 26
0010
0000
0001
0000
1000
0000
1010
0000
0000
0000
1010
0000
0000
0000
0001
0010
,  // measure 27
0001
0010
0001
0000
2000
0000
0000
0000
3100
0000
0010
0100
0010
0100
0010
0000
,  // measure 28
0001
0000
0010
0000
0011
0000
0000
0000
0101
0000
0000
0000
1001
1000
0000
0001
,  // measure 29
0010
0100
1000
0100
0010
0001
0000
0001
0010
0000
0011
0000
0001
0011
0000
0001
,  // measure 30
0010
0100
1000
0100
0010
0001
0000
0001
0011
0000
0011
0000
0001
0101
0000
0001
,  // measure 31
0100
0010
1000
0001
0100
0110
0000
1000
0000
1000
0000
0001
0000
1001
0000
1000
,  // measure 32
0000
0100
0000
0010
0000
0100
0000
1010
1010
0101
0101
0000
2002
0000
0000
0000
,  // measure 33
0000
3003
0000
0000
0000
0000
0000
0000
0010
0000
0000
0000
0100
0000
0000
0000
0001
0000
0000
0000
1000
0000
0000
0000
0001
0000
0000
0000
0010
0000
0000
0000
,  // measure 34
0100
0001
0100
0010
0001
1000
0010
0100
,  // measure 35
0010
0000
0100
0010
1000
0001
0010
0100
,  // measure 36
1000
0100
1000
0000
0100
0010
0000
0100
,  // measure 37
1000
0010
0001
0000
0010
0001
0010
1000
,  // measure 38
0000
0010
0000
1000
0000
0100
0010
0100
,  // measure 39
1000
0100
0010
0000
0001
1000
0000
0001
,  // measure 40
0000
0000
1000
0000
0000
0000
0110
0000
0110
0000
0010
0000
1000
0000
0001
0010
,  // measure 41
0100
1000
0001
0010
0100
0000
0010
0000
0100
0000
0010
0000
0001
0000
0100
0000
,  // measure 42
0010
1000
0010
0001
0010
0100
0001
0010
,  // measure 43
0100
0000
0010
0100
0001
0100
1000
0100
,  // measure 44
1000
1010
0000
0001
0010
0011
0000
0001
,  // measure 45
0010
0000
0000
0000
0000
0000
0001
0000
0010
0000
0100
0000
1000
0000
0000
0000
0000
0000
0000
0000
0000
0000
0000
0000
1001
0000
0000
0000
0000
0000
0001
0000
0000
1000
0000
0000
0001
0000
0000
0000
0000
0000
0010
0000
0000
0000
0000
0000
,  // measure 46
0100
0000
0000
0000
0000
0000
0110
0000
0000
0000
0000
0000
0000
0000
0000
0000
0000
0000
1000
0000
0000
0000
0000
0000
0001
0000
0000
0000
0000
0000
1000
0000
0100
0000
0010
0000
0001
0000
0000
0000
0000
0000
1000
0000
0000
0100
0000
0000
,  // measure 47
0010
0001
0100
0001
0020
0000
0030
0000
1100
0000
1100
0000
0000
0000
0110
0000
,  // measure 48
0000
0110
0000
0011
0000
0011
0000
1001
,  // measure 49
2000
3000
0110
0010
0001
2000
0000
3020
,  // measure 50
0000
2030
0000
3010
0100
0001
0010
0001
,  // measure 51
0100
0010
1000
0100
0010
0200
0000
2300
,  // measure 52
0000
0000
3200
0000
0000
0000
1300
0000
0010
0000
1000
0000
0001
0010
0001
1000
,  // measure 53
0001
0010
0100
0000
1000
0000
0001
0000
0100
0000
0010
0000
0000
0000
1100
0000
,  // measure 54
0000
1010
0000
0001
0100
0001
0010
0100
,  // measure 55
1000
0010
0000
0001
0000
0010
0001
0010
,  // measure 56
0100
0101
0000
0011
0000
1100
0000
1001
,  // measure 57
0000
0000
0001
0101
0101
0100
0110
0110
,  // measure 58
0010
0200
0000
0000
0000
0000
0000
0000
,  // measure 59
0000
0000
0000
0000
,  // measure 60
0000
0300
0000
0000
;
