#TITLE:Amazing Break;
#SUBTITLE:Terra Formars Opening;
#ARTIST:Terraspex;
#TITLETRANSLIT:;
#SUBTITLETRANSLIT:;
#ARTISTTRANSLIT:;
#GENRE:;
#CREDIT:Magna Trick;
#BANNER:ABBN.jpg;
#BACKGROUND:ABBG.jpg;
#LYRICSPATH:;
#CDTITLE:Magna Trick title!.png;
#MUSIC:Amazing Break.mp3;
#OFFSET:-0.158212;
#SAMPLESTART:25.980000;
#SAMPLELENGTH:12.000000;
#SELECTABLE:YES;
#BPMS:0.000000=38.250000
,8.500000=153.000000
,93.000000=76.500000
,98.500000=153.000000
;
#STOPS:117.500000=0.200000
;
#BGCHANGES:0.063=Amazing Break.avi=1.000=0=0=1=====,
194.750=ABBG.jpg=1.000=0=0=1=====,
99999=-nosongbg-=1.000=0=0=0 // don't automatically add -songbackground-
;
#KEYSOUNDS:;
#ATTACKS:;

//---------------dance-single - ----------------
#NOTES:
     dance-single:
     :
     Hard:
     14:
     0.613498,0.901884,0.223671,0.100652,0.480893,384.000000,364.000000,20.000000,9.000000,0.000000,0.000000,0.613498,0.901884,0.223671,0.100652,0.480893,384.000000,364.000000,20.000000,9.000000,0.000000,0.000000:
0000
0000
0000
0000
,
0000
0000
0000
0000
,
0000
0000
0000
0000
0001
0000
0000
1000
0000
0000
0010
0000
0000
0100
0000
0000
,
0001
0000
0001
0000
1000
0000
0000
0100
0000
0000
0010
0000
0000
0001
0000
0000
,
0010
0000
0010
0000
0100
0000
0000
1000
0000
0000
0001
0000
0000
0100
0000
0000
,
0010
0000
0100
0000
0001
0000
1000
0000
0001
0000
1000
0000
0001
1000
0001
0000
,
1000
0000
1000
1000
0100
0100
0010
0010
,
0001
0000
0100
1000
0100
0001
0001
1000
,
0100
0000
0001
0001
1000
1000
0010
0010
,
0100
0000
0000
0000
1000
0100
1000
0100
1000
0000
0100
0000
0010
0001
1000
0010
,
1000
0100
0010
0001
0100
0000
0100
0000
0010
0000
0010
0000
1000
0000
1000
0000
,
0001
0000
0010
0010
0001
1000
1000
0010
,
0010
0010
0100
0100
0010
0010
0001
0001
,
1000
0000
0000
0000
1000
0100
1000
0100
1000
0000
0100
0000
0010
0000
0100
0000
,
0001
0010
0100
1000
0001
0000
0100
0000
0001
0000
1000
0000
0100
0000
1000
0000
,
0001
0000
0100
0000
0010
0000
0010
1000
0000
1000
0001
0000
0001
0100
0000
0100
,
0010
0000
0100
0000
0010
0000
0010
0100
0000
0100
0001
0000
0001
1000
0000
1000
,
0010
0000
1000
0000
0100
0000
0000
0000
0010
0000
0100
1000
0000
0000
0000
0000
,
0001
0000
0100
0000
0010
0000
1000
0001
0000
0100
0000
0010
0000
0000
1000
0000
,
0100
0000
0010
0000
0001
0000
0001
0010
0000
0010
0100
0000
0100
1000
0000
1000
,
0100
0000
0010
0000
0001
0000
0001
0100
0000
0100
0010
0000
0010
1000
0000
1000
,
0100
0000
1000
0000
1001
0000
0000
0000
0100
0000
0010
0100
0000
0000
0001
0000
,
1000
0001
0100
0000
0010
0000
0000
0010
0000
0000
1010
0000
0000
0000
0001
1000
,
0001
0000
1000
0000
0001
0000
1000
0000
0001
0000
0000
1000
0000
0000
1000
0000
1001
0000
0000
0001
0000
0000
0001
0000
1001
0000
0000
1000
0000
0000
1000
0000
,
1000
0001
0100
0000
0001
0000
1000
0001
1000
0000
0000
0100
0000
0000
0010
0000
0001
0000
0001
0000
0010
0000
0000
0000
1000
0000
0001
0000
1100
0000
0000
0000
,
0000
0101
0000
0000
1010
0000
0000
0011
0000
0000
0001
1000
0001
1000
0001
0000
,
0100
0010
0100
0101
0010
1000
0100
1100
,
0010
0000
0001
0000
0001
0000
0100
0000
0000
0000
0000
0000
0010
0100
0010
0000
,
0000
0100
0000
0000
0001
0000
1000
0000
0000
0100
0000
0000
0010
0000
0110
0000
,
0000
1001
0000
0000
1001
0000
0110
0000
0001
0000
0100
0000
1000
0000
0000
0000
,
1000
0100
0001
0000
0010
0100
0010
1000
,
0001
0000
0010
0000
0100
0000
0000
0000
0100
0000
0010
0000
0001
0000
0000
1000
,
0000
0000
0010
0000
0100
0000
0001
0100
0001
0100
0001
0100
1010
0000
0000
0000
,
1100
0000
0011
0000
0101
0000
0001
1000
,
0001
0100
0010
0100
0010
1000
0100
0001
,
0100
0000
1000
0000
0010
0000
0000
0000
0010
0000
0100
0000
1000
0000
0000
1000
,
0000
0000
0100
0000
0001
0000
0000
0001
0000
0000
0010
0000
0100
0000
0000
1000
,
0000
0001
0100
0000
0010
1000
0002
0000
,
0000
0000
0000
0000
0013
0000
0000
0001
0000
0000
1000
0000
0200
0000
0000
0000
,
0000
0300
0020
0000
0032
0000
2003
0000
,
3000
0000
0001
0000
0010
0000
0000
0100
0000
0000
2000
0000
3002
0000
1003
0001
,
1000
0000
0000
0001
0000
0000
0010
0000
0100
0000
1000
0000
0001
0000
0000
0000
0000
0000
0000
0000
0000
0000
0000
0000
0101
0000
0000
0000
0000
0000
0000
0000
0000
0000
0000
0000
2001
0000
0000
0000
0000
0000
0000
0000
0000
0000
0000
0000
,
0010
0001
0010
0001
,
0010
0000
0001
3000
0100
0000
0010
1000
,
0001
0100
0010
1000
0100
1000
0001
0100
,
0001
0010
0001
1000
0010
1000
0001
0100
,
0010
1000
0100
0001
1000
0010
0001
0100
,
0010
0000
1000
0000
0001
0000
1000
0000
0100
0000
1000
0000
0001
0100
0001
0100
,
0001
1000
0100
1000
0010
0100
0001
0100
0001
1000
0100
0020
0000
0000
0030
0000
;

//---------------dance-single - ----------------
#NOTES:
     dance-single:
     :
     Challenge:
     18:
     0.987348,1.284501,0.335507,0.055918,1.576881,618.000000,588.000000,30.000000,5.000000,0.000000,0.000000,0.987348,1.284501,0.335507,0.055918,1.576881,618.000000,588.000000,30.000000,5.000000,0.000000,0.000000:
// measure 0
0000
0000
0000
0000
,  // measure 1
0000
0000
0000
0000
,  // measure 2
0000
0000
0000
0000
1000
0001
0000
0001
0000
0000
0100
0000
0000
0010
0000
0000
,  // measure 3
1000
0100
1000
0100
0010
0001
0000
0001
0000
0000
1000
0000
0000
0100
0000
0000
,  // measure 4
1000
0000
0001
0000
1000
0000
0001
0000
0000
0100
0000
0000
0010
0000
0000
1000
0000
0000
0000
0000
0000
1000
0000
0000
0001
0000
0000
1000
0000
0000
0000
0000
0000
0010
0000
0000
0100
0000
0000
0010
0000
0000
0100
0000
0000
0001
0000
0000
,  // measure 5
1000
0000
0000
0001
0000
0000
1000
0000
0000
0000
0000
0000
0010
0000
1000
0000
0000
0000
0000
0000
0001
0000
0100
0000
0000
0000
0000
0000
0010
0000
1000
0000
0000
0000
0000
0000
0001
0000
1000
0000
0001
0000
1000
0000
0000
0001
0000
0000
,  // measure 6
2000
0000
0000
0000
0000
0000
0000
0000
0000
0000
0000
0000
3001
0000
0000
0010
0000
0000
0001
0000
0000
0010
0000
0000
0100
0000
0000
1000
0000
0000
0100
0000
0010
0000
0100
0000
0010
0000
0001
0000
1000
0000
0010
0000
0100
0000
0001
0000
,  // measure 7
1000
0000
0010
1000
0010
0100
0010
1000
0000
0100
0000
0010
0000
0001
0100
0001
,  // measure 8
0100
0000
0000
0010
0000
0000
1000
0000
0000
0010
0000
0000
0100
0000
0000
0001
0000
0000
0100
0000
0000
0001
0000
0000
1000
0000
0000
0100
0000
0000
1000
0000
0001
0000
1000
0000
0001
0000
0010
0000
0100
0000
1000
0000
0100
0000
0010
0000
,  // measure 9
0001
0000
0000
0000
0000
0000
0000
0000
0000
0000
0000
0000
0001
0000
0000
0010
0000
0000
0001
0000
0000
0010
0000
0000
0100
0000
1000
0000
0100
0000
1000
0000
0000
0001
0000
0000
0100
0000
0000
0001
0000
0000
1000
0000
0000
0010
0000
0000
,  // measure 10
1000
0000
0000
0100
0000
0000
0001
0000
0000
1000
0000
0000
0010
0000
0000
0001
0000
0000
0100
0000
0000
0010
0000
0000
1000
0000
0000
0100
0000
0000
1000
0000
0000
0001
0000
0000
0100
0000
0010
0000
0100
0000
0010
0000
1000
0000
0100
0000
,  // measure 11
0010
0000
0001
1000
0001
1000
0010
0100
0000
0001
0000
1000
0000
0100
0010
0100
,  // measure 12
1000
0000
0000
0100
0000
0000
0010
0000
0000
0001
0000
0000
0100
0000
0000
0010
0000
0000
0100
0000
0000
1000
0000
0000
0100
0000
0000
0001
0000
0000
0010
0000
0100
0000
0010
0000
0100
0000
1000
0000
0010
0000
0100
0000
0001
0000
1000
0000
,  // measure 13
0010
0000
0000
0000
0000
0000
0000
0000
0000
0000
0000
0000
1000
0000
0000
0001
0000
0000
1000
0000
0001
0000
1000
0000
0001
0000
0000
0100
0000
0000
0010
0000
0000
0001
0000
0000
1000
0000
0000
0100
0000
0000
0001
0000
0000
0010
0000
0000
,  // measure 14
1000
0000
0000
0001
0000
0000
0100
0000
0000
1000
0000
0000
0010
0000
0100
0000
0000
0000
0010
0000
0100
0000
0000
0000
0001
0000
1000
0000
0000
0000
0001
0000
1000
0000
0000
0000
0010
0000
1000
0000
0000
0000
0001
0000
0100
0000
0000
0000
,  // measure 15
1000
0000
0100
0000
0000
0000
0001
0000
0010
0000
0000
0000
0100
0000
0000
0000
0000
0000
1000
0000
0000
0100
0000
0000
0000
0000
0000
0100
0000
0000
0010
0000
0000
0000
0000
0000
0010
0000
0000
0001
0000
0000
0000
0000
0000
0001
0000
0000
,  // measure 16
0100
0000
1000
0000
0100
0000
0001
0010
0000
0010
0100
0000
0100
1000
0000
1000
,  // measure 17
0001
0000
0100
0000
0010
0000
0000
0000
0010
0000
1000
0002
0000
0000
0000
0003
,  // measure 18
0000
0000
1000
0000
0001
0000
0010
0100
0000
1000
0000
0001
0000
0000
0100
0000
,  // measure 19
0010
0000
1000
0000
1001
0000
1000
0100
0000
0100
0010
0000
0010
0001
0000
0001
,  // measure 20
0010
0000
0100
0000
1001
0000
0001
0100
0000
0100
1000
0000
1000
0100
0000
0100
,  // measure 21
0001
0000
0010
0000
1001
0000
1000
0001
0010
0100
1000
0001
0000
0001
0010
0100
,  // measure 22
0010
0000
0000
0100
0000
0000
1000
0000
0000
0001
0000
0000
0100
0000
0000
0000
0000
0000
0001
0000
0000
1000
0000
0000
0000
0000
0000
1000
0000
0000
0010
0000
0100
0000
0010
0000
0100
0000
0000
0001
0000
0000
1000
0000
0000
0001
0000
0000
,  // measure 23
1000
0000
0100
0000
0010
0000
0001
0000
1001
0000
0000
0001
0000
0000
0001
0000
1001
0000
0000
1000
0000
0000
1000
0000
1001
0000
0100
0010
0001
1000
0100
0010
,  // measure 24
0001
0010
0100
1000
0010
0000
1000
0001
1000
0000
0000
0010
0000
0000
0100
0000
1000
0000
1000
0000
0100
0000
0000
0000
0001
0000
0010
0000
0011
0000
0000
0000
,  // measure 25
1000
0000
0000
1010
0000
0000
0000
0000
0000
0001
0000
0000
0101
0000
0000
0000
0000
0000
1000
0000
0000
1100
0000
0000
0000
0000
0000
0000
0000
0000
0001
0000
1000
0000
0001
0000
1000
0000
0000
0001
0000
0000
1000
0000
0000
0000
0000
0000
,  // measure 26
0010
1000
0010
1000
0010
1000
1010
0000
0001
0010
0001
0010
0001
0010
0011
0000
,  // measure 27
0100
1000
0001
0100
0010
1000
0100
0000
0000
0000
0000
0000
0100
1000
1100
0000
,  // measure 28
0001
0000
0000
0101
0000
0000
0000
0000
0000
1000
0000
0000
1001
0000
0000
0000
0000
0000
0001
0000
0000
0010
0000
0000
0100
0000
1000
0000
0001
0000
0100
0000
0010
0000
1000
0000
0100
0000
0000
0000
0000
0000
0110
0000
0000
0000
0000
0000
,  // measure 29
0000
1001
0000
0000
1001
0000
0110
0000
1000
0000
0001
0000
1001
0000
0000
0000
,  // measure 30
0001
1000
1001
0000
0100
0010
0100
0001
,  // measure 31
1000
0000
0100
0000
0010
0000
0000
0000
0010
0000
0100
0000
1000
0000
1000
0001
,  // measure 32
0000
0000
0000
0001
0000
0000
0100
0000
0000
0000
0000
0000
0010
0000
0000
0000
0000
0000
0100
0000
0001
0000
0100
0000
0001
0000
1000
0000
0100
0000
1000
0000
0100
0000
0000
0000
1100
0000
0000
0000
0000
0000
0000
0000
0000
0000
0000
0000
,  // measure 33
0011
0000
0000
0000
0101
0000
0000
0000
1010
0001
1000
0001
1000
0000
0001
0000
,  // measure 34
1000
0000
0010
0000
0100
0000
0010
0000
0100
0000
0001
0000
0010
1000
0010
0001
,  // measure 35
0010
0000
0001
0000
0100
0000
0000
0000
0100
0000
1000
0000
0010
0000
0010
0100
,  // measure 36
0000
0100
0001
0000
2000
0000
0000
0000
3100
0000
0010
0000
0001
0000
0001
0011
,  // measure 37
0000
0010
0110
0000
1000
0001
0000
0001
1000
0000
0001
0000
1000
0001
1000
0001
,  // measure 38
1000
0001
1000
0001
0100
0010
0100
0001
0010
0001
0100
0010
1000
0100
1000
0100
,  // measure 39
1000
0100
1000
0100
0010
0001
0010
0001
0100
0010
0100
0010
1000
0100
1000
0100
,  // measure 40
1000
0000
0000
0100
0000
0000
0010
0000
0000
0001
0000
0000
0100
0000
0000
0010
0000
0000
0100
0000
0000
0001
0000
0000
0010
0000
0000
0001
0000
0000
1000
0000
0000
0010
0000
0000
1000
0000
0000
0100
0000
0000
0010
0000
0100
0000
1000
0000
,  // measure 41
0001
0000
0100
0000
0010
0000
1000
0000
0000
0001
0000
0000
0110
0000
0000
0000
0000
0000
0000
0000
0000
0000
0000
0000
1001
0000
0000
0000
0000
0000
0000
0000
0000
0000
0000
0000
1002
0000
0000
0000
0000
0000
1000
0000
0000
0000
0000
0000
,  // measure 42
0100
0000
1000
1000
0100
0000
1000
1000
,  // measure 43
0100
0000
0000
0000
1000
0000
1003
0000
0010
0000
0000
0000
0100
0001
0100
0001
,  // measure 44
0100
0010
1000
0001
0100
0010
0100
0010
0100
0001
1000
0100
0010
0001
0010
0001
,  // measure 45
0010
0000
0000
0100
0000
0000
1000
0000
0000
0001
0000
0000
1000
0000
0000
0100
0000
0000
1000
0000
0100
0000
1000
0000
0100
0000
0000
0010
0000
0000
0001
0000
0000
1000
0000
0000
0001
0000
0010
0000
0100
0000
1000
0000
0010
0000
0100
0000
,  // measure 46
0001
0010
0100
1000
0001
1000
0001
0100
0010
1000
0001
0100
0010
1000
0001
0100
0010
1000
0001
1000
0001
1000
0001
1000
,  // measure 47
0010
0000
0100
0000
0001
0000
0010
0000
0100
0000
0010
0000
0100
0000
1000
0000
0001
0000
1000
0000
0001
0000
0010
0000
0100
0000
1000
0000
0000
0000
0001
0000
0000
0000
0000
0000
1000
0000
0000
0010
0000
0000
1000
0000
0000
0010
0000
0000
,  // measure 48
1000
0001
0010
0001
0100
0010
1000
0010
1000
0001
0010
0200
0000
0000
0300
0000
;

//---------------dance-single - ----------------
#NOTES:
     dance-single:
     :
     Medium:
     9:
     0.490479,0.712393,0.201304,0.134203,0.184529,307.000000,289.000000,18.000000,12.000000,0.000000,0.000000,0.490479,0.712393,0.201304,0.134203,0.184529,307.000000,289.000000,18.000000,12.000000,0.000000,0.000000:
0000
0000
0000
0000
,
0000
0000
0000
0000
,
0000
1000
0000
0001
,
0100
0100
0010
0000
0000
0000
1000
0000
,
0001
0001
0100
0010
1000
0010
1000
0010
,
0100
0010
1000
0001
1000
0001
1000
0001
,
1000
0000
1000
1000
0100
0100
1000
1000
,
0100
0000
0010
0001
0010
0001
0001
0010
,
0001
0000
1000
1000
0001
0001
1000
1000
,
0001
0000
0001
0001
0001
0010
0100
0100
,
1000
1000
0001
0001
1000
1000
0001
0001
,
1000
0000
0100
0100
1000
0100
0100
0010
,
0010
0010
0001
0001
0010
0010
0001
0001
,
0010
0000
0001
0001
0001
0010
0100
0010
,
0100
0010
0001
1000
0100
0010
0001
0010
,
0100
0000
1000
0000
0100
0000
0000
0100
0000
0000
0010
0000
0000
0010
0000
0000
,
0010
0000
0010
0000
0100
0000
0000
0100
0000
0000
0100
0000
0000
0100
0000
0000
,
0100
0100
1000
0000
0100
0010
0010
0000
,
0001
0001
1000
1000
0010
0100
0001
0001
,
0010
0000
0100
0000
1000
0000
0000
1000
0000
0000
0001
0000
0000
0001
0000
0000
,
0001
0000
0001
0000
1000
0000
0000
1000
0000
0000
1000
0000
0000
1000
0000
0000
,
1000
0001
1000
0000
0010
0100
0001
0000
,
1000
0000
0010
0000
0100
0000
0000
0100
0000
0000
0020
0000
0000
0000
0000
0030
,
1000
0000
0000
0000
0001
0000
0000
0000
1001
0000
0000
0001
0000
0000
0000
0000
1001
0000
0000
1000
0000
0000
0000
0000
1001
0000
0000
0001
0000
0000
0001
0000
,
1000
0000
0001
0000
1000
0000
0001
0000
0001
0000
0000
1000
0000
0000
1000
0000
0001
0000
0001
0000
1000
0000
0000
0000
0000
0000
0000
0000
1001
0000
0000
0000
,
0000
1001
0000
0000
1001
0000
0000
1001
0000
0000
1000
0000
0001
0000
2000
0000
,
0000
3000
0000
0000
0001
0000
0100
0000
0000
0100
0000
0000
0100
0000
0100
0000
,
0000
0010
0000
0000
0010
0000
0020
0000
0000
0030
0000
0000
1000
0000
1000
0000
,
0000
1000
0000
0000
0001
0000
0001
0000
0000
0001
0000
0000
0001
0000
1001
0000
,
0000
1001
0000
0000
1001
0000
0110
0000
1000
0000
0001
0000
1000
0000
0000
0000
,
0001
1000
0001
0000
0100
0001
0100
0001
,
0100
0000
0001
0000
0100
0000
0000
0000
0001
0000
1000
0000
0001
0000
0000
0001
,
0000
0000
1000
0000
1000
0000
0000
1000
0000
0000
0001
0000
1001
0000
0000
0000
,
0110
0000
1001
0000
0110
0000
1000
0001
,
1000
0001
1000
0000
0010
0100
0010
0100
,
0010
0000
0100
0000
0010
0000
0000
0000
0100
0000
0010
0000
0100
0000
0000
0001
,
0000
0000
0001
0000
1000
0000
0000
1000
0000
0000
0100
0000
0010
0000
0000
0001
,
0000
1000
0010
0000
0100
0001
2000
0000
,
0000
0000
0000
0000
3100
0000
0000
1000
0000
0000
0001
0000
0020
0000
0000
0000
,
0000
0030
0200
0000
2300
0000
3002
0000
,
0003
0000
1000
0000
0100
0000
0000
0010
0000
0000
0002
0000
2000
0000
0000
0000
,
3003
0011
1010
1002
,
1000
1000
1000
1000
,
1000
0000
1000
0003
1000
0000
1000
0001
,
0100
0000
0001
1000
0100
0000
1000
0001
,
0100
0000
0001
1000
0100
0000
1000
0001
,
0100
0000
0001
1000
0100
0000
1000
0001
,
0100
0000
0001
1000
0100
0000
0010
0001
,
0010
0000
0001
0000
0010
0000
0001
0000
0010
0000
0010
0002
0000
0000
0000
0000
,
0003
0000
0000
0000
;

//---------------dance-single - ----------------
#NOTES:
     dance-single:
     :
     Easy:
     7:
     0.396217,0.545198,0.089468,0.089468,0.095060,248.000000,240.000000,8.000000,8.000000,0.000000,0.000000,0.396217,0.545198,0.089468,0.089468,0.095060,248.000000,240.000000,8.000000,8.000000,0.000000,0.000000:
0000
0000
0000
0000
,
0000
0000
0000
0000
,
0000
0001
0000
1000
,
0010
0100
0000
0001
,
1000
0001
0001
1000
,
1000
0000
0001
1000
0001
1000
0001
1000
,
0001
1000
1000
0001
,
0001
0000
0010
0100
0010
0100
0010
0100
,
0010
0100
0100
0010
,
0010
0000
0001
1000
0001
1000
0001
1000
,
0001
1000
0001
0000
0001
0000
1000
0000
,
1000
0010
0010
0100
,
0100
0000
0010
1000
0010
1000
0010
1000
,
0010
0000
0100
0001
0100
0001
0100
0001
,
0100
0001
1000
0000
1000
0000
0001
0000
,
0001
1000
1000
1000
,
1000
0010
0010
0010
,
0010
0100
0000
0001
,
0000
1000
1000
0001
,
0001
0010
0100
1000
,
0001
0001
0010
0100
,
1000
0001
0000
0100
,
0000
0010
0010
1000
,
0000
0000
0000
0000
0000
0000
0000
0000
0001
0000
0000
1000
0000
0000
0000
0000
1000
0000
0000
0001
0000
0000
0000
0000
0001
0000
0000
1000
0000
0000
1000
0000
,
0001
0000
1000
0000
0001
0000
1000
0000
1000
0000
0000
0001
0000
0000
0001
0000
1000
0000
1000
0000
0001
0000
0000
0000
0000
0000
0000
0000
0001
0000
0000
0000
,
0000
1000
0000
0000
0001
0000
0000
1000
0000
0000
0001
0000
1000
0000
0001
0000
,
0000
0000
1000
0001
0000
0000
1000
0001
,
0000
0000
0001
1000
0000
0000
0001
0010
,
0000
0000
0100
1000
0000
0000
0000
0001
,
1000
0001
1000
0110
0001
1000
0001
0000
,
1000
0001
1000
0000
0010
1000
0010
1000
,
0010
0000
1000
0000
0010
0000
0000
0000
1000
0000
0001
0000
1000
0000
0000
1000
,
0000
0000
0001
0000
0001
0000
0000
0001
0000
0000
1000
0000
1001
0000
0000
0000
,
1001
0000
1001
0000
1001
0000
0001
1000
,
0001
1000
0001
0000
0100
0010
0100
0010
,
0100
0000
0010
0000
0100
0000
0000
0000
0010
0000
0100
0000
0010
0000
0000
1000
,
0000
0000
1000
0000
0001
0000
0000
0000
0001
0000
1000
0000
0001
0000
0000
1000
,
0000
0001
0100
0000
0001
1000
0002
0000
,
0000
0000
0000
0000
1003
0000
0000
0001
0000
0000
0001
0000
2000
0000
0000
0000
,
0000
0000
0000
3000
0002
0000
0000
0003
2000
0000
0000
3000
0002
0000
0000
0000
,
0003
0000
0001
0000
1000
0000
0000
0001
0000
0000
2000
0000
0002
0000
0000
0000
,
3003
1001
1001
2001
,
0001
0001
0001
0001
,
0001
0000
0001
3000
0001
0000
0001
1000
,
0001
0000
1000
0001
1000
0000
0001
1000
,
0001
0000
1000
0001
1000
0000
0001
1000
,
0001
0000
1000
0001
1000
0000
0001
1000
,
0001
0000
1000
0001
1000
0000
0100
0010
,
0100
0010
0100
0010
0100
0100
0010
0000
;
