#TITLE:Again;
#SUBTITLE:Full Metal Alchemist Brotherhood Opening 1;
#ARTIST:Yui;
#TITLETRANSLIT:;
#SUBTITLETRANSLIT:;
#ARTISTTRANSLIT:;
#GENRE:;
#CREDIT:Magna Trick;
#BANNER:AgainBN.jpg;
#BACKGROUND:AgainB.jpg;
#LYRICSPATH:;
#CDTITLE:Magna Trick title!.png;
#MUSIC:Again.mp3;
#OFFSET:0.098043;
#SAMPLESTART:48.970001;
#SAMPLELENGTH:11.000000;
#SELECTABLE:YES;
#BPMS:0.000000=140.000000
;
#STOPS:
;
#BGCHANGES:0.104=Again.avi=1.000=0=0=1=====,
206.000=AgainB.png=1.000=0=0=1=====,
99999=-nosongbg-=1.000=0=0=0 // don't automatically add -songbackground-
;
#KEYSOUNDS:;
#ATTACKS:;

//---------------dance-single - ----------------
#NOTES:
     dance-single:
     :
     Hard:
     13:
     0.671100,0.928435,0.166585,0.266536,0.533073,423.000000,408.000000,15.000000,24.000000,0.000000,0.000000,0.671100,0.928435,0.166585,0.266536,0.533073,423.000000,408.000000,15.000000,24.000000,0.000000,0.000000:
0000
0000
0000
0000
0001
1000
0000
0100
,
0010
0000
0001
0000
0100
0001
0010
0001
,
0100
0000
0000
0000
0100
0000
0000
0000
0010
1000
0010
0000
0100
0000
0001
0000
,
0010
0100
0001
0200
0000
0300
1000
1000
,
1000
0000
0000
0000
1000
0000
0000
0000
0010
1000
0100
0000
0100
0000
0010
0000
,
1000
0010
0000
0000
0100
0000
0000
0000
0010
0000
0001
0000
0100
0000
0010
0000
,
0001
0010
0000
0000
0200
0000
0000
0000
0000
0000
0310
0000
1000
0000
0200
0000
,
0000
0000
1300
2001
0000
3001
0000
0001
,
1000
0100
1000
0000
0001
0000
0100
0000
0010
0000
0000
0000
0010
0000
0100
0000
,
0010
1000
0010
1000
0100
0000
0110
0000
0000
0000
0002
0000
0000
0000
1003
0000
,
0100
0010
0100
0000
0010
0000
0001
0000
1001
0000
0000
0000
0100
0000
0100
0000
,
0100
0000
0001
0000
0001
0000
1000
0000
1000
0000
0100
0010
0100
0000
0001
0000
,
0100
0010
0100
0000
0010
0000
0010
0100
0010
0000
1001
0000
0000
0000
0000
0000
,
0001
0000
1000
0100
0010
0100
2000
0000
,
3020
0000
0000
0000
0000
0000
0030
0000
0010
1000
0010
0000
0100
0000
0001
0000
,
2000
0000
3200
0300
0200
0000
0310
0010
,
0010
0200
0000
0300
0000
1100
0000
0000
,
0011
0000
0100
0010
0100
0001
0010
0000
,
0020
0000
0000
0000
0030
0000
0000
0000
0010
0001
0100
0000
0001
0000
0100
0000
,
0020
0000
2030
0000
3200
0000
1300
0001
,
0100
0020
0000
0000
0000
0030
0010
1000
,
0100
1000
0000
0100
1000
0100
1000
0000
0001
0000
0001
0000
0010
0000
0100
0000
,
1000
0001
0000
0001
1000
0001
1000
0000
0100
0000
1000
0000
0010
0000
0100
0000
,
0001
0100
0000
0100
0010
0100
0010
0000
1000
0000
0000
0000
0000
0000
1000
0000
,
1000
0000
0001
0001
0000
0000
0001
1000
,
0000
0100
1000
0100
0001
0100
1000
0000
0010
0000
0100
0000
0001
0000
0010
0000
,
0100
0010
0000
0010
0100
0010
0100
0000
0010
0000
0001
0000
0100
0000
0010
0000
,
0100
0010
0000
0000
0100
0000
0100
0000
0020
0000
0000
0000
0030
0000
1000
0000
,
1000
0000
0000
0000
0001
0000
0001
0000
0000
0000
0001
0010
0100
1000
0001
0010
,
0100
1000
0001
0010
0100
1000
0001
0000
1000
0000
1000
0010
0100
0001
1000
0010
,
0100
0001
1000
0010
0100
0001
1000
0000
0010
0000
0010
1000
0100
0010
0001
1000
,
0100
0010
0001
1000
0100
0010
0001
1000
0100
0000
0010
0000
0000
0000
0001
0000
,
0101
0000
0000
0000
0010
0000
1000
0000
0100
0000
0010
0001
1000
0100
0010
0001
,
1000
0100
0010
0001
1000
0100
0010
0000
0010
0000
0001
1000
0010
0100
0001
1000
,
0010
0100
0001
1000
0010
0100
0001
1000
0001
0000
0001
1000
0100
1000
0100
0010
,
0001
0010
0001
0100
0010
0100
0010
1000
0001
0100
0010
0000
0000
0000
1000
0000
,
0001
0000
0000
0000
0001
0100
0001
0100
0001
0100
0010
0000
0000
0000
0100
0000
,
0010
1000
0100
0000
0010
0000
0001
0000
0100
0000
0010
0000
0000
0000
0100
0000
,
0010
0100
0010
0100
0001
0000
1000
0000
0001
0100
0010
0000
0010
0000
1000
0000
,
0100
1000
0100
1000
0010
0000
0100
0000
0000
0000
1001
0000
0000
0000
1000
0000
,
1001
0000
0000
0000
0200
0000
0000
0000
0310
1000
0100
0000
0100
0000
1000
0000
,
0010
0100
0000
0000
0100
0000
0000
0000
1000
0000
0100
0000
0001
0000
0010
0000
,
1000
0010
0000
0000
0020
0000
0000
0000
0000
0000
0130
0000
0100
0000
0200
0000
,
0000
0000
0000
0000
0000
0000
0300
0000
1000
0000
1000
0100
1000
0100
0010
0000
,
0002
0000
0013
0100
0010
0000
0100
1000
0100
1000
0010
0000
0000
0000
0010
0000
,
1000
0001
1000
0000
0001
0000
0010
0000
0100
0000
0110
0000
1000
0000
0100
0000
,
0010
0100
0010
0100
1000
0000
0001
0010
0100
1000
0100
0000
0100
0000
0010
0000
,
0010
0001
0001
1000
0100
1001
0001
0001
,
0101
0000
0000
0000
1100
0000
0100
0010
0100
0010
0001
0000
0100
0000
0010
0000
,
1000
0000
0000
0000
1000
0000
0000
0000
0100
0000
1001
0000
0000
0001
0000
0001
,
0100
0010
1000
0000
0001
0000
0200
0000
0300
0000
2002
0000
0000
0000
0000
0000
,
0000
0000
0000
0000
,
0000
3003
0000
0000
;

//---------------dance-single - ----------------
#NOTES:
     dance-single:
     :
     Medium:
     7:
     0.385526,0.435204,0.055528,0.044423,0.005553,243.000000,238.000000,5.000000,4.000000,0.000000,0.000000,0.385526,0.435204,0.055528,0.044423,0.005553,243.000000,238.000000,5.000000,4.000000,0.000000,0.000000:
0000
0000
0000
0000
0001
1000
0000
0100
,
0010
0000
0001
0000
0100
0001
0100
0001
,
0100
0000
0010
0000
0010
1000
0010
1000
,
0010
1000
0010
1000
0000
0000
0100
0100
,
0100
0000
0010
0000
0000
0001
0000
1000
,
0001
0000
0100
0000
0000
0010
0000
0100
,
0010
0000
0100
0000
0000
0001
0001
0002
,
0000
0000
0003
0000
0000
1000
0000
0001
,
0000
0010
0100
0010
0001
0000
0000
1000
,
0000
0001
0100
0001
0000
1000
0000
0100
,
0000
0010
0100
0010
0100
0000
0000
1000
,
0000
1000
0000
1000
0000
1000
0000
0000
,
0000
0000
0000
0000
0000
0001
0000
0000
,
1000
0000
0000
0000
0000
0001
0000
0000
,
0100
0000
0000
0000
0000
0010
0000
0000
,
1000
0000
0000
0000
0000
0001
0000
0010
,
0000
0200
0000
0000
0300
1000
0000
0000
,
0001
0000
0000
0000
0000
0100
0000
0000
,
0010
0000
0000
0000
1000
0100
1000
0000
,
0001
0000
0001
0000
0100
0000
0100
0010
,
0100
0010
0000
0000
0000
0000
1000
0001
,
0000
1000
0001
1000
0001
0010
0000
0100
,
0010
0000
0100
0010
0001
0100
0000
0100
,
0001
0000
0100
0001
0100
0000
0000
0001
,
0001
0000
1000
1000
0000
0000
0100
1000
,
0000
0100
1000
0100
0010
0001
0000
0010
,
0001
0000
0010
0001
0010
0001
0000
0100
,
0001
0000
0100
0001
0100
0000
0000
0001
,
0100
0000
1000
0100
0000
1000
0100
0001
,
0010
1000
0010
0001
0100
0000
0001
0100
,
0010
0100
0001
0010
0100
0000
0100
0010
,
0001
0100
1000
0100
0010
1000
0000
0010
,
1000
0000
0010
1000
0100
0000
0100
0100
,
0000
1000
0000
0001
1000
0000
0001
0001
,
0000
0100
0000
0010
1000
0000
0010
0010
,
0000
1000
0000
0100
0010
0001
0000
0010
,
0100
0000
1000
0001
0100
0010
0000
0010
,
0000
1000
0000
1000
0000
0001
0000
0001
,
0000
0010
0000
0010
0000
0100
0010
0001
,
0100
0010
0100
0001
0000
1001
0000
0000
,
1100
0000
0101
0000
0000
0001
0000
1000
,
0100
0000
1000
0000
0000
0001
0000
0010
,
0000
0100
0010
0000
0000
0001
0100
0010
,
0000
1000
0000
0100
0000
1001
0000
0000
,
0001
1000
0010
1000
0100
0010
0000
1000
,
0100
0000
1000
0000
0001
0100
0000
0001
,
1000
0000
0100
0000
0010
0100
0010
0100
,
0010
0100
0010
0100
0000
1000
0000
0000
,
0001
0000
0100
0000
0010
1000
0000
0001
,
1000
0000
0000
0000
0001
0000
0000
0000
0000
0010
0100
0000
0000
0000
0000
0000
,
0000
1000
0001
0100
0000
2002
0000
0000
,
0000
0000
0000
0000
,
0000
3003
0000
0000
;

//---------------dance-single - ----------------
#NOTES:
     dance-single:
     :
     Easy:
     5:
     0.250671,0.348163,0.033317,0.022211,0.000000,158.000000,155.000000,3.000000,2.000000,0.000000,0.000000,0.250671,0.348163,0.033317,0.022211,0.000000,158.000000,155.000000,3.000000,2.000000,0.000000,0.000000:
0000
0000
0000
0000
,
0000
0000
0000
0000
,
0000
0000
0000
0000
,
0000
0000
0000
0000
,
0000
0000
0000
0000
,
0000
0000
0000
0000
,
0000
0000
0000
0000
,
0000
0000
0000
0000
0000
1001
0000
0001
,
0000
1000
0000
0001
0000
1000
0000
0001
,
0000
1000
0000
1000
0000
0001
0000
1000
,
0000
0001
0000
1000
0000
0001
0000
0001
,
0000
0001
0000
0001
0000
0001
0000
1000
,
0000
0001
0000
1000
0000
1001
0000
0000
,
0000
0000
0000
0000
,
0000
0000
0000
0000
0000
0001
0000
0000
,
1000
0000
0000
0000
0000
0010
0000
0000
,
0100
0000
0000
0000
0000
0100
0000
0000
,
0010
0000
0000
0000
0000
0010
0000
0000
,
0001
0000
0000
0000
0000
1000
0000
0000
,
0001
0000
0000
0000
0000
0100
0000
0100
,
0000
0100
0000
0000
0000
0010
0000
1000
,
0000
0010
0000
1000
0000
0001
0000
0100
,
0000
0001
0000
0100
0000
0100
0000
1000
,
0000
0010
0000
1000
0000
0000
0000
0001
,
0001
0000
1000
1000
0000
0000
0000
0001
,
0000
0010
0000
0001
0000
1000
0000
0001
,
0000
1000
0000
0001
0000
1000
0000
0010
,
0000
1000
0000
0100
0000
0000
0000
0010
,
0010
0000
0001
0001
0000
1000
0000
0001
,
0000
1000
0000
0001
0000
0000
0000
0001
,
0000
1000
0000
0001
0000
0000
0000
1000
,
0000
0001
0000
1000
0000
0100
0000
0010
,
0100
0000
0010
0100
0000
1000
0000
0100
,
0000
1000
0000
0100
0000
0000
0000
0010
,
0000
0001
0000
0010
0000
0000
0000
0001
,
0000
0100
0000
0001
0000
1000
0000
0001
,
1000
0000
0001
1000
0000
0001
0000
0001
,
0000
1000
0000
1000
0000
0010
0000
0010
,
0000
0100
0000
0100
0000
0001
0100
0001
,
0100
0001
0100
0001
0000
1000
0000
0000
,
0001
0000
1000
0000
0000
0100
0000
0100
,
0000
0010
0000
0010
0000
0001
0000
1000
,
0000
0001
0100
0001
0000
1000
0000
1000
,
0000
0000
0000
0000
0000
1000
0000
0000
,
0100
0000
0010
0000
0000
0001
0000
0100
,
0000
0010
0010
0010
0000
1000
0000
0100
,
0000
0010
0010
0010
0000
0001
0000
1000
,
0000
0001
1000
0001
0000
1000
0000
0000
,
1000
0000
1000
0000
0000
0001
0000
0001
,
0000
0100
0000
0100
0000
0010
0000
0010
,
0000
1000
1000
1000
0000
2002
0000
0000
,
0000
0000
0000
0000
,
0000
3003
0000
0000
;

//---------------dance-single - ----------------
#NOTES:
     dance-single:
     :
     Challenge:
     15:
     0.805955,0.957449,0.588601,0.177691,0.610812,508.000000,455.000000,53.000000,16.000000,0.000000,1.000000,0.805955,0.957449,0.588601,0.177691,0.610812,508.000000,455.000000,53.000000,16.000000,0.000000,1.000000:
// measure 0
0000
0000
0000
0000
1000
1001
0000
0010
,  // measure 1
0100
0000
1000
0000
0010
1010
1000
0010
,  // measure 2
0100
0000
0000
0000
0010
0000
0000
0000
0100
0001
1000
0000
0010
0000
1000
0000
,  // measure 3
0100
0010
1000
0020
0000
0030
0101
0100
,  // measure 4
0001
0000
0000
0000
0101
0000
0000
0000
0100
0001
1000
0000
0010
0000
0100
0000
,  // measure 5
0001
0100
0000
0000
0010
0000
0000
0000
0100
0000
1100
0000
0010
0000
0100
0000
,  // measure 6
1000
0100
0000
0000
0020
0000
0000
0000
0000
0000
0131
0000
0001
0000
0020
0000
,  // measure 7
0000
0000
0031
1002
0000
1003
0000
1000
,  // measure 8
0001
0010
0001
0000
1000
0000
0010
0000
0100
0000
0000
0000
0100
0000
0010
0000
,  // measure 9
0100
0001
0100
0001
0010
0000
0110
0000
0000
0000
2000
0000
0000
0000
3001
0000
,  // measure 10
0010
0100
0010
0000
0100
0000
1000
0000
1001
0000
0000
0000
1010
0000
1010
0000
,  // measure 11
1010
0000
1100
0000
1100
0000
1001
0000
1001
0000
0010
0100
0010
0000
1000
0000
,  // measure 12
0010
0100
0010
0000
0100
0000
0100
0010
0100
0000
1001
0000
0000
0000
0000
0000
,  // measure 13
1100
0000
0000
0000
0001
0000
0010
0000
0100
0000
0011
0000
0002
0000
0000
0003
,  // measure 14
0210
0000
0000
0000
0000
0000
0300
0000
0100
0001
1000
0000
0010
0000
1000
0000
,  // measure 15
1002
0100
0013
0100
0010
1100
0001
1000
,  // measure 16
0110
0000
0100
0000
0001
0000
1000
0000
0001
1000
0010
0000
1000
0000
0001
0000
,  // measure 17
1100
0000
0001
0000
0010
0000
0100
0000
0010
0100
1000
0000
0100
0000
0010
0000
,  // measure 18
0002
0000
0100
0000
0013
0000
0100
0000
0100
0010
1000
0000
0001
0000
0010
0000
,  // measure 19
0210
1000
0310
0100
0010
1100
0001
1000
,  // measure 20
0110
0000
0000
0200
0000
0000
0010
0000
0000
1000
0000
0000
0310
1000
0001
0100
0000
0000
0100
0000
0000
0001
0000
0000
,  // measure 21
0010
0001
0000
0010
0001
0100
0001
0000
1001
0000
1001
0000
0100
0000
0010
0000
,  // measure 22
1000
0001
0000
1000
0001
1000
0010
0000
0110
0000
0110
0000
0100
0000
0010
0000
,  // measure 23
1000
0010
0000
0010
0100
0010
0100
0000
1001
0000
1001
0000
0010
0000
0001
0000
,  // measure 24
0001
0000
0000
0100
0000
0000
1000
0000
0000
1000
0000
0000
0100
0001
1000
0010
0000
0000
1000
0000
0000
0001
0000
0000
,  // measure 25
0000
0010
0001
0010
1000
0010
0001
0000
1001
0000
1001
0000
1000
0000
0100
0000
,  // measure 26
0010
0100
0000
0100
1000
0100
0010
0000
0110
0000
0110
0000
0010
0000
0100
0000
,  // measure 27
0010
0100
0000
0000
0010
0000
0010
0000
0110
0000
1001
0000
0000
0000
0001
0000
,  // measure 28
0001
0000
0000
0000
1000
0000
1001
0000
0000
0000
1000
0100
0010
0001
1000
0100
,  // measure 29
0010
0001
1000
0100
0010
0001
1000
0000
0001
0000
0001
0100
0010
1000
0001
0100
,  // measure 30
0010
1000
0001
0100
0010
1000
0001
0000
1000
0000
1000
0001
0010
0100
1000
0001
,  // measure 31
0010
0100
1000
0001
0010
0100
1000
0001
0010
0000
0100
0000
0000
0000
1000
0000
,  // measure 32
1010
0000
0000
0000
0100
0000
0001
0000
0010
0000
0100
1000
0001
0010
0100
1000
,  // measure 33
0001
0010
0100
1000
0001
0010
0100
0000
0100
0000
1000
0001
0100
0010
1000
0001
,  // measure 34
0100
0010
1000
0001
0100
0010
1000
0001
1000
0000
1000
0001
0010
0001
0010
0100
,  // measure 35
1000
0100
1000
0010
0100
0010
0100
0001
1000
0010
0110
0000
0000
0000
0011
0000
,  // measure 36
1100
0000
0000
0000
1000
0010
1000
0010
1000
0010
0100
0000
0000
0001
0010
0000
,  // measure 37
0100
0001
0010
0000
0100
0000
1000
0000
0010
0000
0100
0000
0000
0100
0010
0000
,  // measure 38
0100
0010
0100
0010
1000
0000
0001
0000
1000
0010
0100
0000
0100
0000
0001
0000
,  // measure 39
0010
0001
0010
0001
0100
0000
0010
0000
1000
0000
1001
0000
1000
0000
0001
0000
,  // measure 40
1001
0000
0100
0000
1001
0000
0100
0010
0100
0001
0010
0000
0010
0000
0001
0000
,  // measure 41
0100
0010
0000
0100
0010
0000
1000
0000
0001
0000
0010
0000
0100
0000
1000
0000
,  // measure 42
0001
0100
0000
1000
0200
0000
0000
0000
0000
0000
0310
0000
0010
0000
0020
0000
,  // measure 43
0000
0000
0000
0000
0000
0000
0030
0000
0001
0000
0001
0010
0001
0010
0100
0000
,  // measure 44
1000
0100
1000
0000
0100
0000
0010
0001
0010
0001
0100
0000
0010
0000
0100
0000
,  // measure 45
0001
1000
0001
0000
1001
0000
0100
0000
0010
0000
0110
0000
0001
0000
0010
0000
,  // measure 46
0100
0010
0100
0010
0001
0000
1000
0100
0010
0001
0010
0000
0010
0000
0100
0000
,  // measure 47
0100
1000
1000
0001
0010
1001
1000
1000
,  // measure 48
1010
0000
0000
0000
0011
0000
0010
0100
0010
0100
1000
0000
0010
0000
0100
0000
,  // measure 49
0001
0000
1000
0000
0000
0000
1000
0000
0001
0000
0000
0000
1000
0000
0000
0000
0010
0000
0000
1000
0001
0000
0000
0000
0000
0000
1000
0000
0000
0000
1000
0000
,  // measure 50
0010
0100
0001
0000
1000
0000
0020
0000
0030
0000
2002
0000
0000
0000
0000
0000
,  // measure 51
0000
0000
0000
0000
,  // measure 52
0000
3003
0000
0000
;
