#TITLE:A Cruel Angel's Thesis;
#SUBTITLE:Evangelion Opening;
#ARTIST:高橋洋子;
#TITLETRANSLIT:;
#SUBTITLETRANSLIT:;
#ARTISTTRANSLIT:Yoko Takahashi;
#CREDIT:;
#BANNER:ACATBN.jpg;
#BACKGROUND:ACATJ.jpg;
#LYRICSPATH:;
#CDTITLE:Magna Trick title!.png;
#MUSIC:A Cruel Angel's Thesis.mp3;
#OFFSET:-0.059;
#SAMPLESTART:22.095;
#SAMPLELENGTH:14.000;
#SELECTABLE:YES;
#BPMS:0.000=78.791,16.000=128.149;
#STOPS:;
#BGCHANGES:0.000=A Cruel Angel's Thesis.avi=1.000=0=0=1,
178.750=ACATBG.jpg=1.000=0=0=1,
99999=-nosongbg-=1.000=0=0=0 // don't automatically add -songbackground-
;

//---------------dance-single - ----------------
#NOTES:
     dance-single:
     :
     Easy:
     3:
     0.203,0.236,0.010,0.000,0.003:
0000
0000
0000
0000
,
0000
0000
0000
0000
,
0000
0000
0000
0000
,
0000
0000
0000
0000
,
0000
0000
0000
0000
,
0100
0001
1000
0000
,
0010
0100
1000
0000
,
0001
0010
0100
0000
,
0001
1000
0010
0000
,
0100
0000
0100
0000
,
1000
0000
1000
0000
,
0001
0000
0010
0000
,
1000
0000
0001
0000
,
0100
0000
0100
0000
,
0010
0000
0010
0000
,
0001
0000
1000
0000
,
0100
0000
0010
0000
,
1000
0000
1000
0000
,
0001
0000
0001
0000
,
0100
0000
0010
0000
,
0001
0000
1000
0000
,
0100
0000
0100
0000
,
0010
0000
0010
0000
,
0001
0000
1000
0000
,
0100
0000
0010
0000
,
1000
0010
0100
0000
,
1000
0100
0001
0001
,
0100
0010
1000
0000
,
0010
0100
1000
0001
,
0010
0100
1000
0000
,
0001
1000
0100
0000
,
0010
1000
0001
0000
,
0100
0000
0010
0000
,
0001
1000
0100
0010
,
1000
0010
0001
0000
,
1000
0001
0010
0100
,
0001
1000
0010
0000
,
1000
0001
0100
0010
,
0001
1000
0100
0000
,
1000
0100
0010
0001
,
1000
0001
0010
0000
,
1000
0001
0100
0010
,
0001
1000
0100
0000
,
1000
0001
0010
1000
,
0001
0000
0000
0000
0100
0000
0000
0000
0010
0000
0000
0110
0000
0000
0000
0000
;

//---------------dance-single - ----------------
#NOTES:
     dance-single:
     :
     Medium:
     7:
     0.346,0.380,0.196,0.043,0.071:
0000
0000
0000
0000
,
0000
0000
0000
0000
,
0000
0000
0000
0000
,
0000
0000
0000
0000
,
0000
0000
0000
0000
,
1000
0000
0000
0000
0001
0000
0000
0000
0100
0000
0000
0100
0000
0000
0000
0000
,
0010
0000
0000
0000
1000
0000
0000
0000
0001
0000
0000
0001
0000
0000
0000
0000
,
0010
0000
0000
0000
0100
0000
0000
0000
1000
0000
0000
1000
0000
0000
0000
0000
,
0001
0000
1000
0000
0001
0000
1000
0000
0001
0000
0000
0001
0000
0000
0000
0000
,
0100
0000
0010
0100
0010
0000
0000
1000
,
0001
0000
1000
0100
1000
0000
0000
0001
,
0100
0000
0010
0100
0010
0000
0100
0001
,
0100
0000
0001
1000
0001
0000
0000
1000
,
0100
0000
1000
0100
1000
0000
0000
0001
,
1000
0000
0001
1000
0001
0000
0000
0100
,
0010
0000
0100
0010
0100
0000
0010
0000
,
2000
0000
0002
3003
,
0100
0000
0010
0000
2000
0000
0000
3000
,
0001
0000
0010
0100
0010
0000
0000
0001
,
0100
0000
0000
0010
0100
0000
0000
1000
,
0100
0000
0000
0001
1000
0000
0000
0100
,
1000
0000
0000
0001
0000
0000
0100
0000
0001
0000
0000
0000
0000
0000
0100
0000
,
0100
0000
0000
0010
0000
0000
1000
0000
0001
0000
0000
0000
0000
0000
0001
0000
,
0001
0000
0000
1000
0000
0000
0100
0000
0010
0000
0000
0001
0000
0000
0010
0000
,
0100
1100
0110
0011
,
1001
0010
1000
0001
,
1010
0100
1001
0010
,
0101
0010
1001
1000
,
0011
0011
1010
1010
,
1001
0010
0100
0001
,
1100
0010
0101
1000
,
0011
0100
1000
0100
,
0110
0000
0000
0000
0001
0000
0000
0000
1001
0000
0000
1001
0000
0000
1001
0000
,
0010
0000
1000
0000
0100
0000
0000
0000
0010
0000
0000
0001
0000
0000
0100
0000
,
0010
0100
0001
0100
0010
0100
0001
0000
,
1000
0000
0000
0000
0100
0000
0000
0000
0010
0000
0000
0010
0000
0000
0000
0000
,
0100
1000
0100
0010
0100
1000
0010
0000
,
0100
0000
0000
0000
0001
0000
0000
0000
1000
0000
0000
1000
0000
0000
0000
0000
,
0001
0000
1000
0000
0010
0000
0100
0000
0001
0000
0000
0001
0000
0000
0000
0000
,
1000
0000
0000
0000
0001
0000
0000
0000
0010
0000
0000
0010
0000
0000
0000
0000
,
0100
0000
1000
0000
0100
0000
1000
0000
0100
0000
0000
1000
0000
0000
0000
0000
,
0001
0000
0000
0000
0100
0000
0000
0000
0010
0000
0000
0010
0000
0000
0000
0000
,
0100
0001
0100
0010
0100
0001
1000
0000
,
0001
0000
0000
0000
1000
0000
0000
0000
0100
0000
0000
0100
0000
0000
0000
0000
,
1000
0000
0100
0000
1000
0000
0100
0000
1000
0000
0001
2000
0000
0000
0000
0000
,
3000
0000
0000
0000
;

//---------------dance-double - ----------------
#NOTES:
     dance-double:
     :
     Hard:
     7:
     0.395,0.377,0.098,0.193,0.153:
00000000
00000000
00000000
00000000
,
00000000
00000000
00000000
00000000
,
00000000
00000000
00000000
00000000
,
00000000
00000000
00000000
00000000
,
00000000
00000000
00000000
00000000
,
00001000
00000000
00000000
00000000
00000100
00000000
00000000
00000000
00000001
00000000
00000000
00001000
00000000
00000000
00000100
00000000
,
00010000
00000000
00010000
00000000
00001000
00000000
00100000
00000000
00010000
01000000
00000000
00100000
00000000
00000000
00000000
00000000
,
10000000
00000000
00000000
00000000
00010000
00000000
00000000
00000000
10000000
00000000
00000000
01000000
00000000
00000000
00010000
00000000
,
00001000
00000000
00001000
00000000
00010000
00000000
00000010
00000000
00000100
00000000
00000000
00000110
00000000
00000000
00000000
00000000
,
00000001
00000000
00001000
00000000
00000020
00000000
00000030
00010000
,
00001000
00000000
00000000
00100000
00000000
00000000
00010000
00000000
20000000
00000000
00000000
00000000
30000000
00000000
00010000
00000000
,
01000000
00000000
00000000
00100000
00000000
00000000
10000000
00000000
01000000
00000000
00000000
00010000
00000000
00000000
00001000
00000000
,
00000010
00000000
00000000
00001000
00000000
00000000
00010000
00000000
00000100
00000000
00000000
00000000
00000010
00000000
00000001
00001000
,
00000001
00000000
00000000
00001000
00000000
00000000
00000010
00000000
00000020
00000000
00000000
00000000
00000030
00000000
00010000
00001000
,
00010000
00000000
00000000
00001000
00000000
00000000
00010000
00000000
00200000
00000000
00000000
00000000
00300000
00000000
10000000
00000000
,
00010000
00000000
00000000
01000000
00000000
00000000
00001000
00000000
00010000
00000000
00000000
00000000
00000100
00000000
00000000
00000000
,
00000020
00000000
00000002
00000033
,
00000001
00000000
00001000
00000000
00000200
00000000
00000300
00010000
,
00001000
00000000
00000000
01000000
00000000
00000000
00010000
00000000
20000000
00000000
00000000
00000000
30000000
00000000
00010000
00000000
,
00100000
00000000
00000000
01000000
00000000
00000000
10000000
00000000
00100000
00000000
00000000
00010000
00000000
00000000
00001000
00000000
,
00000100
00000000
00000000
00001000
00000000
00000000
00010000
00000000
00000010
00000000
00000000
00000000
00000100
00000000
00000001
00001000
,
00000001
00000000
00000000
00001000
00000000
00000000
00000100
00000000
00000200
00000000
00000000
00000000
00000300
00000000
00010000
00001000
,
00010000
00000000
00000000
00001000
00000000
00000000
00010000
00000000
02000000
00000000
00000000
00000000
03000000
00000000
10000000
00000000
,
00020000
00230000
00302000
00003020
,
00000031
00000110
00001001
00000110
,
00000001
00000000
00000000
00000001
00000000
00000000
00000100
00000000
00001000
00000000
00000000
00010000
00000000
00000000
00001000
00000000
,
00000010
00000000
00000000
00000010
00000000
00000000
00000100
00000000
00010000
00000000
00000000
00001000
00000000
00000000
01000000
00000000
,
00010000
00000000
00000000
10000000
00000000
00000000
01000000
00000000
00100000
00000000
00000000
00001000
00000000
00000000
00010000
00000000
,
02000000
10000000
00100000
00010000
,
13000000
00000000
00000000
10000000
00000000
00000000
01000000
00000000
00010000
00000000
00000000
00001000
00000000
00000000
00010000
00000000
,
00100000
00000000
00000000
00100000
00000000
00000000
01000000
00000000
00001000
00000000
00000000
00010000
00000000
00000000
00000100
00000000
,
00001000
00000000
00000000
00000001
00000000
00000000
00000100
00000000
00000010
00000000
00000000
00010000
00000000
00000000
00001000
00000000
,
00000200
00000000
00000000
00000000
00000000
00000000
00000000
00000000
00000310
00000000
00000000
00001000
00000000
00000000
00000001
00000000
,
00000200
00000000
00000000
00000000
00002300
00000000
00000000
00000000
00013000
00000000
00000000
00001000
00000000
00000000
00000010
00000000
,
00000100
00000000
00000100
00000000
00010000
00000000
00001000
00000000
00100000
00010000
00000000
10000000
00000000
00000000
00000000
00000000
,
02000000
00000000
00000000
00000000
03020000
00000000
00000000
00000000
00031000
00000000
00000000
00010000
00000000
00000000
00100000
00000000
,
01000000
00000000
01000000
00000000
00001000
00000000
00010000
00000000
00000010
00001000
00000000
00000001
00000000
00000000
00000000
00000000
,
00000020
00000000
00000000
00000000
00002030
00000000
00000000
00000000
00013000
00000000
00000000
00001000
00000000
00000000
00000100
00000000
,
00000010
00000000
00000010
00000000
00010000
00000000
00001000
00000000
01000000
00010000
00000000
10000000
00000000
00000000
00000000
00000000
,
00200000
00000000
00000000
00000000
00320000
00000000
00000000
00000000
00031000
00000000
00000000
00010000
00000000
00000000
01000000
00000000
,
00100000
00000000
00100000
00000000
00001000
00000000
00010000
00000000
00000100
00000000
00000000
00000110
00000000
00000000
00000000
00000000
,
00000011
00000000
00000000
00000000
00001100
00000000
00000000
00000000
00000001
00000000
00000000
00000010
00000000
00000000
00001000
00000000
,
00010000
00000000
01000000
00000000
10000000
00000000
00010000
00000000
10000000
00100000
00000000
01000000
00000000
00000000
00000000
00000000
,
10100000
00000000
00000000
00000000
01010000
00000000
00000000
00000000
10000000
00000000
00000000
00100000
00000000
00000000
00010000
00000000
,
00001000
00000000
00000100
00000000
00000001
00000000
00000010
00000000
00000100
00000000
00000000
00000110
00000000
00000000
00000000
00000000
;

//---------------dance-double - ----------------
#NOTES:
     dance-double:
     :
     Medium:
     5:
     0.304,0.377,0.029,0.064,0.037:
00000000
00000000
00000000
00000000
,
00000000
00000000
00000000
00000000
,
00000000
00000000
00000000
00000000
,
00000000
00000000
00000000
00000000
,
00000000
00000000
00000000
00000000
,
00010000
00000000
00001000
00000000
00100000
00000000
00010000
10000000
,
01000000
00000000
00000000
00000000
00100000
00000000
00000000
00000000
00010000
00000000
00000000
01000000
00000000
00000000
00000000
00000000
,
00001000
00000000
00010000
00000000
00000010
00000000
00001000
00000001
,
00000100
00000000
00000000
00000000
00000010
00000000
00000000
00000000
00001000
00000000
00000000
00000001
00000000
00000000
00000000
00000000
,
00000100
00001000
00010000
00000000
,
01000000
00010000
00001000
00000000
,
00010000
00000000
00000000
00010000
00100000
00000000
00000000
00100000
,
10000000
00000000
00000000
10000000
00010000
00000000
10000000
00000000
,
01000000
00010000
00001000
00000000
,
00000100
00001000
00010000
00000000
,
00001000
00000000
00000000
00001000
00000010
00000000
00000000
00000010
,
00000001
00001000
00000200
00000000
,
00000310
00001000
00010000
00000000
,
00100000
00010000
00001000
00000000
,
00010000
00000000
00000000
00010000
01000000
00000000
00000000
01000000
,
10000000
00000000
00000000
10000000
00010000
00000000
10000000
00000000
,
00100000
00010000
00001000
00000000
,
00000010
00001000
00010000
00000000
,
00001000
00000100
00000001
00000010
,
00001000
00011000
00010000
00011000
,
00100000
00000000
10000000
01000000
10000000
00000000
00010000
00000000
,
00100000
00000000
00001000
00010000
00001000
00000000
00010000
00000000
,
00000100
00000000
00000010
00000001
00000010
00000000
00001000
00000000
,
00020000
00230000
00320000
00032000
,
00003010
00000000
00000001
00000100
00000001
00000000
00001000
00000000
,
00000010
00000000
00010000
00001000
00010000
00000000
00001000
00000000
,
01000000
00000000
00100000
10000000
00100000
00000000
00010000
00000000
,
00002000
00000000
00020000
00033000
,
00000100
00000000
00000010
00000000
00000001
00000000
00001000
00000100
,
00010000
00000000
00000000
00000000
00001000
00000000
00100000
00000000
00010000
00000000
00000000
10000000
00000000
00000000
00000000
00000000
,
00010000
00000000
10000000
00000000
01000000
00000000
00100000
00010000
,
00100000
00000000
00000000
00000000
00010000
00000000
00000000
00000000
10000000
00000000
00000000
00100000
00000000
00000000
00000000
00000000
,
01000000
00000000
00100000
00000000
10000000
00000000
00010000
01000000
,
00001000
00000000
00000000
00000000
00010000
00000000
00000010
00000000
00001000
00000000
00000000
00000001
00000000
00000000
00000000
00000000
,
00001000
00000000
00000001
00000000
00000100
00000000
00000010
00001000
,
00000010
00000000
00000000
00000000
00001000
00000000
00000000
00000000
00000001
00000000
00000000
00000010
00000000
00000000
00000000
00000000
,
00001000
00000000
00010000
00000000
00000100
00000000
00010000
00001000
,
00010000
00000000
00000000
00000000
00100000
00000000
01000000
00000000
00100000
00000000
00000000
00100000
00000000
00000000
00000000
00000000
,
00010000
00000000
00001000
00000000
00100000
00000000
00001000
00010000
,
00000100
00000000
00001000
00000000
00000001
00000000
00001000
00000000
00000010
00000000
00000000
00000110
00000000
00000000
00000000
00000000
;

//---------------dance-double - ----------------
#NOTES:
     dance-double:
     :
     Easy:
     3:
     0.199,0.236,0.000,0.097,0.001:
00000000
00000000
00000000
00000000
,
00000000
00000000
00000000
00000000
,
00000000
00000000
00000000
00000000
,
00000000
00000000
00000000
00000000
,
00000000
00000000
00000000
00000000
,
10000000
01000000
00100000
00000000
,
00010000
01000000
00001000
00000000
,
00010000
00001000
00000100
00000000
,
00000001
00000010
00000100
00000000
,
00020000
00000000
00000000
00030000
,
00002000
00000000
00000000
00003000
,
00100000
00000000
00010000
00000000
,
10000000
00000000
01000000
00000000
,
00010000
00000000
00010000
00000000
,
00001000
00000000
00001000
00000000
,
00000100
00000000
00000100
00000000
,
00000001
00000000
00000010
00000000
,
00002000
00000000
00000000
00003000
,
00020000
00000000
00000000
00030000
,
00000010
00000000
00001000
00000000
,
00000001
00000000
00000100
00000000
,
00001000
00000000
00001000
00000000
,
00010000
00000000
00010000
00000000
,
01000000
00000000
01000000
00000000
,
10000000
01000000
00100000
00010000
,
10000000
01000000
00010000
00000000
,
00001000
00000100
00000001
00000000
,
00000010
00000001
00000100
00000100
,
00000010
00001000
00000100
00000010
,
00000001
00000100
00001000
00000000
,
00010000
01000000
10000000
00000000
,
00100000
10000000
01000000
01000000
,
00020000
00000000
00000000
00030000
,
00001000
00100000
00010000
01000000
,
00001000
00010000
00000100
00000000
,
00010000
00000010
00001000
00000100
,
00010000
00001000
01000000
00000000
,
00010000
10000000
01000000
00100000
,
00001000
00010000
00000100
00000000
,
00001000
00000001
00000100
00000010
,
00010000
00001000
01000000
00000000
,
00100000
10000000
01000000
00010000
,
00001000
00000100
00000001
00000000
,
00000010
00000001
00000100
00001000
,
00010000
00000000
00000000
00000000
01000000
00000000
00000000
00000000
10000000
00000000
00000000
00010000
00000000
00000000
00000000
00000000
;

//---------------dance-single - ----------------
#NOTES:
     dance-single:
     :
     Challenge:
     14:
     0.556,0.757,0.244,0.346,0.432: // measure 1
0000
0000
0000
0000
,  // measure 2
0000
0000
0000
0000
,  // measure 3
0000
0000
0000
0000
,  // measure 4
0001
0000
0001
0000
1000
0000
1000
0000
1000
0000
0000
0002
0000
0000
0000
0000
,  // measure 5
0000
0000
0003
0000
0000
0000
0000
0000
1000
0001
1000
0001
1000
0000
0001
1000
,  // measure 6
0001
0000
1000
0000
0200
0000
0000
0000
0320
0000
0000
0031
0000
0000
1000
0000
,  // measure 7
0010
0000
0010
0000
0100
0000
0100
0000
0001
1000
0000
1100
0000
0000
0000
0000
,  // measure 8
2000
0000
0000
0000
3200
0000
0000
0000
0320
0000
0000
0031
0000
0000
0010
0000
,  // measure 9
0100
0000
0100
0000
1000
0000
1000
0000
0001
1000
0001
1000
0001
0000
0010
0001
,  // measure 10
2000
0000
0001
0000
0010
3000
0000
0100
,  // measure 11
2000
0000
0000
0001
0000
0000
0010
0000
3100
0000
0000
0000
0000
0000
0010
0000
,  // measure 12
2000
0000
0000
0010
0000
0000
0001
3000
0200
0000
0000
0010
0000
0000
1000
0300
,  // measure 13
0020
0000
0000
1000
0000
0000
0001
0030
0100
0000
0000
0000
0000
0000
1000
0100
,  // measure 14
0002
0000
0000
0010
0000
0000
0100
0003
2000
0000
0000
0000
0000
0000
0010
3100
,  // measure 15
0002
0000
0000
0010
0000
0000
1000
0003
0020
0000
0000
0000
0000
0000
0001
0030
,  // measure 16
0200
0000
0000
1000
0000
0000
0001
0300
0010
0000
0000
0000
0010
0000
0000
0000
,  // measure 17
1002
0000
0000
0000
1000
0000
1003
0000
2001
0000
0000
0000
0100
0000
3010
0100
,  // measure 18
0002
0000
0000
0000
1000
0000
0000
0100
0000
0000
0000
0000
1000
0000
0100
0003
,  // measure 19
0020
0000
0000
1000
0000
0000
0100
0000
0100
0000
0000
0000
0000
0000
1030
0000
,  // measure 20
0200
0000
0000
0001
0000
0000
0010
0300
0002
0000
0000
1000
0000
0000
0010
0003
,  // measure 21
0200
0000
0000
0001
0000
0000
0010
0300
1000
0000
0000
0000
0010
0000
1000
0001
,  // measure 22
0020
0000
0000
0001
0000
0000
1000
0030
2000
0000
0000
0000
0010
0000
0100
3010
,  // measure 23
0002
0000
0000
0100
0000
0000
0010
0003
0200
0000
0000
0000
0010
0000
0001
0300
,  // measure 24
0020
0000
0000
1000
0000
0000
0100
0000
0100
0000
0000
0100
0000
0000
1030
0000
,  // measure 25
1100
0000
0000
0000
0101
0000
0000
0000
1001
0000
0000
0000
0001
1000
0001
1000
,  // measure 26
0100
0000
0000
0010
0000
0000
0100
0000
0010
0000
0000
0100
0000
0000
0010
0000
,  // measure 27
0101
0000
0000
0001
0000
0000
0100
0000
1001
0000
0000
1000
0000
0000
0001
0000
,  // measure 28
1100
0000
0000
0001
0000
0000
1000
0000
0110
0000
0000
0001
0000
0000
0100
0000
,  // measure 29
1100
1100
0110
0110
,  // measure 30
0011
0000
0000
0001
0000
0000
1000
0000
0010
0000
0000
0100
0000
0000
0001
0000
,  // measure 31
1100
0000
0000
1000
0000
0000
0001
0000
0110
0000
0000
0100
0000
0000
1000
0000
,  // measure 32
0011
0000
0000
0100
0000
0000
0010
0000
0001
0000
0000
0001
0000
0000
0010
0000
,  // measure 33
0200
0000
0000
0000
0000
0000
0000
0000
0000
0000
0000
0000
0000
0000
0000
0000
0000
0000
1300
0000
0100
0000
0010
0000
0001
0000
0000
0000
0000
0000
0000
0000
0000
0110
0000
0000
0000
0000
0000
0000
0000
0000
1001
0000
0000
0000
0000
0000
,  // measure 34
0010
0000
0100
0000
0001
0000
1000
0000
0100
0010
0100
0010
0000
0100
1000
0000
,  // measure 35
0001
0000
0100
0000
0010
0000
0100
0000
0001
1000
0000
1000
0001
0000
1000
0000
,  // measure 36
0010
0000
0100
0000
0001
1000
0100
0000
1000
0001
0000
1000
0010
0000
0100
0000
,  // measure 37
0001
0000
0010
0000
0100
0010
0001
0000
1000
0010
0100
0001
1000
0010
0100
0001
,  // measure 38
1000
0000
0010
0000
1000
0100
1000
0000
0001
0010
0000
0010
0100
0000
1000
0000
,  // measure 39
0001
0000
0100
0000
0010
0100
0001
0000
0100
0010
0000
1000
0100
0000
1000
0000
,  // measure 40
0001
0010
0100
0000
0010
0001
1000
0000
0010
0100
0001
1000
0000
0100
1000
0000
,  // measure 41
0001
0100
1000
0100
0001
0100
1000
0100
0010
0100
0001
0100
0010
0001
1000
0100
,  // measure 42
0002
0000
0003
0000
2000
0000
3000
0000
0010
1000
0100
1000
0000
0010
0100
0000
,  // measure 43
0001
0000
0010
0000
0100
0000
1000
0000
0100
1000
0000
0001
0000
1000
0010
0000
,  // measure 44
0100
0000
0001
0000
1000
0000
0010
0000
0100
0001
1000
0100
0000
1000
0100
0000
,  // measure 45
1100
0000
1100
0000
0101
0000
0101
0000
0100
0010
0100
2002
0000
0000
3003
0000
;

//---------------dance-double - ----------------
#NOTES:
     dance-double:
     :
     Challenge:
     8:
     0.527,0.566,0.284,0.068,0.288:
00000000
00000000
00000000
00000000
,
00000000
00000000
00000000
00000000
,
00000000
00000000
00000000
00000000
,
00000000
00000000
00000000
00000000
,
00000000
00000000
00000000
00000000
,
00001000
00000000
00010000
00000000
00100000
00000000
00010000
00000000
00001000
00010000
00000000
00010000
00001000
00000000
00010000
00000000
,
00001000
00000000
00000100
00000000
00001000
00000000
00010000
00000000
00001000
00010000
00000000
00010000
00001000
00000000
00000100
00000000
,
00001000
00000000
00010000
00000000
01000000
00000000
00010000
00000000
00001000
00010000
00000000
00010000
00001000
00000000
00010000
00000000
,
00000010
00000000
00000010
00000000
00000100
00000000
00000001
00000000
00001000
00000100
00001000
00000100
00000010
00000000
00000001
00000000
,
00000011
00000000
00000001
00000010
00001000
00000000
00010000
00100000
,
10000000
00000000
00000000
01000000
00000000
00000000
00100000
00000000
00110000
00000000
00000000
00000000
00010000
00000000
10000000
00000000
,
10100000
00000000
00000000
00100000
00000000
00000000
00010000
00000000
00011000
00000000
00000000
00010000
00000000
00000000
00000010
00000000
,
00001010
00000000
00000000
00000001
00000000
00000000
00000010
00000000
00000100
00000000
00000000
00000000
00000000
00000000
00000100
00010000
,
00001000
00000000
00000000
00100000
00000000
00000000
00010000
00000000
02000000
00000000
00000000
00000000
03000000
00000000
10000000
01000000
,
00100000
00000000
00000000
10000000
00000000
00000000
01000000
00000000
00020000
00000000
00000000
00000000
00030000
00000000
00001000
00000000
,
00001000
00000000
00000000
00010000
00000000
00000000
00000100
00000000
00000010
00000000
00000000
00000000
00000001
00000000
00000000
00000000
,
00001002
00000000
00000000
00000000
00000000
00000000
00000010
00000000
00000020
00000000
00000000
00000000
00000033
00000000
00000010
00000100
,
00000010
00000000
00000001
00000100
00001000
00000000
00010000
01000000
,
10000000
00000000
00000000
00100000
00000000
00000000
01000000
00000000
01010000
00000000
00000000
00000000
00000000
00000000
01000000
00000000
,
01100000
00000000
00000000
00100000
00000000
00000000
10000000
00000000
11000000
00000000
00000000
01000000
00000000
00000000
00010000
00000000
,
00011000
00000000
00000000
00000010
00000000
00000000
00000100
00000000
00002000
00000000
00000000
00000000
00003000
00000000
00000000
00000000
,
00011000
00000000
00000000
00000100
00000000
00000000
00000010
00000000
00002000
00000000
00000000
00000000
00003000
00000000
00000100
00010000
,
00100000
00000000
00000000
10000000
00000000
00000000
01000000
00000000
00200000
00000000
00000000
00000000
00300000
00000000
00100000
00000000
,
00110000
00000000
00000000
00010000
00000000
00000000
10000000
00000000
01000000
00000000
00000000
00010000
00000000
00000000
00001000
00000000
,
00011000
00000110
00001001
00000110
,
00011000
00000000
00000000
00010000
01000000
00000000
10000000
00000000
00100000
00000000
00000000
00100000
00010000
00000000
00001000
00000000
,
00000100
00000000
00000000
00000100
00000001
00000000
00000010
00000000
00001000
00000000
00000000
00001000
00010000
00000000
00001000
00000000
,
00000010
00000000
00000000
00000010
00000001
00000000
00000100
00000000
00001000
00000000
00000000
00001000
00010000
00000000
01000000
00000000
,
10010000
01100000
00011000
00000110
,
00001001
00000000
00000000
00000001
00000010
00000000
00001000
00000000
00010000
00000000
00000000
00010000
01000000
00000000
10000000
00000000
,
10010000
00000000
00000000
10000000
00100000
00000000
00010000
00000000
00011000
00000000
00000000
00001000
00000100
00000000
00000001
00000000
,
00001001
00000000
00000000
00000001
00000010
00000000
00000100
00000000
00001000
00000000
00000000
00001000
00000100
00000000
00010000
00000000
,
00022000
00000000
00000000
00000000
00000000
00000000
00033000
00000000
00011000
00000000
01000000
00010000
00000000
10000000
01000000
00000000
,
10000000
00000000
00100000
00000000
01000000
00000000
00001000
00000000
00010000
00000100
00000000
00000100
00001000
00000000
00000010
00000000
,
00000100
00000000
00000100
00000000
00000001
00000000
00000010
00000000
00001000
00010000
00000000
00010000
00001000
00000000
00100000
00000000
,
01000000
00000000
10000000
00000000
00100000
00000000
00010000
00000000
00001000
00010000
00000000
00010000
00000010
00000000
00000100
00000000
,
00000001
00000000
00000001
00000000
00000010
00000000
00000100
00000000
00010000
00001000
00000000
00001000
00100000
00010000
01000000
00100000
,
10000000
00000000
01000000
00000000
00010000
00000000
01000000
00000000
00100000
00001000
00000000
00001000
00010000
00000000
00000010
00000000
,
00000100
00000000
00000001
00000000
00000010
00000000
00000001
00000000
00001000
00000010
00000000
00000010
00000100
00000000
00001000
00000000
,
00010000
00000000
01000000
00000000
10000000
00000000
01000000
00000000
00100000
00010000
00000000
00010000
01000000
00000000
10000000
00000000
,
01000000
00000000
00100000
00000000
10000000
00000000
01000000
00000000
00010000
00001000
00010000
00001000
00010000
00000100
00010000
00000100
,
00001000
00000000
00000001
00000000
00000011
00000000
00000000
00000000
00000001
00000010
00000000
00000100
00000010
00000000
00000001
00000000
,
00000100
00000000
00000100
00000000
00001000
00000000
00010000
00000000
01000000
00100000
00000000
01000000
10000000
00000000
00100000
00000000
,
01000000
00000000
01000000
00000000
00010000
00000000
00100000
00000000
00001000
00010000
00000000
00000010
00001000
00000000
00000001
00000000
,
00000010
00000000
00001000
00000000
00000010
00000000
00000100
00000000
00010000
00000000
00000000
00011000
00000000
00000000
00000000
00000000
;

//---------------dance-single - ----------------
#NOTES:
     dance-single:
     :
     Hard:
     11:
     0.463,0.521,0.225,0.234,0.254:
0000
0000
0000
0000
,
0000
0000
0000
0000
,
0000
0000
0000
0000
,
1000
0000
1000
0000
0001
0000
0001
0000
0001
0000
0000
2000
0000
0000
0000
0000
,
0000
0000
3000
0000
0000
0000
0000
0000
1000
0100
1000
0100
1000
0000
0001
0010
,
0001
0000
0000
0000
0020
0000
0000
0000
0230
0000
0000
1300
0000
0000
0001
0000
,
0100
0000
0100
0000
0010
0000
0010
0000
1000
0001
0000
0100
0000
0000
0000
0000
,
0002
0000
0000
0000
0023
0000
0000
0000
0230
0000
0000
1300
0000
0000
0100
0000
,
0010
0000
0010
0000
0001
0000
0001
0000
1000
0001
1000
0001
0000
0000
0000
0000
,
0002
0000
1000
0000
0100
0003
0000
0001
,
2000
0000
0000
0001
0000
0000
0100
0000
3100
0000
0000
0000
0000
0000
0100
0000
,
0010
0000
0000
0100
0000
0000
1000
0000
0010
0000
0000
0100
0000
0000
0001
0000
,
0100
0000
0000
0001
0000
0000
1000
0000
0020
0000
0000
0000
0030
0000
1000
0010
,
1000
0000
0000
0100
0000
0000
0010
0000
0011
0000
0000
0000
0000
0000
0001
0010
,
0001
0000
0000
0100
0000
0000
0001
0000
0101
0000
0000
0000
0000
0000
0010
0000
,
1010
0000
0000
0001
0000
0000
1000
0000
0100
0000
0000
0000
0100
0000
0000
0000
,
1001
0000
0000
0000
0001
0000
0100
0000
1001
0000
0000
0000
0001
0000
1000
0001
,
2000
0000
0000
0000
3001
0000
0000
0020
0000
0000
0030
0000
0001
0000
0010
0000
,
0100
0000
0000
1000
0000
0000
0010
0000
0200
0000
0000
0000
0300
0000
0001
0000
,
0011
0000
0000
0100
0000
0000
0100
0000
1100
0000
0000
0001
0000
0000
0100
0000
,
0110
0000
0000
1000
0000
0000
0100
0000
0002
0000
0000
0000
0103
0000
1000
0001
,
1000
0000
0000
1000
0000
0000
0100
0000
0110
0000
0000
0000
0100
0000
0010
0100
,
0010
0000
0000
0001
0000
0000
0100
0000
0110
0000
0000
0000
0100
0000
1000
0000
,
0200
0000
0000
0010
0000
0000
0010
0000
0010
0000
0000
0010
0000
0000
0001
0300
,
0011
0000
1010
0000
1001
0000
1000
1000
,
0010
0000
0000
0100
0000
0000
0010
0000
0100
0000
0000
0010
0000
0000
0100
0000
,
0010
0000
0000
1000
0000
0000
0010
0000
1000
0000
0000
0001
0000
0000
1000
0000
,
0001
0000
0000
1000
0000
0000
0001
0000
0010
0000
0000
0100
0000
0000
1000
0000
,
1010
1010
0101
0101
,
1001
0000
0000
1000
0000
0000
0001
0000
0100
0000
0000
0010
0000
0000
1000
0000
,
0001
0000
0000
1000
0000
0000
0001
0000
0010
0000
0000
0010
0000
0000
0001
0000
,
0100
0000
0000
0010
0000
0000
0100
0000
1000
0000
0000
1000
0000
0000
0100
0000
,
0020
0000
0000
0000
0000
0000
0000
0000
0000
0000
0000
0000
0000
0000
0000
0000
0000
0000
0031
0000
1000
0000
0001
0000
1000
0000
0000
0000
0000
0000
0000
0000
0000
0110
0000
0000
0000
0000
0000
0000
0000
0000
1001
0000
0000
0000
0000
0000
,
0010
0000
0100
0000
0002
0000
0000
0000
1003
0000
0000
0100
0000
0000
1000
0000
,
0001
0000
0100
0000
0010
0000
0100
0000
0001
1000
0000
1100
0000
0000
0000
0000
,
0002
0000
0000
0000
0023
0000
0000
0000
0230
0000
0000
1300
0000
0000
0100
0000
,
0010
0000
0001
0000
0100
0000
0010
0000
0100
0001
0000
1000
0001
1000
0001
1000
,
0002
0000
0000
0000
0023
0000
0000
0000
0230
0000
0000
1300
0000
0000
0100
0000
,
0010
0000
0001
0000
0100
0000
1000
0000
0001
0010
0000
1010
0000
0000
0000
0000
,
2000
0000
0000
0000
3020
0000
0000
0000
0230
0000
0000
1300
0000
0000
0100
0000
,
0001
0000
0001
0000
0001
0000
0001
0000
0100
0010
0000
1000
0000
0100
0010
0100
,
0020
0000
0000
0000
0032
0000
0000
0000
2003
0000
0000
3001
0000
0000
1000
0000
,
1000
0000
0100
0000
0010
0000
0001
0000
0010
0100
0000
0110
0000
0000
0000
0000
,
0002
0000
0000
0000
0203
0000
0000
0000
0320
0000
0000
1030
0000
0000
0001
0000
,
1000
0000
1000
0000
0001
0000
0001
0000
1000
0000
0010
0200
0000
0000
0000
0300
;
