#TITLE:99;
#SUBTITLE:Mob Psycho 100 Opening 1;
#ARTIST:Mob Choir;
#TITLETRANSLIT:;
#SUBTITLETRANSLIT:;
#ARTISTTRANSLIT:;
#GENRE:;
#CREDIT:Magna Trick;
#BANNER:99BN.jpg;
#BACKGROUND:99BG.jpg;
#LYRICSPATH:;
#CDTITLE:Magna Trick title!.png;
#MUSIC:99.mp3;
#OFFSET:-0.029000;
#SAMPLESTART:74.599998;
#SAMPLELENGTH:14.000000;
#SELECTABLE:YES;
#BPMS:0.000000=189.880005
;
#STOPS:
;
#BGCHANGES:0.083=99.avi=1.000=0=0=1=====,
281.500=99BG.jpg=1.000=0=0=1=====,
99999=-nosongbg-=1.000=0=0=0 // don't automatically add -songbackground-
;
#KEYSOUNDS:;
#ATTACKS:;

//---------------dance-single - ----------------
#NOTES:
     dance-single:
     :
     Hard:
     14:
     0.576688,0.802323,0.209586,0.072900,0.104793,443.000000,420.000000,23.000000,8.000000,0.000000,0.000000,0.576688,0.802323,0.209586,0.072900,0.104793,443.000000,420.000000,23.000000,8.000000,0.000000,0.000000:
0000
0000
0001
0000
,
1000
0000
0100
0000
,
0010
0000
0000
0001
0000
1000
0000
0010
,
0000
0100
0000
0010
0000
1000
0000
0001
,
0000
0010
0001
0010
0000
0001
0000
1000
,
0000
0010
1000
0010
0000
1000
0000
0001
,
0000
1000
0100
0001
0000
0001
0100
1000
,
0000
1000
0010
0001
0000
0001
0010
1000
,
0000
1000
0100
0002
0000
0000
0000
0000
,
0100
0003
0000
0110
0000
0000
0000
0000
,
0020
0000
0000
0000
0130
0100
0100
0000
,
0001
0000
1000
0000
,
0100
0000
0000
0000
0010
0010
0010
0000
,
0001
0000
0000
0000
1000
0001
1000
0001
,
1000
0000
0010
0100
0001
1000
0000
0000
,
0001
0010
0000
0000
0100
1000
0000
0000
,
0010
1000
0000
0000
0001
0100
0000
0000
,
0001
0010
0000
0000
0010
0001
1000
0010
,
0100
0001
0100
0100
0100
0010
1000
1000
,
1000
0001
0010
0010
0010
1000
0001
0001
,
0001
0100
1000
1000
1000
0001
0001
0010
,
0100
0010
0001
1000
0010
0100
0001
1000
,
0010
0000
0100
0100
0100
0001
0010
0010
,
0010
0100
1000
1000
1000
0001
0100
0100
,
0100
0010
1000
0001
0001
1000
0100
0010
,
0001
0010
0100
1000
0001
0100
0010
1000
,
0001
0000
1000
1000
1000
0010
0100
0100
,
0100
0001
0010
0010
0010
0100
1000
1000
,
1000
0001
0100
0100
0100
0010
1000
0100
,
0010
0001
0010
0100
1000
0010
0001
1000
,
0100
0000
0010
0010
0010
1000
0100
0100
,
0100
0010
0001
0001
0001
1000
0010
0010
,
0010
0100
0001
0001
1000
0010
1000
0100
,
0010
0001
0010
0100
1000
0001
0100
0010
,
1000
0001
1000
1001
,
0001
1001
1000
1001
,
1001
0110
0001
1001
,
1000
1001
1000
0110
,
0110
1001
0001
1001
,
1000
1001
0001
1001
,
1001
1001
0001
1001
,
1000
1001
0110
1001
,
0110
0001
0000
1000
0000
0010
0000
1000
,
0000
0100
0000
0010
0000
0001
0000
1000
,
0000
0001
1000
0010
0000
0100
0000
0001
,
0000
0100
0001
0100
0000
0010
0000
1000
,
0000
0001
0100
1000
0000
1000
0100
0001
,
0000
0001
0010
1000
0000
1000
0010
0001
,
0000
0001
1000
0010
0200
0000
0301
0000
,
0020
0000
0000
0230
0000
0000
1000
0300
,
0001
1000
0001
0000
0001
1000
0010
0100
,
0001
0100
0010
0100
0001
0100
0010
1000
,
0100
0010
0100
1000
0100
0010
0001
1000
,
0010
0100
0010
1000
0010
0100
0001
1000
,
0001
0001
1000
0100
0000
0001
0100
1000
,
0000
1000
0010
0001
0000
0001
0010
1000
,
0000
1000
0001
0020
0000
0000
0000
0030
,
0200
0000
0000
1300
1001
0000
0000
0000
,
0001
0000
1000
0000
0001
0000
1000
0000
0001
0000
1000
0000
0001
0000
0000
0001
0000
0000
0001
0000
0000
0100
0000
0000
,
0010
0010
0010
0100
0001
0001
0001
1000
,
0100
0100
0100
0010
1000
1000
1000
0010
,
0100
0100
0100
1000
0001
0001
1000
1000
,
0010
0010
0100
0100
0001
0001
0001
0001
,
1000
1000
1000
1000
0010
0010
0010
0010
,
0100
0100
0100
0100
0001
0001
0001
0001
,
1000
1000
1000
1000
0100
0100
0010
0010
,
0001
0000
0000
0001
0000
0000
1000
0000
0000
1000
0000
0000
0001
0000
1000
0000
0100
0000
0001
0000
1000
0000
0010
0000
,
0001
1000
0010
0001
1000
0100
0010
1000
0100
0010
1000
0010
,
0001
0100
1000
0001
0010
1000
0100
0000
1000
0000
0001
0000
,
0100
0000
0000
0000
0000
0000
0000
0010
0000
0000
0000
0000
0000
0000
0000
1001
0000
0000
0000
0000
0000
0000
0000
0000
,
0100
0000
0000
0000
0000
0000
0020
0030
0000
0000
0000
0000
0000
0000
0000
0000
;

//---------------dance-single - ----------------
#NOTES:
     dance-single:
     :
     Challenge:
     17:
     0.738108,0.866508,0.209586,0.282486,0.460179,567.000000,544.000000,23.000000,31.000000,0.000000,0.000000,0.738108,0.866508,0.209586,0.282486,0.460179,567.000000,544.000000,23.000000,31.000000,0.000000,0.000000:
// measure 0
0000
0000
0000
0000
0000
0000
0000
0000
1000
0100
1000
0100
0010
0000
0000
0000
,  // measure 1
0001
0010
0001
0010
0100
1000
0001
0010
0100
1000
0001
0010
0100
1000
0010
0100
,  // measure 2
0001
0000
0000
1000
0200
0301
0000
0100
,  // measure 3
2000
3010
0000
0100
0020
0031
0000
1000
,  // measure 4
0002
0013
1000
0100
0020
1030
0000
0001
,  // measure 5
2000
3010
0001
0100
0020
0031
0010
1000
,  // measure 6
0200
0310
0001
0100
0020
1030
0010
0001
,  // measure 7
2000
3001
0010
1000
0002
1003
0100
0001
,  // measure 8
2000
3001
0100
2000
0002
0003
0000
0000
,  // measure 9
0002
3003
0000
0110
0020
0030
0000
0000
,  // measure 10
0200
0010
0000
0320
1000
1000
1000
0000
,  // measure 11
1000
0000
0001
0000
,  // measure 12
0100
0000
0000
0000
0001
0001
0001
0000
,  // measure 13
0100
0000
0000
0030
0001
0010
1000
0100
,  // measure 14
0010
0001
0100
0010
1001
0001
0000
0000
,  // measure 15
1100
0100
0000
0000
0011
0010
0000
0000
,  // measure 16
0101
0001
0000
0000
1010
1000
0000
0000
,  // measure 17
0110
0010
0000
0000
1001
1000
0001
0100
,  // measure 18
0010
0000
1000
0000
0010
1000
0010
1000
0010
0000
0100
0000
0001
1000
0001
0000
,  // measure 19
0001
0000
1000
0000
0100
0010
0100
0000
0100
0000
0001
0000
1000
0010
1000
0000
,  // measure 20
1000
0000
0010
0000
0001
0010
0001
0000
0001
0010
0100
0010
0001
0000
1000
0000
,  // measure 21
0010
0100
0001
0100
0010
0000
1000
0000
0100
0000
0010
0001
1000
0000
0010
0000
,  // measure 22
0100
0000
0000
0000
0010
1000
0010
0000
0010
0000
1000
0000
0100
1000
0100
0000
,  // measure 23
0100
0000
0010
0000
0001
1000
0001
0000
0001
0000
0010
0000
0100
1000
0100
0000
,  // measure 24
0100
0000
0010
0000
0001
1000
0001
0000
1000
0000
0010
0000
0100
0000
0001
1000
,  // measure 25
0001
0000
0100
0000
0010
0000
1000
0100
1000
0000
0010
0000
0100
0000
0001
0000
,  // measure 26
1000
0000
0000
0000
0001
0100
0001
0000
0001
0000
0100
0000
0010
1000
0010
0000
,  // measure 27
0010
0000
1000
0000
0100
1000
0100
0000
0100
0000
0010
0000
0001
1000
0001
0000
,  // measure 28
0001
0000
1000
0000
0010
0100
0010
0000
0010
0100
0001
0100
0001
0000
0010
0000
,  // measure 29
0100
0000
1000
0000
0100
0010
0001
0000
1000
0000
0100
0000
1000
0000
0001
0010
,  // measure 30
0100
0000
0000
0000
1000
0001
1000
0000
1000
0000
0001
0000
0100
0001
0100
0000
,  // measure 31
0100
0000
0010
0000
1000
0001
1000
0000
1000
0000
0001
0000
0010
0100
0010
0000
,  // measure 32
0010
0000
0100
0000
1000
0001
1000
0000
0001
0000
0010
0000
0100
0000
1000
0100
,  // measure 33
0010
0000
0001
0000
0010
0000
0100
1000
0001
0000
0100
0010
1000
0000
0100
0010
,  // measure 34
0001
0000
0100
0010
1000
0000
0001
0000
0100
0000
0000
0000
1001
0000
0000
0000
,  // measure 35
0010
0100
0000
0000
0000
0000
0001
1000
0000
0000
0000
0000
0100
0000
0000
0000
0000
0000
0010
0001
0000
0000
0000
0000
,  // measure 36
1000
0100
0000
0000
0000
0000
0110
0000
0000
0000
0000
0000
1000
0000
0000
0000
0000
0001
1000
0000
0000
0000
0000
0000
,  // measure 37
0001
0000
0000
0000
0000
0010
0100
0000
0000
0000
0000
0000
1000
0000
0000
0000
0000
0000
0110
0000
0000
0000
0000
0000
,  // measure 38
0110
0010
0010
0010
1010
1000
0100
1000
,  // measure 39
0001
0100
0001
1000
0010
1000
0101
0010
,  // measure 40
0101
1000
0101
0010
0100
0010
1001
0100
,  // measure 41
0001
0000
0010
0000
1001
0000
1000
0000
1001
0000
0001
1000
0001
0000
0100
0000
,  // measure 42
0110
1000
0000
0002
0000
0103
0000
0002
,  // measure 43
0000
0013
0000
0200
0000
1300
0000
0001
,  // measure 44
0000
1000
0001
0200
0000
0310
0000
1000
,  // measure 45
0000
0010
1000
0020
0000
0230
0000
0302
,  // measure 46
0000
1003
0010
0001
0000
0001
0010
1000
,  // measure 47
0000
1000
0100
0001
0000
0001
0100
1000
,  // measure 48
0000
1000
0001
0100
0020
0000
1030
0000
,  // measure 49
0200
0010
0000
0320
0000
0001
0001
0030
,  // measure 50
1000
0001
1000
0000
1000
0001
0100
0010
,  // measure 51
1000
0010
0100
0010
1000
0010
0100
0001
,  // measure 52
0010
0000
0100
1000
0100
0000
1001
0000
0010
0000
0100
0000
1000
0000
0001
0000
,  // measure 53
0100
0010
0100
0001
0100
0010
1000
0001
,  // measure 54
1000
1000
0001
0010
0000
1000
0010
0001
,  // measure 55
0000
0001
0100
1000
0000
1000
0100
0001
,  // measure 56
0000
0001
1000
0200
0000
0000
0000
0300
,  // measure 57
0020
0000
0000
0031
1001
0000
0000
0000
,  // measure 58
1000
0000
0000
0000
0100
0000
0000
0000
1000
0000
0000
0000
0001
0000
0000
0000
0010
0000
0000
0000
0001
0000
0000
0000
1000
0000
0000
0010
0000
0000
1000
0000
0000
0000
0000
0000
1000
0000
0000
0000
0000
0000
0010
0000
0000
0000
0000
0000
,  // measure 59
0100
0001
0100
0000
0100
0000
0010
0000
1000
0001
1000
0000
1000
0000
0001
0000
,  // measure 60
0010
0100
0010
0000
0010
0000
0100
0000
0001
1000
0001
0000
0001
0000
0100
0000
,  // measure 61
0010
0001
0010
0000
0010
0000
0001
0000
1000
0001
1000
0010
0100
0001
0100
0010
,  // measure 62
1000
0001
1000
0100
0010
0001
0010
0100
1000
0000
1000
0000
1000
0001
1000
0000
,  // measure 63
0001
0000
0001
0000
0001
1000
0001
0000
0100
0000
0100
0000
0100
0010
0100
0000
,  // measure 64
0010
0000
0010
0000
0010
0100
0010
0000
1000
0000
1000
0000
1000
0001
1000
0000
,  // measure 65
0001
0000
0001
0000
0001
1000
0001
0000
0010
0000
0010
0000
0100
0010
0100
0000
,  // measure 66
1000
0000
0000
0001
0000
0000
1000
0000
0000
0000
0000
0000
0001
0000
0000
1000
0000
0000
0001
0000
0000
0000
0000
0000
1000
0000
0000
0000
0001
0000
0000
0000
0010
0000
0000
0000
1000
0000
0000
0000
0001
0000
0000
0000
0100
0000
0000
0000
,  // measure 67
1000
0001
0100
1000
0001
0010
0100
0001
0010
0100
0001
0100
,  // measure 68
1000
0010
0001
1000
0100
0001
0010
0000
0001
0000
1000
0000
,  // measure 69
0010
0000
0000
0000
0000
0000
0000
0100
0000
0000
0000
0000
0000
0000
0000
1001
0000
0000
0000
0000
0000
0000
0000
0000
,  // measure 70
0010
0000
0000
0000
0000
0000
0200
0300
0000
0000
0000
0000
0000
0000
0000
0000
;

//---------------dance-single - ----------------
#NOTES:
     dance-single:
     :
     Medium:
     10:
     0.419173,0.514853,0.400948,0.100237,0.000000,322.000000,278.000000,44.000000,11.000000,0.000000,0.000000,0.419173,0.514853,0.400948,0.100237,0.000000,322.000000,278.000000,44.000000,11.000000,0.000000,0.000000:
0000
0000
0001
0000
,
1000
0000
0001
0000
,
1000
0000
0000
0100
0000
0100
0000
0010
,
0000
0010
0000
0100
0000
1000
0000
0001
,
0000
0100
0010
0100
0000
0010
0000
0010
,
0000
0100
0010
0100
0000
0001
0000
0001
,
0000
1000
0001
1000
0000
0001
1000
0001
,
0000
1000
0001
1000
0000
0001
1000
0001
,
0000
1000
0010
0200
0000
0000
0000
0000
,
0302
0000
0000
2003
0000
0000
3000
0000
,
0001
1000
0000
0000
1001
0000
0000
0000
,
1010
0000
0101
0000
,
0011
0000
1100
0000
,
1001
0000
0000
0000
0001
1000
0001
1000
,
0001
0000
1000
0010
1000
0010
0000
0000
,
0001
0100
0000
0000
0010
1000
0000
0000
,
0100
1000
0000
0000
0001
0010
0000
0000
,
0100
0010
0000
0000
0001
1000
0010
0100
,
0001
0000
1000
0100
1000
0000
0001
0010
,
0001
0000
1000
0010
1000
0000
0001
0100
,
0001
0000
1000
0100
1000
0000
0001
0000
,
0010
0100
1000
0010
,
0100
0000
0001
0100
0001
0000
0010
0001
,
0010
0000
1000
0010
1000
0000
0100
1000
,
0100
0000
0001
1000
0001
0000
1000
0000
,
0010
0000
0100
0000
0001
1000
0001
1000
,
0001
0000
1000
0100
0001
0000
0001
0100
,
1000
0000
1000
0010
0001
0000
0001
0010
,
1000
0000
1000
0100
0001
0000
0001
0000
,
0100
1000
0001
1000
,
0010
0000
0100
0001
1000
0000
0100
1000
,
0001
0000
0010
0001
1000
0000
0010
1000
,
0001
0000
0100
0001
1000
0000
0100
0000
,
1000
0001
0010
0100
,
1000
0001
0100
0110
,
0010
0110
0100
1001
,
1001
1001
0010
0110
,
0100
0110
0010
1001
,
1001
1001
0010
0110
,
0100
0110
0010
1001
,
1001
1001
0010
0110
,
0100
0110
1001
1001
,
1001
0000
0000
0010
0000
1000
0000
0001
,
0000
0010
0000
0100
0000
1000
0000
0001
,
0000
0100
0001
0100
0000
0010
0000
1000
,
0000
0001
0010
0001
0000
1000
0000
0100
,
0000
1000
0100
1000
0000
0001
0010
0001
,
0000
1000
0010
1000
0000
0001
0100
0001
,
0000
1000
0100
2000
0000
0000
0000
0000
,
0001
0000
0000
0020
0000
0000
0000
0000
,
0000
3030
0000
0001
0000
0001
0000
1000
,
0000
1000
0000
0010
0000
0100
0000
0001
,
0000
1000
0001
1000
0000
0100
0000
0010
,
0000
0001
0010
0001
0000
0010
0000
0100
,
0000
1000
0100
1000
0000
0001
0010
0001
,
0000
1000
0010
1000
0000
0001
0100
0001
,
0000
1000
0100
2000
0000
0000
0000
0000
,
3200
0000
0000
0020
0000
0000
0000
0330
,
0002
0000
0000
0003
1001
0000
0000
0000
,
1001
0000
1010
0000
,
0101
0000
0011
0000
,
1100
0000
0110
0110
,
1001
0010
0110
0000
,
1001
0000
0011
0000
,
1100
0000
1010
0000
,
0101
0000
1001
1000
,
0110
0010
2002
0000
,
0000
0000
0000
0000
,
0000
0000
0000
0000
,
0000
0000
0000
0000
,
0000
0000
0000
0000
0000
3003
0000
0000
;

//---------------dance-single - ----------------
#NOTES:
     dance-single:
     :
     Easy:
     8:
     0.355385,0.514853,0.628759,0.082012,0.000000,273.000000,204.000000,69.000000,9.000000,0.000000,0.000000,0.355385,0.514853,0.628759,0.082012,0.000000,273.000000,204.000000,69.000000,9.000000,0.000000,0.000000:
0000
0000
0001
0000
,
1000
0000
0001
0000
,
1000
0000
0001
0000
,
0010
0000
0100
0000
,
1000
0000
0010
0000
,
0100
0000
0001
0000
,
0010
0000
0100
0000
,
0100
0000
1000
0000
,
1000
0000
0001
0000
,
0100
0000
0110
0000
,
0000
0000
1010
0000
,
0101
0000
0011
0000
,
1100
0000
0110
0000
,
1001
0000
0011
0011
,
1100
1010
0101
0000
,
1001
0000
1100
0000
,
0011
0000
0101
0000
,
1010
0000
1001
1000
,
0010
0100
1001
0010
,
1001
0010
1001
0100
,
1001
0100
1001
0010
,
1000
0010
1000
0010
,
1000
0100
1001
0100
,
1001
0010
1001
0100
,
1001
0010
1001
0010
,
1000
0010
1000
0010
,
1000
1001
0100
1001
,
0100
1001
0010
1001
,
0010
1001
0010
1000
,
0010
1000
0010
2000
,
3010
1100
0001
1100
,
0001
1100
0001
1100
,
0001
1100
0001
1000
,
0001
1000
0001
1000
,
0001
1000
0001
0101
,
0001
1001
1000
0101
,
0101
0101
0001
1001
,
0001
0101
0001
1001
,
1001
1001
0001
0101
,
0001
1001
0001
0101
,
0101
0101
0001
1001
,
0001
0101
1001
0101
,
1001
0000
0000
0010
0000
1000
0000
0001
,
0000
1000
0000
0010
0000
1000
0000
0001
,
0000
1000
0000
0001
0000
0010
0000
0001
,
0000
1000
0000
0001
0000
0100
0000
0010
,
0000
0100
0000
0001
0000
0001
0000
1000
,
0000
1000
0000
0100
0000
0100
0000
0010
,
0000
0010
0000
0002
0000
0000
0000
0003
,
2000
0000
0000
3020
0000
0000
0000
0000
,
0000
0030
0000
0100
0000
0100
0000
0010
,
0000
0010
0000
1000
0000
0001
0000
0100
,
0000
0000
0000
0001
0000
0001
0000
0010
,
0000
0010
0000
0100
0000
1000
0000
0001
,
0000
0000
0000
0100
0000
0000
0000
0010
,
0000
0000
0000
0100
0000
0000
0000
0001
,
0000
0000
0000
2000
0000
0000
0000
0000
,
3002
0000
0000
0203
0000
0000
0000
0300
,
0010
0000
0010
0000
,
1000
0000
0001
0000
,
0001
0000
0010
0000
,
0100
0000
1000
0001
,
0100
0010
1001
0000
,
1010
0000
0101
0000
,
0011
0000
1100
0000
,
0110
0000
1001
1010
,
0101
0011
2200
0000
,
0000
0000
0000
0000
,
0000
0000
0000
0000
,
0000
0000
0000
0000
,
0000
0000
0000
0000
0000
3300
0000
0000
;
