#TITLE:You Baby;
#SUBTITLE:;
#ARTIST:The Turtles;
#TITLETRANSLIT:;
#SUBTITLETRANSLIT:;
#ARTISTTRANSLIT:;
#GENRE:;
#CREDIT:;
#BANNER:you baby-banner.png;
#BACKGROUND:you baby-bg.png;
#LYRICSPATH:;
#CDTITLE:;
#MUSIC:The Turtles - You Baby (ddr edit).mp3;
#OFFSET:-0.043000;
#SAMPLESTART:49.600001;
#SAMPLELENGTH:14.70000;
#SELECTABLE:YES;
#DISPLAYBPM:134.000000;
#BPMS:0.000000=141.309494
,5.000000=144.057602
,7.000000=136.054398
,9.000000=132.964005
,13.000000=136.054398
,15.000000=135.135101
,17.000000=136.363602
,20.000000=140.625000
,21.500000=144.462296
,23.000000=136.415298
,29.000000=133.958496
,39.000000=135.059097
,43.000000=133.111496
,47.000000=133.136093
,50.000000=139.426804
,56.000000=134.529099
,59.000000=136.157303
,62.000000=135.977295
,66.000000=139.157303
,72.000000=132.304306
,76.000000=133.206497
,83.000000=137.247406
,89.000000=132.450302
,93.000000=132.596695
,99.000000=132.911407
,102.500000=137.404602
,104.000000=135.938797
,112.000000=134.340897
,120.000000=134.649902
,125.000000=134.501694
,136.000000=132.743393
,137.500000=139.751602
,139.000000=131.004395
,141.500000=135.699402
,148.000000=139.049805
,150.000000=131.348495
,155.000000=132.061600
,158.000000=134.529099
,159.000000=128.755402
,162.000000=137.885803
,165.500000=132.275101
,173.000000=131.052094
,179.000000=133.481598
,185.000000=132.401596
,191.000000=127.768311
,193.500000=134.529099
;
#STOPS:
;
#BGCHANGES:3.500=you baby.avi=1.000=1=1=1=StretchRewind==CrossFade==,
99999=-nosongbg-=1.000=0=0=0 // don't automatically add -songbackground-
;
#KEYSOUNDS:;
#ATTACKS:;

//---------------dance-single - ----------------
#NOTES:
     dance-single:
     :
     Hard:
     8:
     0.559398,0.569272,0.432622,0.055464,0.127568,353.000000,314.000000,39.000000,5.000000,0.000000,0.000000,0.559398,0.569272,0.432622,0.055464,0.127568,353.000000,314.000000,39.000000,5.000000,0.000000,0.000000:
// measure 0
0000
0000
0000
0000
,  // measure 1
0000
0000
0000
0000
0000
1000
0010
0100
,  // measure 2
1001
0000
1000
0010
1000
0000
1010
0000
,  // measure 3
0100
0001
0000
0200
0000
0000
0301
0000
,  // measure 4
1010
0000
0010
0100
0001
0000
1000
0000
,  // measure 5
0010
0100
0000
0020
0000
0000
1030
1000
,  // measure 6
0001
0100
0010
1000
0100
0000
0010
0001
,  // measure 7
0010
0100
1000
0001
1000
0010
0100
0000
,  // measure 8
0000
0002
0000
0000
1000
1000
0003
0000
,  // measure 9
1010
0010
0100
0001
0100
0100
0100
0000
,  // measure 10
0010
1000
0100
0010
0001
0100
0001
1000
,  // measure 11
0010
0100
0001
0010
0001
0000
1000
0100
,  // measure 12
0000
2000
0000
0000
0001
0001
3000
0000
,  // measure 13
0010
0000
0100
0000
0000
0000
0110
0000
0000
0000
0010
1000
0010
0100
0010
0000
,  // measure 14
1000
0100
1000
0000
0001
0100
0001
0001
,  // measure 15
0100
0000
1010
0000
0100
0001
0010
0100
,  // measure 16
1000
0000
0010
0000
0100
0000
0001
0000
0100
0000
0010
0000
1000
0000
0000
0001
,  // measure 17
1000
0000
0010
0000
0100
0000
0010
0000
1000
0100
1000
0000
0010
0100
0001
0100
,  // measure 18
0010
0000
1000
0000
0100
1000
0001
0000
,  // measure 19
1000
0000
1010
0000
0010
0100
0001
0010
,  // measure 20
1000
0010
0001
0000
0100
0010
1000
0000
,  // measure 21
1100
0000
1001
0000
0101
0000
1001
0000
0000
0000
0100
0010
1000
0100
1000
0000
,  // measure 22
0010
0000
0100
0001
0100
0000
0010
1000
,  // measure 23
0010
0000
0100
0010
1000
0000
0001
0001
,  // measure 24
0100
0010
1000
0100
0010
0000
1001
0000
,  // measure 25
1010
0000
1100
0000
1001
0000
0101
0000
0000
0000
0100
0010
0100
0000
0010
0000
,  // measure 26
1000
0000
1000
0000
1000
0000
0000
0010
0100
0000
0100
0000
0100
0000
0001
0000
,  // measure 27
0010
0000
0000
0000
0100
0000
0000
1000
0100
0010
0100
0000
1000
0000
1000
0000
,  // measure 28
1000
0000
0010
0000
0100
0000
0000
0010
0100
0000
0001
0000
0100
0000
0010
0000
,  // measure 29
0100
0000
1000
0000
0100
0000
0000
0010
1000
0000
0100
0000
0001
0000
0100
0000
,  // measure 30
1000
0000
0000
0000
0010
0000
0000
0100
0001
0000
1000
0000
0010
0000
0000
0000
,  // measure 31
0100
0000
0000
0000
0001
0000
0000
1000
0100
0000
1000
0000
0010
0000
0100
0000
,  // measure 32
0101
0000
0000
0000
1010
0000
0000
0010
0100
0000
0001
0000
1000
0000
0010
0000
,  // measure 33
0100
0000
0000
0000
0001
0000
0000
1000
0100
0000
1000
0000
0010
0000
1000
0000
,  // measure 34
1001
0000
0010
0110
0000
0000
0100
0000
,  // measure 35
1001
0000
0100
0101
0000
0010
0001
0010
,  // measure 36
1000
0001
0100
1000
0001
0100
1000
0100
,  // measure 37
0001
0010
0001
0010
0100
1000
0100
1000
0001
0000
0000
0000
1010
0000
0100
0000
,  // measure 38
0100
0000
0011
0100
0100
0000
1000
0010
,  // measure 39
0100
0000
0001
0100
0001
1000
0100
0100
,  // measure 40
0010
0000
0100
0000
0101
1001
1010
1001
,  // measure 41
0000
0000
0010
0100
0010
0000
1000
0000
0001
0000
0000
0000
0100
0000
0100
0000
,  // measure 42
1001
0000
0010
1000
1100
0000
0100
0010
,  // measure 43
0011
0000
0010
0100
1000
0001
0100
1000
,  // measure 44
0100
0010
1000
0000
1100
1001
0101
1001
,  // measure 45
0000
0000
0000
0000
2000
0000
0001
3001
,  // measure 46
0100
0000
0010
1000
0100
0001
0100
0010
,  // measure 47
1000
0000
0001
0100
1000
0100
0001
0010
,  // measure 48
0001
0100
1000
0000
1100
1001
0101
1001
;

//---------------dance-single - ----------------
#NOTES:
     dance-single:
     :
     Medium:
     5:
     0.377158,0.406623,0.122022,0.099836,0.000000,238.000000,227.000000,11.000000,9.000000,0.000000,0.000000,0.377158,0.406623,0.122022,0.099836,0.000000,238.000000,227.000000,11.000000,9.000000,0.000000,0.000000:
// measure 0
0000
0000
0000
0000
,  // measure 1
0000
0000
0000
0000
,  // measure 2
1001
0000
1000
0010
1000
0000
0010
0000
,  // measure 3
1000
0001
1000
0200
0000
0000
1300
0000
,  // measure 4
0001
0000
0100
0001
0100
0000
0100
0000
,  // measure 5
0010
0100
0010
0020
0000
0000
1030
0000
,  // measure 6
0001
0100
0001
0000
1000
0100
1000
0000
,  // measure 7
0010
0100
0001
0000
0100
0000
0100
0000
,  // measure 8
0000
0002
0000
0000
1000
0000
1003
0000
,  // measure 9
0010
0010
0100
0100
,  // measure 10
0010
0100
0010
0000
1000
0100
1000
0000
,  // measure 11
0010
0000
0100
0000
0001
1000
0100
0000
,  // measure 12
0000
2000
0000
0000
0001
0000
3100
0000
,  // measure 13
1000
1000
0000
0010
0000
0000
0000
0000
,  // measure 14
1000
1000
0001
0001
,  // measure 15
0100
0001
0100
0000
0010
1000
0010
0000
,  // measure 16
1000
0000
0100
0000
1000
0010
0100
0000
,  // measure 17
0001
0010
0001
0010
0100
1000
0100
1000
,  // measure 18
0200
1000
1300
0010
,  // measure 19
1000
0000
0001
0000
0010
0100
1000
0000
,  // measure 20
0001
0010
0001
0000
0100
0010
1000
0000
,  // measure 21
0001
0001
0001
0001
0000
0000
0110
0000
,  // measure 22
0110
0100
0001
0010
,  // measure 23
0001
1000
0100
0000
1000
0001
0010
0000
,  // measure 24
0001
0010
0001
0100
0010
0000
1000
0000
,  // measure 25
1000
1000
1000
1000
0000
0000
0000
0000
,  // measure 26
1000
0000
1000
0000
0010
0010
0010
0000
,  // measure 27
0100
0000
0100
0000
0001
0001
0001
0000
,  // measure 28
1000
0000
1000
0000
0010
1000
0010
0000
,  // measure 29
0100
0000
0100
0000
0001
0010
0001
1000
,  // measure 30
0100
0000
0010
0000
0001
0001
0001
0000
,  // measure 31
1000
0000
1000
0000
0010
0010
0010
0000
,  // measure 32
0100
0000
0100
0000
0001
0001
0001
0000
,  // measure 33
0100
0000
0100
0000
0010
0010
0010
0000
,  // measure 34
1001
0000
0010
0010
0000
0000
0100
0000
,  // measure 35
1001
0000
0100
0100
0000
0000
0001
0000
,  // measure 36
0100
0010
1000
0000
,  // measure 37
1000
0100
1000
0001
0010
0000
1010
0000
,  // measure 38
0101
0000
0001
0010
0001
0000
1100
0000
,  // measure 39
0100
1000
0100
0000
0011
0000
0100
0000
,  // measure 40
0010
0000
0100
0000
0001
0001
0001
0001
,  // measure 41
0000
0000
1001
0100
,  // measure 42
1001
0010
1000
0100
,  // measure 43
0010
0000
0001
0000
1000
0100
1000
0000
,  // measure 44
0001
0100
0001
0000
1000
1000
1000
1000
,  // measure 45
0000
0000
0000
0000
2000
0000
0001
3000
,  // measure 46
0002
0000
1000
0003
0200
0000
0001
0300
,  // measure 47
0020
0000
1000
0030
1000
0100
1000
0000
,  // measure 48
0001
0000
0001
0000
0100
0100
0100
0100
;

//---------------dance-single - ----------------
#NOTES:
     dance-single:
     :
     Easy:
     3:
     0.171147,0.243350,0.110929,0.133114,0.000000,108.000000,98.000000,10.000000,12.000000,0.000000,0.000000,0.171147,0.243350,0.110929,0.133114,0.000000,108.000000,98.000000,10.000000,12.000000,0.000000,0.000000:
// measure 0
0000
0000
0000
0000
,  // measure 1
0000
0000
0000
0000
,  // measure 2
1001
0000
1001
0000
,  // measure 3
0100
0100
0100
0000
,  // measure 4
0101
0000
0101
0000
,  // measure 5
0010
0000
0000
0010
0000
0000
0000
0000
,  // measure 6
0100
0000
0100
0000
,  // measure 7
1000
1000
1000
0000
,  // measure 8
0000
0100
0000
0000
1000
0000
0000
0000
,  // measure 9
0010
0000
0010
0000
,  // measure 10
0010
0010
0010
0000
,  // measure 11
0100
0100
0100
0000
,  // measure 12
0000
0001
0000
0000
1000
0000
0000
0000
,  // measure 13
0000
0000
0000
0000
,  // measure 14
2000
0000
0001
0000
,  // measure 15
3020
0000
1000
0000
,  // measure 16
0230
0000
0001
0000
,  // measure 17
0301
0001
0001
0001
,  // measure 18
0002
0000
0000
0000
,  // measure 19
0203
0000
0000
0000
,  // measure 20
0302
0000
0000
0000
,  // measure 21
0103
0100
0100
0100
,  // measure 22
0100
0000
0000
0000
,  // measure 23
2000
0000
3002
0000
,  // measure 24
0203
0000
0000
0000
,  // measure 25
0310
0010
0010
0010
,  // measure 26
0100
0100
0000
0000
,  // measure 27
0001
0001
0000
0000
,  // measure 28
1000
1000
0000
0000
,  // measure 29
0010
0010
0000
0000
,  // measure 30
0100
0100
0000
0000
,  // measure 31
0001
0001
0000
0000
,  // measure 32
1000
1000
1000
1000
,  // measure 33
0010
0000
0010
0000
,  // measure 34
1000
0000
0000
1000
0000
0000
0000
0000
,  // measure 35
0001
0000
0000
0002
0000
0000
0000
0000
,  // measure 36
2003
0000
0000
0000
,  // measure 37
3020
0000
0130
0000
,  // measure 38
0100
0000
0001
0000
,  // measure 39
1000
0000
0010
0010
,  // measure 40
0000
0000
1000
1000
,  // measure 41
1000
0000
0110
0000
,  // measure 42
0000
0000
1001
0000
,  // measure 43
0000
0000
0001
0001
,  // measure 44
0000
0000
1000
1000
,  // measure 45
1000
0000
0110
0000
,  // measure 46
0000
0000
0110
0000
,  // measure 47
0110
0000
0110
0000
,  // measure 48
1000
0000
0001
0001
;
