#TITLE:一個人的精彩;
#SUBTITLE:;
#ARTIST:蕭亞軒;
#TITLETRANSLIT:Yi Ge Ren de Jing Cai;
#SUBTITLETRANSLIT:;
#ARTISTTRANSLIT:Elva Hsiao;
#GENRE:;
#CREDIT:;
#BANNER:yi ge ren-banner.jpg;
#BACKGROUND:yi ge ren-bg.jpg;
#LYRICSPATH:;
#CDTITLE:;
#MUSIC:yi ge ren (sm edit).mp3;
#SAMPLESTART:91.000;
#SAMPLELENGTH:16.000;
#SELECTABLE:YES;
#OFFSET:1.4217;
#BPMS:0.0=126.9170,
37.0=126.9170,
69.0=127.0250,
92.0=126.8633,
112.0=126.8722,
124.0=126.7829,
129.0=127.0161,
150.0=126.8946,
162.0=126.9673,
178.0=127.0289,
187.0=126.8781,
206.0=127.0697,
217.0=126.9394,
241.0=126.8184,
258.0=126.8499,
269.0=126.9841;
#STOPS:128.000=1.420
;
#BGCHANGES:2.500=yi ge ren.avi=1.000=1=0=1=StretchRewind==CrossFade==,
288.000=yi ge ren-bg.jpg=1.000=0=0=1===CrossFade==,
99999=-nosongbg-=1.000=0=0=0 // don't automatically add -songbackground-
;
#KEYSOUNDS:;

//---------------dance-single - Blank----------------
#NOTES:
     dance-single:
     Blank:
     Beginner:
     1:
     0.126,0.153,0.107,0.021,0.000,105.000,15.000,3.000,0.000,0.000,0.000,0.126,0.153,0.107,0.021,0.000,105.000,15.000,3.000,0.000,0.000,0.000:
0000
0000
0000
0000
,
0000
0000
0000
0000
,
0000
0000
0000
0000
,
0000
0000
0000
0000
,
0000
0000
0000
0000
,
1000
0000
0100
0000
,
0010
0000
0000
0000
,
0010
0000
0100
0000
,
1000
0000
0000
0000
,
0001
0000
0100
0000
,
0010
0000
0000
0000
,
1000
0000
0100
0000
,
1000
0000
0000
0000
,
1010
0000
0000
0000
,
0101
0000
0000
0000
,
1010
0000
0000
0000
,
1000
0000
1000
0000
,
1000
0000
0000
0000
,
0011
0000
1100
0000
,
0011
0000
0000
0000
,
0001
0000
0001
0000
,
1001
0000
0100
0000
,
0001
0000
0100
0000
,
0001
0000
1000
0000
,
0001
0001
1000
0000
,
1000
0000
0010
0000
,
0010
0000
1000
0000
,
2000
0000
0000
0000
,
3001
0000
0000
0000
,
1000
0000
0000
0000
,
0001
0000
0000
0000
,
0100
0000
0000
0000
,
0001
0100
0000
0001
,
0000
0100
0000
0000
,
0000
0010
0000
1000
,
0000
0001
0000
0000
,
0000
0100
0000
0001
,
0000
0100
0000
0000
,
0000
0010
0000
1000
,
0000
0100
0000
0000
,
0000
1010
0000
0000
,
0000
1100
0000
0000
,
0000
0101
0000
0000
,
0000
1000
0000
0100
,
0000
1000
0000
0000
,
0000
1100
0000
0110
,
0000
0011
0000
0000
,
0000
0100
0000
0100
,
0000
0101
0000
0010
,
0000
0100
0000
1000
,
0000
0010
0000
0100
,
0000
0001
0001
0001
,
0000
1000
0000
0001
,
0000
0010
0000
0100
,
0000
2000
0000
0000
,
0000
3100
0000
0000
,
0000
0010
0010
0010
,
0000
0001
0000
1000
,
0000
0100
0100
0100
,
0000
1000
0000
0001
,
0000
1000
1000
1000
,
0000
0010
0000
0010
,
0000
1000
0000
0000
,
0000
0100
0000
1000
,
0000
1100
0000
0000
,
0000
0100
0000
0000
,
0000
0010
0000
0000
,
0000
0001
0000
0000
,
0000
0100
0000
0000
,
0000
0010
0000
0000
,
0000
0200
0000
0000
,
0000
0300
0000
0000
;

//---------------dance-single - Blank----------------
#NOTES:
     dance-single:
     Blank:
     Easy:
     3:
     0.200,0.204,0.079,0.014,0.000,183.000,11.000,2.000,0.000,0.000,0.000,0.200,0.204,0.079,0.014,0.000,183.000,11.000,2.000,0.000,0.000,0.000: // measure 1
0000
0000
0000
0000
,  // measure 2
0000
0000
0000
0000
,  // measure 3
0000
0000
0000
0000
,  // measure 4
0000
0000
0000
0000
,  // measure 5
0000
0000
0000
0000
,  // measure 6
1001
0000
0001
0100
,  // measure 7
0010
0000
0100
0010
,  // measure 8
1000
0000
0100
1000
,  // measure 9
0100
0010
0001
0100
,  // measure 10
0010
0000
1000
0000
,  // measure 11
0001
0000
0100
0010
,  // measure 12
1000
0000
0001
0000
,  // measure 13
0100
0000
0010
0010
,  // measure 14
1000
0000
0000
0010
,  // measure 15
0010
0000
1000
0100
,  // measure 16
1000
0000
0000
0000
,  // measure 17
1000
0100
1000
0100
,  // measure 18
1000
0000
0000
0001
,  // measure 19
0001
0000
1000
0000
,  // measure 20
0010
0000
0000
0000
,  // measure 21
0001
0000
0100
0000
0010
0100
0010
0000
,  // measure 22
1000
1000
0100
0000
,  // measure 23
0010
0001
0010
0000
,  // measure 24
0001
0001
1000
0000
,  // measure 25
0100
1000
0100
0000
,  // measure 26
1000
1000
0010
0010
,  // measure 27
0100
0100
0001
0000
,  // measure 28
1000
0000
0000
0000
,  // measure 29
0001
0100
0010
1000
,  // measure 30
0100
0000
1000
0000
,  // measure 31
1001
0000
0000
0010
0000
0000
0000
0000
,  // measure 32
1010
0000
0100
0000
,  // measure 33
0101
0001
0000
1000
,  // measure 34
0100
1000
0000
0010
,  // measure 35
1000
0100
0000
0010
,  // measure 36
0001
0100
0010
0100
,  // measure 37
0010
1000
0000
0001
,  // measure 38
0100
0001
0000
1000
,  // measure 39
1000
0100
0000
0010
,  // measure 40
0001
0100
0010
1000
,  // measure 41
1000
1001
0000
0000
,  // measure 42
0010
0010
0000
0100
,  // measure 43
0010
1000
0000
0000
,  // measure 44
0000
0001
0100
0001
,  // measure 45
0100
0001
0000
0000
,  // measure 46
1000
1000
0000
0100
,  // measure 47
0010
0001
0000
0000
,  // measure 48
0000
0000
1000
0000
0010
0000
1000
0010
,  // measure 49
1000
0001
0001
0100
,  // measure 50
0100
0010
1000
0100
,  // measure 51
0000
0010
0010
0001
,  // measure 52
0001
0100
0010
1000
,  // measure 53
0000
0100
0100
0010
,  // measure 54
0010
0001
1000
0100
,  // measure 55
0000
1000
0000
0000
,  // measure 56
0000
0100
1000
0010
,  // measure 57
0100
0001
0001
1000
,  // measure 58
1000
0010
0100
0001
,  // measure 59
0000
0100
0100
0010
,  // measure 60
0010
1000
0100
1000
,  // measure 61
0000
0100
0100
0010
,  // measure 62
0010
0001
1000
0100
,  // measure 63
0000
1100
0000
0000
,  // measure 64
0000
0010
0001
1000
,  // measure 65
0100
0110
0000
0000
,  // measure 66
0000
1100
0000
0000
,  // measure 67
0000
0101
0000
0000
,  // measure 68
0000
1000
0100
0010
,  // measure 69
0001
1001
0000
0000
,  // measure 70
0000
0001
0000
0000
,  // measure 71
0000
0220
0000
0000
,  // measure 72
0000
0330
0000
0000
;

//---------------dance-single - Blank----------------
#NOTES:
     dance-single:
     Blank:
     Hard:
     7:
     0.435,0.459,0.387,0.029,0.000,367.000,54.000,4.000,0.000,1.000,0.000,0.435,0.459,0.387,0.029,0.000,367.000,54.000,4.000,0.000,1.000,0.000: // measure 1
0000
0000
0000
0000
,  // measure 2
0000
0000
0000
0000
,  // measure 3
0000
0000
0000
0000
,  // measure 4
0000
0000
0000
0000
,  // measure 5
0000
0000
0000
0000
,  // measure 6
1001
0000
0100
0000
0010
0000
0000
1000
,  // measure 7
1000
0000
0011
0100
0000
0100
0110
0000
,  // measure 8
1001
0000
0001
0000
0100
0000
0000
0001
,  // measure 9
0010
0000
0000
0010
0000
0100
1100
0001
,  // measure 10
0001
0000
1000
0000
0010
0000
0000
0010
,  // measure 11
0010
0000
1001
0100
0000
0100
0110
0000
,  // measure 12
1001
0000
0001
0000
0100
0000
0000
0001
,  // measure 13
1000
0000
0000
0010
0000
0100
0101
1000
,  // measure 14
1000
0000
0100
0000
0010
0001
0010
0100
,  // measure 15
0100
0000
1000
0100
0000
1001
0000
0100
,  // measure 16
0010
0000
1000
0000
0001
0100
0001
1000
,  // measure 17
1000
0000
0010
1000
0000
0101
0000
1000
,  // measure 18
0100
0000
0010
0000
1000
0010
0001
0100
,  // measure 19
1000
0000
0000
0100
0001
0100
0000
0010
,  // measure 20
1000
0000
0011
0000
0100
0010
1000
0000
,  // measure 21
0010
0000
0001
0000
0100
0001
0100
0000
,  // measure 22
0001
0010
0001
0000
0001
0000
1000
0100
,  // measure 23
0000
0100
1000
0000
0010
0010
0010
0000
,  // measure 24
1000
0100
1000
0000
1000
0000
0010
1000
,  // measure 25
0000
1000
0010
0010
0100
0000
1001
0000
,  // measure 26
0110
0010
0010
0000
1000
0000
0001
0100
,  // measure 27
0000
0100
0010
0000
1000
1000
1000
0000
,  // measure 28
0100
0000
0100
0000
0001
0100
1000
0010
,  // measure 29
0001
0000
0010
0100
0000
0100
0001
1000
,  // measure 30
0100
0100
1000
0001
0010
0010
0100
0100
,  // measure 31
1000
0001
0010
1000
0010
0010
0001
0100
,  // measure 32
0010
0010
1000
0001
1000
2000
0100
0200
,  // measure 33
3310
1100
0100
0010
,  // measure 34
0000
0001
1100
0000
1010
0010
0000
0100
,  // measure 35
0110
1010
0100
1000
,  // measure 36
0000
0001
0101
0000
0101
1000
0000
1000
,  // measure 37
0011
0001
0001
0000
0001
0000
0100
0000
,  // measure 38
0000
0010
1100
0000
0011
0100
0000
0001
,  // measure 39
1001
1001
0001
0100
,  // measure 40
0000
1000
0010
0000
0000
0010
0000
0100
,  // measure 41
0101
1000
1000
0000
0100
0000
0001
0100
,  // measure 42
0010
0110
1000
0000
0001
0100
0000
1001
,  // measure 43
0000
0010
0100
0000
1000
0000
0010
0100
,  // measure 44
0001
1010
0010
0000
1000
0001
0000
0101
,  // measure 45
0000
0010
0100
0000
1000
0000
0010
0100
,  // measure 46
0101
0001
0010
0000
0000
0100
1000
0100
,  // measure 47
0000
0010
0100
0000
1100
0000
0010
0001
,  // measure 48
1001
0010
0010
0000
1000
0000
0001
0010
,  // measure 49
1000
0000
0011
0010
0110
0000
0100
0000
,  // measure 50
0010
0100
0000
0100
0001
0100
1100
1000
,  // measure 51
1000
0000
0010
0100
0001
0000
0010
0000
,  // measure 52
0010
0001
0000
0001
0100
0110
0100
0000
,  // measure 53
1001
0000
0101
0001
0001
0000
0010
0000
,  // measure 54
0100
1000
0000
1000
0010
0100
0101
0001
,  // measure 55
0001
0000
0010
0000
0001
0000
1000
0100
,  // measure 56
0001
1000
0010
0000
0010
0100
0000
0100
,  // measure 57
1000
0010
0100
1000
0100
0001
0010
1000
,  // measure 58
0001
0100
1000
0010
0001
0010
1000
1100
,  // measure 59
0011
0000
1000
0100
1000
0100
0010
0001
,  // measure 60
0100
1000
0100
0010
0001
0010
1010
0010
,  // measure 61
0010
0000
0100
0001
1000
1000
0010
0010
,  // measure 62
0100
0010
1000
0100
0100
0001
0001
1000
,  // measure 63
0010
0000
0001
0010
0001
0000
1000
1000
,  // measure 64
0100
0000
0010
0001
0100
0010
1000
0100
,  // measure 65
0001
0100
1000
0000
0011
0000
0100
0010
,  // measure 66
1000
0010
0011
0000
0100
0010
0000
0010
,  // measure 67
1010
1000
1000
0000
0001
0100
0000
0100
,  // measure 68
0010
1000
1100
0000
0011
0000
0101
0000
,  // measure 69
1010
0000
1001
0000
1000
0100
0000
0001
,  // measure 70
0000
0000
1001
0000
0100
0010
0000
1000
,  // measure 71
0000
2002
0000
0000
,  // measure 72
0000
3003
0000
0000
;

//---------------dance-single - Blank----------------
#NOTES:
     dance-single:
     Blank:
     Medium:
     5:
     0.339,0.332,0.157,0.029,0.000,305.000,22.000,4.000,0.000,0.000,0.000,0.339,0.332,0.157,0.029,0.000,305.000,22.000,4.000,0.000,0.000,0.000: // measure 1
0000
0000
0000
0000
,  // measure 2
0000
0000
0000
0000
,  // measure 3
0000
0000
0000
0000
,  // measure 4
0000
0000
0000
0000
,  // measure 5
0000
0000
0000
0000
,  // measure 6
1001
0000
1000
0000
0100
0000
0010
0001
,  // measure 7
0001
0000
1000
0100
0000
0100
1000
0000
,  // measure 8
0010
0000
0100
0000
0001
0000
0001
0010
,  // measure 9
0010
0000
0010
0100
0000
0100
0000
0100
,  // measure 10
0010
0000
0001
0000
1000
0000
0100
1000
,  // measure 11
1000
0000
0001
0010
0000
0010
0001
0000
,  // measure 12
0100
0000
0010
0000
0100
0000
0001
1000
,  // measure 13
1000
0000
0100
1000
0000
0001
0000
0010
,  // measure 14
0001
0000
1100
0000
0100
0000
1000
0010
,  // measure 15
0010
0000
0100
0001
0000
0001
0100
0000
,  // measure 16
1001
0000
1000
1000
1000
0000
0010
0100
,  // measure 17
0100
0000
0001
0000
1000
0100
1000
0000
,  // measure 18
0010
0000
0101
0000
1000
0000
0100
1000
,  // measure 19
1000
0000
0001
0010
0000
0010
0001
0000
,  // measure 20
0101
0000
0010
0010
0010
0000
1000
0100
,  // measure 21
0100
0000
1000
0000
0010
1000
0010
0000
,  // measure 22
0100
0100
0001
0000
0001
0000
1000
0100
,  // measure 23
0000
0010
0001
0000
1001
0000
0000
0000
,  // measure 24
1000
1000
0001
0000
0001
0000
0001
0100
,  // measure 25
0000
0010
1000
0000
1100
0000
0000
0000
,  // measure 26
0010
0010
0001
0000
0001
0000
1000
0100
,  // measure 27
0000
0100
1000
0000
0010
0000
0010
0000
,  // measure 28
2000
0000
0000
0000
3000
0000
0000
0010
,  // measure 29
1000
0000
0010
1000
0000
0001
0100
0100
,  // measure 30
0010
0000
1001
0000
0100
0000
0010
0100
,  // measure 31
0100
0000
0010
1000
0000
0010
1000
0000
,  // measure 32
0010
0000
0101
0000
0010
0000
1000
0001
,  // measure 33
0001
0100
0010
1000
,  // measure 34
0010
0100
0000
0000
0001
0000
0001
0000
,  // measure 35
1000
0100
0000
0000
1000
0000
0001
0000
,  // measure 36
1000
0100
0000
0010
0000
0100
0000
1000
,  // measure 37
0001
0100
0001
0001
,  // measure 38
1000
0100
0000
0000
0010
0000
0010
0000
,  // measure 39
0001
0100
0000
0000
0010
0000
1000
0000
,  // measure 40
1000
1100
0000
1001
0000
0110
0000
0101
,  // measure 41
0000
0000
1001
0000
0000
0000
0000
1000
,  // measure 42
0100
1000
0100
0000
0000
0100
0010
0001
,  // measure 43
0000
1000
0000
0000
0000
0000
0000
0000
,  // measure 44
0000
0010
0100
0000
0001
0010
0000
0100
,  // measure 45
0000
1000
0000
0000
0000
0000
0000
0001
,  // measure 46
1000
0010
0001
0000
0000
0010
1000
0100
,  // measure 47
0000
0010
0000
0000
0000
0000
0000
0000
,  // measure 48
0000
0000
0001
0000
1000
0000
0100
0010
,  // measure 49
0001
0000
0001
0001
0010
0000
0010
0000
,  // measure 50
0001
1000
0000
0100
0010
0000
0011
0000
,  // measure 51
0000
0000
1000
1000
0010
0000
0010
0000
,  // measure 52
0010
0001
0000
0010
1000
0000
1001
0000
,  // measure 53
0000
0000
0100
0100
1000
0000
1000
0000
,  // measure 54
1000
0001
0000
0001
1000
0100
0000
0000
,  // measure 55
0100
0020
0000
0030
,  // measure 56
0000
0100
1000
0000
0100
1000
0000
0010
,  // measure 57
0100
0100
1000
0100
0100
0000
0001
0000
,  // measure 58
0010
0100
0010
0000
0010
0001
0000
1000
,  // measure 59
0001
0000
0010
0010
0001
0000
1000
0000
,  // measure 60
1000
0001
0000
0010
0001
1000
1000
1000
,  // measure 61
1000
0000
0001
0001
0001
0000
0100
0000
,  // measure 62
0010
1000
1000
0000
0010
0100
0000
0010
,  // measure 63
0100
0000
0001
0000
0001
0000
0010
1000
,  // measure 64
0010
0010
0010
0000
0100
1000
0000
0001
,  // measure 65
0010
0001
1000
0000
0010
0000
0100
0001
,  // measure 66
0100
0010
0010
0000
1000
0100
0000
1000
,  // measure 67
0100
0000
0010
0000
0001
0000
1000
0100
,  // measure 68
1000
1100
1001
0011
,  // measure 69
0110
0000
1001
0000
0001
0010
0000
0001
,  // measure 70
0000
0000
0000
0000
1000
0100
0000
1000
,  // measure 71
0000
2002
0000
0000
,  // measure 72
0000
3003
0000
0000
;
