#TITLE:幸福的地圖;
#SUBTITLE:舞曲版;
#ARTIST:蕭亞軒;
#TITLETRANSLIT:Xingfu de Ditu;
#SUBTITLETRANSLIT:Dance Remix;
#ARTISTTRANSLIT:El♡a Hsaio;
#GENRE:;
#CREDIT:;
#BANNER:xingfu-banner.png;
#BACKGROUND:xingfu-bg.png;
#LYRICSPATH:;
#CDTITLE:;
#MUSIC:xingfu de ditu (dwi edit).mp3;
#OFFSET:-0.022000;
#SAMPLESTART:63.6;
#SAMPLELENGTH:14.200000;
#SELECTABLE:YES;
#BPMS:0.000000=134.000000
;
#STOPS:
;
#BGCHANGES:0.000=xingfu.avi=1.000=1=0=0=StretchNoLoop==CrossFade==,
99999=-nosongbg-=1.000=0=0=0 // don't automatically add -songbackground-
;
#KEYSOUNDS:;
#ATTACKS:;

//---------------dance-single - ----------------
#NOTES:
     dance-single:
     :
     Easy:
     3:
     0.252591,0.290893,0.216191,0.030884,0.000000,229.000000,201.000000,28.000000,4.000000,0.000000,0.000000,0.252591,0.290893,0.216191,0.030884,0.000000,229.000000,201.000000,28.000000,4.000000,0.000000,0.000000:
// measure 0
0000
0000
0000
0000
,  // measure 1
0000
0000
0000
0000
,  // measure 2
0000
0000
0000
0000
,  // measure 3
0000
0000
1000
0001
,  // measure 4
0011
0000
0001
0100
,  // measure 5
1100
0000
1000
0100
,  // measure 6
0101
0000
0100
0010
,  // measure 7
0011
0000
0010
1000
,  // measure 8
1100
0000
0001
0000
,  // measure 9
1000
0001
1000
0000
,  // measure 10
0001
0000
1000
0001
,  // measure 11
0011
0000
1000
0001
,  // measure 12
0011
0000
0010
0100
,  // measure 13
1100
0000
1000
0001
,  // measure 14
0011
0000
1000
0001
,  // measure 15
0101
0000
0100
0001
,  // measure 16
0010
0000
0001
0000
,  // measure 17
0001
1000
0100
1000
,  // measure 18
1010
0000
0010
0001
,  // measure 19
0010
0100
0000
1000
0100
0000
1000
0000
,  // measure 20
0001
1000
0001
1000
,  // measure 21
0001
1000
0010
0100
,  // measure 22
0010
0000
1000
0001
,  // measure 23
1000
0000
0001
1000
,  // measure 24
0001
0000
1000
0001
,  // measure 25
0010
0100
0010
0100
,  // measure 26
1000
0000
0001
1000
,  // measure 27
0001
0000
0000
0000
,  // measure 28
1000
0001
0010
0100
,  // measure 29
1000
0001
1000
0001
,  // measure 30
1000
0001
0100
1000
,  // measure 31
0001
0000
0010
0100
,  // measure 32
0010
0100
0010
1000
,  // measure 33
0001
1000
0010
0100
,  // measure 34
1000
0000
0001
1000
,  // measure 35
0001
0000
0001
0010
,  // measure 36
0110
0000
0100
0010
,  // measure 37
1010
0000
1000
0001
,  // measure 38
0011
0000
0001
1000
,  // measure 39
1001
0000
0001
0010
,  // measure 40
1010
0000
1000
0000
,  // measure 41
0001
0010
1000
0000
,  // measure 42
0100
0000
0010
0010
,  // measure 43
1001
0000
1000
0001
,  // measure 44
0101
0000
1000
0100
,  // measure 45
1100
0000
1000
0001
,  // measure 46
0011
0000
0010
0001
,  // measure 47
0101
0000
0010
1000
,  // measure 48
0001
0000
0001
0000
,  // measure 49
0100
0001
0100
0010
,  // measure 50
1001
0000
0100
0001
,  // measure 51
0001
0010
0000
0100
1000
0000
0010
0000
,  // measure 52
1000
0100
1000
0100
,  // measure 53
1000
0000
0000
0000
,  // measure 54
0001
0010
0001
0010
,  // measure 55
0001
0000
0000
0000
,  // measure 56
1000
0100
0010
0001
,  // measure 57
1000
0100
0010
0001
,  // measure 58
1000
0001
1000
0001
,  // measure 59
0100
0010
0100
0010
,  // measure 60
0200
0000
0000
0000
0000
0000
0000
0300
,  // measure 61
0010
0010
0010
0010
,  // measure 62
0020
0000
0000
0000
0000
0000
0000
0030
,  // measure 63
1000
0000
0000
0000
,  // measure 64
1100
0101
0011
1010
,  // measure 65
1001
0000
0000
0000
,  // measure 66
1000
0100
1000
0100
,  // measure 67
0010
0001
0010
0001
,  // measure 68
2002
0000
3003
0000
;

//---------------dance-single - ----------------
#NOTES:
     dance-single:
     :
     Hard:
     8:
     0.486430,0.608231,0.370613,0.015442,0.104235,441.000000,393.000000,48.000000,2.000000,0.000000,0.000000,0.486430,0.608231,0.370613,0.015442,0.104235,441.000000,393.000000,48.000000,2.000000,0.000000,0.000000:
// measure 0
0000
0000
0000
0000
,  // measure 1
0000
0000
0000
0000
,  // measure 2
0000
0000
0000
0000
,  // measure 3
0000
0000
1100
0101
,  // measure 4
1001
0000
0000
1000
0100
0001
0100
1000
,  // measure 5
0010
0000
1000
0100
0100
0010
0001
0000
,  // measure 6
1000
0000
0000
1000
0010
0100
0001
1000
,  // measure 7
0010
0000
0000
0000
1000
0000
0001
0010
,  // measure 8
0000
1000
0010
1000
0010
0001
0000
0000
,  // measure 9
0011
0101
0110
1010
,  // measure 10
1100
0000
0000
1000
0001
1000
0000
0001
,  // measure 11
0000
0000
0000
0000
1000
0000
1000
0000
0001
0000
0001
0000
1000
0100
1000
0001
,  // measure 12
0010
0000
0000
0100
0010
0001
0010
1000
,  // measure 13
0010
0000
0100
1000
1000
0001
0100
0000
,  // measure 14
0010
0000
0000
0100
0010
1000
0010
0001
,  // measure 15
0010
0000
0100
0010
,  // measure 16
0001
0000
0010
1000
0000
0001
0100
0001
,  // measure 17
0011
0000
0101
0110
0000
0000
1010
0000
,  // measure 18
1100
0000
0000
0000
0010
0100
1000
0001
,  // measure 19
0000
0001
0000
0001
0010
0001
0100
0001
,  // measure 20
1000
0000
0000
0010
0001
0000
0010
0000
1000
0010
1000
0000
0100
0000
0000
0000
,  // measure 21
1000
0000
0000
0001
1000
0000
0000
0000
0001
0100
0001
0000
0010
0000
0000
0000
,  // measure 22
0100
0000
1000
0000
0010
0000
0000
0000
0010
1000
0100
0000
0010
0000
0000
0000
,  // measure 23
0001
0000
0000
0010
0001
0000
0000
0000
0100
0010
0000
0100
0010
0000
1000
0000
,  // measure 24
0001
0000
0000
0100
0001
0000
0000
0000
0100
0001
0100
0000
0010
0000
0000
0000
,  // measure 25
1000
0000
0000
0010
1000
0000
0000
0000
0100
0010
0100
0000
1000
0000
0000
0000
,  // measure 26
0001
0000
0000
0100
0001
0000
0000
0000
1000
0000
0010
0000
0100
0000
0000
0000
,  // measure 27
0001
0000
0000
0100
0010
0000
0000
0000
1000
0000
0100
0000
0001
0000
0100
0000
,  // measure 28
0010
1000
0001
0100
1000
0001
0100
0010
,  // measure 29
0001
1000
0100
0010
1000
0100
0001
0000
,  // measure 30
0001
0100
0000
0100
0000
0100
0000
1000
,  // measure 31
0000
0000
0000
0000
1000
0001
0000
0000
,  // measure 32
1000
0100
1000
0100
0010
0001
0010
0001
,  // measure 33
1000
0100
0010
0001
0010
1000
0001
0100
,  // measure 34
1000
0000
0000
0000
1000
1100
0000
0011
,  // measure 35
0000
0000
1001
0110
,  // measure 36
1001
1000
0010
0001
0010
0100
1000
0001
,  // measure 37
0010
0000
0110
1001
,  // measure 38
0110
0010
1000
0100
0001
1000
0010
0001
,  // measure 39
0010
0000
0000
0000
1000
0000
1000
0100
,  // measure 40
0000
0100
0010
0001
0100
1000
0000
0000
,  // measure 41
1010
1100
0110
0011
,  // measure 42
0101
0100
0010
1000
0010
0100
0010
0000
,  // measure 43
1010
0000
0000
0000
0101
0000
0000
0100
0010
0000
0100
0000
1000
0100
0001
0010
,  // measure 44
1000
0010
0001
0100
1000
0100
1000
0100
,  // measure 45
0010
0000
1100
0110
,  // measure 46
0101
0001
1000
0010
0100
0001
1000
0010
,  // measure 47
0100
0000
1000
0010
,  // measure 48
0100
0000
0001
0010
0000
0001
1000
0010
,  // measure 49
1010
0000
1100
0110
0000
0000
0011
0000
,  // measure 50
0101
0001
1000
0010
1000
0001
0100
1000
,  // measure 51
0100
0010
1000
0001
0100
0010
1000
0001
,  // measure 52
0100
0000
0001
0000
1000
0100
0000
0010
,  // measure 53
0001
1000
0100
0001
0100
1000
0010
0001
,  // measure 54
0010
0000
1000
0000
0100
1000
0000
0010
,  // measure 55
0100
0001
0010
1000
0010
0001
0010
0100
,  // measure 56
1000
0000
0001
0000
0100
0010
0000
1000
,  // measure 57
0000
0001
0000
0100
0000
0010
0000
1000
,  // measure 58
0001
0010
0001
1000
0100
1000
0010
0100
,  // measure 59
1100
0000
0000
0001
0010
0000
0000
0100
1000
0000
0010
0000
1000
0100
1000
0000
,  // measure 60
1100
0000
0000
0010
0100
0001
1000
0010
,  // measure 61
0110
0000
0100
0001
0001
0010
0001
0000
,  // measure 62
0101
0000
0000
0001
1000
0010
1000
0100
,  // measure 63
0001
0000
1000
0000
0010
0001
0100
0010
,  // measure 64
1010
0110
0101
0011
,  // measure 65
1001
0001
0100
0010
1000
0010
0100
0001
,  // measure 66
1000
0100
0000
1000
0100
0000
0010
0000
0001
0100
0000
0001
0100
0000
0010
0000
,  // measure 67
1010
0000
1000
0000
1001
0000
0001
0000
1000
0000
0100
0000
1000
0010
1000
0000
,  // measure 68
2002
0000
3003
0000
;

//---------------dance-single - ----------------
#NOTES:
     dance-single:
     :
     Medium:
     6:
     0.379438,0.476007,0.208470,0.015442,0.000000,344.000000,317.000000,27.000000,2.000000,0.000000,0.000000,0.379438,0.476007,0.208470,0.015442,0.000000,344.000000,317.000000,27.000000,2.000000,0.000000,0.000000:
// measure 0
0000
0000
0000
0000
,  // measure 1
0000
0000
0000
0000
,  // measure 2
0000
0000
0000
0000
,  // measure 3
0000
0000
1000
0001
,  // measure 4
1001
0000
0000
1000
0100
1000
0001
0010
,  // measure 5
0001
0010
0100
1000
,  // measure 6
0001
0000
0000
1000
0010
1000
0001
0100
,  // measure 7
0001
0000
0100
0001
,  // measure 8
1000
0010
0010
1000
,  // measure 9
0001
1000
0010
0100
,  // measure 10
0101
0000
0100
0001
,  // measure 11
1001
0000
0101
1001
,  // measure 12
1100
0000
0000
0100
1000
0100
0010
0001
,  // measure 13
0010
0100
1000
0001
,  // measure 14
0010
0000
0000
0100
0010
0100
0010
0001
,  // measure 15
0010
0000
0100
0010
,  // measure 16
0001
1000
1000
0001
,  // measure 17
1000
0000
0100
0010
0000
0000
0001
0000
,  // measure 18
1001
0000
0000
0000
0010
0100
1000
0001
,  // measure 19
0000
1000
0000
0010
1000
0010
1000
0000
,  // measure 20
1000
0100
1000
0100
0010
0000
0001
0000
,  // measure 21
1000
0000
0010
0000
1000
0001
0010
0000
,  // measure 22
0100
0010
0001
0000
0010
0001
0100
0000
,  // measure 23
0001
0000
1000
0000
0010
0000
1000
0001
,  // measure 24
0100
0000
0010
0000
1000
0100
1000
0000
,  // measure 25
0100
0000
1000
0000
0100
1000
0010
0000
,  // measure 26
0100
0000
0001
0000
0100
0010
1000
0000
,  // measure 27
0001
1000
0010
0000
1000
0100
0010
0000
,  // measure 28
0001
0100
0001
0000
1000
0001
0100
0000
,  // measure 29
0010
1000
0100
0000
0010
0100
1000
0000
,  // measure 30
0001
0100
0001
0100
0001
0100
0001
0000
,  // measure 31
1000
0000
0001
0000
1000
0001
1000
0000
,  // measure 32
1000
0100
1000
0000
0010
0100
0010
0000
,  // measure 33
1000
0100
0010
0000
0001
0100
0010
0000
,  // measure 34
1010
0000
0000
0000
1000
0100
1000
0100
,  // measure 35
1000
0000
0100
0010
,  // measure 36
0110
0000
0000
0001
0010
0001
1000
0100
,  // measure 37
1000
0000
0010
0100
,  // measure 38
0110
0000
0000
0100
0001
0100
0010
0001
,  // measure 39
0010
0000
0000
0000
0001
0000
0100
0001
,  // measure 40
0000
0100
0010
1000
0100
1000
0000
0000
,  // measure 41
1000
0010
0100
0010
,  // measure 42
0110
0000
0001
0010
,  // measure 43
0011
0000
0011
1001
,  // measure 44
1010
0000
0000
0010
1000
0010
1000
0001
,  // measure 45
1000
0001
0001
0100
,  // measure 46
0010
0000
0000
1000
0010
0001
0010
1000
,  // measure 47
0010
0000
1000
0001
,  // measure 48
0001
1000
1000
0100
,  // measure 49
0010
0000
0010
0001
0000
0000
0001
0000
,  // measure 50
0101
0000
0000
0000
1000
0001
1000
0100
,  // measure 51
1000
0010
1000
0010
1000
0010
1000
0010
,  // measure 52
0100
0000
0001
0000
1000
0100
0000
0010
,  // measure 53
0001
0010
0001
0000
1000
0100
1000
0000
,  // measure 54
0010
0000
0100
0000
0001
0010
0001
0000
,  // measure 55
0100
0010
0100
0000
0010
1000
0010
0000
,  // measure 56
1000
0000
0001
0000
0100
0010
0000
0000
,  // measure 57
1000
0010
1000
0000
0001
0010
0001
0000
,  // measure 58
0001
0010
0001
0000
0100
1000
0010
0000
,  // measure 59
0110
1010
1100
0110
,  // measure 60
0011
0000
0001
0010
0001
0000
1000
0010
,  // measure 61
1000
0000
0100
0000
1000
0100
1000
0000
,  // measure 62
0010
0000
1010
1001
,  // measure 63
0101
0000
0000
0100
0010
0100
0001
0100
,  // measure 64
0010
1000
0100
0010
,  // measure 65
0001
0000
0010
0001
,  // measure 66
1000
0100
1000
0100
0010
0001
0010
0001
,  // measure 67
0101
0000
1010
0000
0001
0100
0010
1000
,  // measure 68
2002
0000
3003
0000
;
