#TITLE:Stormens Öga;
#SUBTITLE:;
#ARTIST:Nordman;
#TITLETRANSLIT:Stormens Oga;
#SUBTITLETRANSLIT:;
#ARTISTTRANSLIT:;
#GENRE:;
#CREDIT:;
#BANNER:stormens oga-banner.png;
#BACKGROUND:stormens oga-bg.png;
#LYRICSPATH:;
#CDTITLE:;
#MUSIC:stormens oga.mp3;
#OFFSET:-9.30200;
#SAMPLESTART:51.911999;
#SAMPLELENGTH:17.000000;
#SELECTABLE:YES;
#BPMS:0.000000=165.974
;
#STOPS:
;
#BGCHANGES:;
#KEYSOUNDS:;
#ATTACKS:;

//---------------dance-single - ----------------
#NOTES:
     dance-single:
     :
     Easy:
     4:
     0.356595,0.368286,0.409207,0.409207,0.000000,164.000000,40.000000,40.000000,0.000000,0.000000,0.000000,0.356595,0.368286,0.409207,0.409207,0.000000,164.000000,40.000000,40.000000,0.000000,0.000000,0.000000:
0100
1000
0001
1000
,
0001
0100
0001
1000
,
0010
0000
0220
0000
0000
0000
0000
0330
,
0100
0001
1000
1010
,
0000
0100
0101
0000
,
1000
0000
2002
0000
0000
0000
0000
3003
,
0001
0000
1000
0011
,
0000
0010
0100
0000
,
0001
0101
0000
0000
,
0101
0000
0000
1001
,
0001
1000
1001
0000
,
0010
0010
0000
0010
,
1000
1010
0000
1010
,
1000
0000
0010
0011
,
0000
0100
1000
0100
,
1000
0001
0100
0101
,
0000
0001
1001
0000
,
2000
0000
0002
0000
0000
3003
0000
0000
,
0100
0000
0010
0100
,
1000
0100
1000
0100
,
0000
1000
0000
0000
,
0100
0001
0100
0001
,
0010
0110
0110
0000
,
0100
0010
0000
0000
,
0010
0100
1000
0000
,
0001
0000
0000
0010
,
0001
0100
0000
0000
,
0010
0100
0001
1000
,
0001
0100
2002
0000
,
0000
3003
0000
0000
0100
0000
0010
0000
,
0220
0000
0000
0000
0000
0330
1000
0000
,
0001
0010
2002
0000
,
0000
3003
0000
0000
0001
0000
1000
0000
,
0202
0000
0000
0000
0000
0303
0100
0000
,
0001
0100
0202
0000
,
0000
0303
0001
0000
1000
0000
0001
0000
,
2002
0000
0000
0000
0000
3003
0010
0000
,
0001
0100
2200
0000
,
0000
3300
0001
0000
1000
0000
0010
0000
,
2020
0000
0000
3030
0001
0000
0202
0000
,
0000
0303
0010
0000
2020
0000
0000
0000
,
0000
3030
0000
0000
0001
0000
0100
0000
,
0220
0000
0000
0000
0000
0330
1000
0000
,
0001
0100
0202
0000
,
0000
0303
0000
0000
1000
0000
0010
0000
,
2020
0000
0000
3030
0010
0000
0100
0000
,
0001
1000
2002
0000
,
0000
3003
0000
0000
1001
0000
1000
0000
,
0001
1000
0000
0100
,
0000
0000
0110
0000
,
0100
1100
0000
0010
,
0011
0000
0010
0100
,
1000
0001
0100
0010
,
1000
0000
2002
0000
0000
0000
0000
3003
,
1001
1000
0010
1010
,
0001
0100
0101
0010
,
1000
0000
0202
0000
0000
0000
0000
0303
,
0001
0010
0100
1000
,
0001
0100
0010
1000
,
0001
2002
0000
0000
,
3003
0000
0000
0000
;

//---------------dance-single - ----------------
#NOTES:
     dance-single:
     :
     Medium:
     6:
     0.467665,0.398977,0.296675,0.204604,0.000000,271.000000,29.000000,20.000000,0.000000,0.000000,0.000000,0.467665,0.398977,0.296675,0.204604,0.000000,271.000000,29.000000,20.000000,0.000000,0.000000,0.000000:
// measure 0
0100
0000
0001
0100
0010
0000
0101
0000
,  // measure 1
0010
0000
0100
0000
1000
0000
0001
0100
,  // measure 2
0010
1000
0001
0000
0000
0000
0100
0000
,  // measure 3
0010
0000
1000
0100
0010
0000
1000
0000
,  // measure 4
0010
0000
0001
0100
0001
0000
1000
0000
,  // measure 5
0001
1000
0220
0000
0000
0000
0000
0330
,  // measure 6
0100
0000
0001
0000
0010
0100
1000
0000
,  // measure 7
0001
0100
0010
0100
,  // measure 8
0100
0001
0010
0000
0100
0000
1000
0000
,  // measure 9
0100
1000
0100
0000
0010
0000
0001
0000
,  // measure 10
0100
0000
1000
0100
0002
0000
0000
0000
,  // measure 11
0000
0003
1000
0001
1000
0000
0001
0000
,  // measure 12
0100
0010
0100
0000
0001
0000
1000
0001
,  // measure 13
0100
0000
0001
0000
0010
0100
1000
0000
,  // measure 14
0001
0000
0100
0001
0010
0000
0001
0000
,  // measure 15
1000
0000
0000
0010
0100
0000
0001
0000
,  // measure 16
1000
1001
2002
0000
,  // measure 17
0000
3003
0001
1000
0001
0000
1000
0000
,  // measure 18
0110
0010
0100
0000
0001
0000
1000
0010
,  // measure 19
0100
0001
1000
0001
,  // measure 20
1000
0001
0010
0000
0100
0000
1000
0001
,  // measure 21
0100
0000
0001
0000
0100
0010
0001
0000
,  // measure 22
0010
0000
1000
0001
2002
0000
0000
0000
,  // measure 23
0000
3003
1001
0000
0001
1000
0001
0000
,  // measure 24
0001
0000
0000
0010
0100
0000
0100
0000
,  // measure 25
1000
0010
0100
0000
0100
0000
0000
0001
,  // measure 26
1000
0000
1000
0001
0010
0000
0100
0000
,  // measure 27
1000
0000
0000
0001
0100
0000
0010
0000
,  // measure 28
0000
1001
2002
0000
,  // measure 29
0000
3003
1001
0000
1010
0000
0101
0000
,  // measure 30
1000
0010
0100
0001
0010
0000
0001
0000
,  // measure 31
0100
0000
0010
0000
1000
0100
0010
0001
,  // measure 32
0100
0001
1001
0110
,  // measure 33
0100
0001
1000
0010
0100
0000
0101
0000
,  // measure 34
1100
0000
1001
0000
0001
1000
0010
0100
,  // measure 35
0001
1001
1000
0010
,  // measure 36
0100
0001
0010
0100
1000
0000
0011
0000
,  // measure 37
0001
0000
0100
0000
0010
1000
0100
0010
,  // measure 38
1000
1000
0010
0001
,  // measure 39
0001
1000
0010
0100
0001
0000
0101
0000
,  // measure 40
0100
0000
0010
0000
1000
0001
1000
0001
,  // measure 41
1000
1001
0001
0010
,  // measure 42
0102
0010
1000
0103
,  // measure 43
0010
0100
1020
0100
,  // measure 44
1000
0130
0001
0010
,  // measure 45
0120
0001
0001
0130
,  // measure 46
0100
1000
0012
0100
,  // measure 47
1000
0103
0010
1000
,  // measure 48
0021
0100
0100
0031
,  // measure 49
1000
0010
0201
0001
,  // measure 50
0010
0301
1000
0001
,  // measure 51
2001
0100
0001
3200
,  // measure 52
0300
0100
0100
0000
0020
0000
0000
0000
,  // measure 53
0000
0031
0011
1000
,  // measure 54
0010
0000
1000
0001
0100
0010
1000
0000
,  // measure 55
0001
0000
0100
0000
0010
0000
0100
0001
,  // measure 56
1000
0010
0001
0000
0000
0000
0010
0000
,  // measure 57
1000
0000
0100
0010
0001
1000
0100
0000
,  // measure 58
1000
0010
0100
0001
,  // measure 59
1000
0020
2000
0000
0000
0000
0000
0000
,  // measure 60
3030
0000
0000
0000
;

//---------------dance-single - ----------------
#NOTES:
     dance-single:
     :
     Hard:
     8:
     0.558276,0.491049,0.235294,0.255754,0.005115,334.000000,23.000000,25.000000,0.000000,0.000000,0.000000,0.558276,0.491049,0.235294,0.255754,0.005115,334.000000,23.000000,25.000000,0.000000,0.000000,0.000000:
1000
0000
0010
0100
0001
0010
0200
1000
,
1300
0000
1000
0000
0010
0000
0100
0001
,
1000
0010
0200
0001
0301
0000
1000
0000
,
0001
0000
0010
0100
1000
0001
0200
0010
,
0310
0000
0000
0000
1000
0000
0000
0000
0002
0000
0000
0000
1000
0000
0000
1003
,
0010
1000
0002
0000
0000
0000
0003
0000
,
0010
1000
0010
0100
0001
0000
1000
0001
,
1000
0000
0100
0000
1000
0001
1000
0100
,
0010
0000
0100
1000
1000
0000
0001
0000
,
0010
0100
1000
0001
0100
0000
1000
0001
,
1000
0000
0010
0000
0100
0001
1000
0100
,
0010
0000
0001
0001
0001
0000
1000
0000
,
0001
1000
0001
1000
0001
0000
2001
0000
,
0001
0000
0001
3000
0001
0100
0010
1000
,
0001
0000
0020
0100
0100
0000
0001
0030
,
0100
1000
0010
0001
0010
0000
0200
0001
,
0001
0000
0010
0300
1000
0100
0001
0100
,
1000
0000
0200
0010
0010
0000
1000
0300
,
0001
0100
0010
1000
0100
0000
1000
0010
,
1000
1000
0002
0100
,
0010
0003
0100
1000
0100
0000
0001
0000
,
1000
0010
1000
0001
1000
0000
0001
0100
,
0010
0000
0100
0000
0001
0010
0100
0010
,
1000
0000
0010
0100
0001
0000
0100
0000
,
1000
0100
0001
0100
0010
0000
0002
0000
,
0010
1000
2003
0001
,
0100
0000
3001
1000
0001
0000
0010
0000
,
0100
1000
0010
0000
0100
0000
0002
0000
,
1000
0000
0100
0003
0010
0100
0001
1000
,
0010
0000
1001
1000
0001
0000
1000
0000
,
0001
1000
1000
0001
0010
0000
0001
0100
,
0001
1000
0010
0000
1000
0000
0000
0001
,
0001
0000
1000
0010
0010
0000
0100
0000
,
0001
1000
0010
0100
0001
0000
1000
0010
,
0100
0000
0001
0000
1000
0001
0010
0100
,
1000
0001
0100
0010
1000
0010
0001
0010
,
1000
0100
1000
0100
0010
1000
0010
0100
,
0010
0001
0010
1000
0010
0100
0001
0100
,
1000
0000
0001
0100
1000
0000
0100
0000
,
2020
0000
0030
3100
0010
0000
2002
0000
,
3003
0011
1002
1000
,
1000
0000
1003
0010
0100
0000
1010
0000
,
0210
0010
0000
0001
0001
0300
0001
1000
,
0001
0000
1001
0000
2100
0100
0000
0001
,
0001
3000
0001
0010
0100
0000
1100
0000
,
1200
1000
0000
0010
0010
0300
0010
0001
,
1000
0000
1010
0000
2001
0001
0000
0010
,
0010
3000
0010
0100
0001
0000
0101
0000
,
0102
0100
0000
1000
1000
0003
1000
0010
,
0100
0000
0101
0000
0200
0000
0000
0301
,
0001
0000
1000
0010
0100
0000
1001
0000
,
0001
1000
0010
0100
0001
0000
1001
0001
,
0100
0010
1000
0001
0100
0000
0000
0010
,
0010
1000
1001
0000
0100
0100
0010
0000
,
1001
0000
0100
0010
1000
0001
0010
0000
,
0100
0000
1000
0000
1001
0000
0010
0001
,
1000
0100
0010
0000
0000
0000
0001
0000
,
0101
0000
0010
1000
0001
0100
0010
0000
,
1000
0010
0100
0001
,
1000
0001
0020
0000
0000
0000
0000
0000
,
0030
0000
0000
0000
;

//---------------dance-single - Blank----------------
#NOTES:
     dance-single:
     Blank:
     Beginner:
     2:
     0.156376,0.181841,0.000000,0.040921,0.000000,103.000000,0.000000,4.000000,0.000000,0.000000,0.000000,0.156376,0.181841,0.000000,0.040921,0.000000,103.000000,0.000000,4.000000,0.000000,0.000000,0.000000:
1000
0000
0000
1000
,
0000
0000
0010
0000
,
0000
1000
0000
0000
,
1000
0000
0000
0100
,
0000
0010
0010
0000
,
0001
0001
0000
0000
,
0010
0000
0000
0100
,
0000
0000
1000
0000
,
0000
1000
0000
0000
,
0010
0000
0000
1000
,
0000
0000
0001
0000
,
0000
1000
0000
0000
,
1000
0000
0000
1000
,
0000
0000
1000
0000
,
0000
0100
0000
0000
,
1000
0000
0000
0001
,
0000
0100
0100
0000
,
0000
0010
0000
0000
,
0100
0000
0000
0100
,
0000
0000
0010
0000
,
0000
0010
0000
0000
,
1000
0000
0000
0100
,
1000
0100
1000
0000
,
0000
0010
0000
0000
,
0100
0000
0000
0010
,
0000
0000
1000
0000
,
0000
0001
0000
0000
,
0010
0000
0000
0002
,
0000
1003
0020
0000
,
0030
1000
0000
0000
,
0001
0000
0000
1000
,
0010
1000
0010
0000
,
0000
0100
0001
0100
,
0001
0000
0000
1000
,
0100
1000
0100
0000
,
0000
0010
0000
0000
,
0001
0000
0000
0010
,
0000
0000
0100
0000
,
1000
1000
0000
0000
,
0010
0000
0000
1000
,
0000
0100
2000
0000
,
0000
3100
0000
0000
,
0010
0000
0000
0010
,
0001
0010
0001
0000
,
0000
0010
0000
0000
,
0001
0000
0000
1000
,
0000
0000
0200
0000
,
0000
1300
0000
0000
,
0100
0000
0000
1000
,
0000
0000
0100
0000
,
0000
1000
0000
0000
,
0100
0000
0000
1000
,
0000
0000
0001
0000
,
0000
0010
0000
0000
,
0100
0000
1000
1000
,
0000
0010
0010
0000
,
0100
0100
0000
0001
,
0001
0000
1000
1000
,
0000
0010
0010
0000
,
0100
0100
0000
0000
;
