#TITLE:說愛你;
#SUBTITLE:;
#ARTIST:蔡依林;
#TITLETRANSLIT:Shuo Ai Ni;
#SUBTITLETRANSLIT:;
#ARTISTTRANSLIT:Jolin Tsai;
#GENRE:;
#CREDIT:;
#BANNER:cai yi lin - shuo ai ni (ddr edit)-banner.png;
#BACKGROUND:shuo-bg.jpg;
#LYRICSPATH:;
#CDTITLE:;
#MUSIC:cai yi lin - shuo ai ni (ddr edit).mp3;
#OFFSET:-0.618000;
#SAMPLESTART:59.419407;
#SAMPLELENGTH:12.000000;
#SELECTABLE:YES;
#BPMS:0.000000=102.000
;
#STOPS:
;
#BGCHANGES:6.000=shuo.avi=1.000=1=1=1=StretchNoLoop==CrossFade==,
206.000=shuo-bg.jpg=1.000=0=0=1=====,
99999=-nosongbg-=1.000=0=0=0 // don't automatically add -songbackground-
;
#KEYSOUNDS:;
#ATTACKS:;

//---------------dance-single - ----------------
#NOTES:
     dance-single:
     :
     Beginner:
     1:
     0.146033,0.195190,0.104638,0.000000,0.000000,127.000000,114.000000,13.000000,0.000000,0.000000,0.000000,0.146033,0.195190,0.104638,0.000000,0.000000,127.000000,114.000000,13.000000,0.000000,0.000000,0.000000:
0000
0000
0000
0000
,
0100
0000
0100
0000
,
0001
0000
0001
0000
,
1000
1000
0010
0010
,
0100
0000
0100
0000
,
0001
0000
0001
0000
,
0100
0100
0001
0001
,
1000
0000
0100
0000
,
1000
0000
1000
0000
,
0010
0000
1000
0000
,
0001
0000
0100
0000
,
0001
0000
0100
0000
,
0001
0000
0010
0100
,
0010
0000
0010
0000
,
0001
0000
0001
0000
,
1000
0000
1000
0000
,
0100
0000
0100
0010
,
0001
0000
0110
0000
,
1100
0000
0011
0000
,
1001
0000
0110
0000
,
1000
0001
1000
0001
,
0100
0000
0100
0000
,
0010
0000
0010
0000
,
1001
0000
1001
0000
,
1000
1000
0001
0001
,
1000
0000
0010
0000
,
0100
0000
0010
0000
,
1000
0000
0100
0000
,
0010
0000
0001
0100
,
0000
0001
0001
0000
,
0100
0010
0010
1000
,
0000
0100
0010
0000
,
0101
0000
1010
0000
,
0110
0000
1000
0000
,
0100
0000
0010
0000
,
0100
0000
1000
0000
,
0100
0001
0100
0000
,
0110
0000
0001
0000
,
1000
0000
0010
0000
,
1000
0001
0100
0000
,
0001
0000
1001
0000
,
1000
0000
0001
0000
,
1000
0010
1010
0000
,
0010
0000
1000
0000
,
0001
0000
0100
0001
,
0010
0000
0100
0000
,
0010
0000
0001
0000
,
1000
0000
1000
0000
,
0010
1000
0010
0000
;

//---------------dance-single - ----------------
#NOTES:
     dance-single:
     :
     Easy:
     4:
     0.262170,0.274674,0.354159,0.024147,0.000000,228.000000,184.000000,44.000000,3.000000,0.000000,0.000000,0.262170,0.274674,0.354159,0.024147,0.000000,228.000000,184.000000,44.000000,3.000000,0.000000,0.000000:
// measure 0
0000
0000
0000
0000
,  // measure 1
1001
1000
0001
1000
,  // measure 2
0100
1000
0100
0100
,  // measure 3
0001
0100
0001
0100
,  // measure 4
1000
0010
0110
0100
,  // measure 5
0001
1000
0001
0010
,  // measure 6
0001
1000
0100
1000
,  // measure 7
1000
0100
1010
1100
,  // measure 8
2000
0000
3001
0000
,  // measure 9
0001
1001
0000
0000
,  // measure 10
0010
0110
0000
1000
,  // measure 11
0001
1001
0000
0001
,  // measure 12
0101
0100
0000
0100
,  // measure 13
0100
1001
0000
1001
,  // measure 14
0001
0110
0000
0110
,  // measure 15
0010
1001
0000
1001
,  // measure 16
0010
1010
1000
0001
,  // measure 17
2001
0000
0000
0000
0001
0000
0001
3000
,  // measure 18
0100
0000
0000
0010
,  // measure 19
1000
0001
0000
0000
,  // measure 20
0001
0001
1100
1010
,  // measure 21
0000
1010
0000
1000
,  // measure 22
1010
0010
0101
0001
,  // measure 23
0011
0001
1001
0001
,  // measure 24
0100
1000
1000
1000
,  // measure 25
0100
0001
0001
0100
,  // measure 26
0001
0100
0010
1000
,  // measure 27
0010
0001
0010
0010
,  // measure 28
0001
0010
0100
0001
,  // measure 29
1001
0001
0100
0010
,  // measure 30
1000
0010
0101
0101
,  // measure 31
0000
1001
0000
0101
,  // measure 32
0100
0010
1000
0001
,  // measure 33
0100
0110
0010
1010
,  // measure 34
1000
1001
0001
0011
,  // measure 35
0010
1010
0010
0011
,  // measure 36
0001
1001
1001
0000
,  // measure 37
1000
1100
0100
0110
,  // measure 38
0010
0011
0001
0101
,  // measure 39
0100
0110
0010
1010
,  // measure 40
0010
1000
0100
0000
0000
0000
0000
0000
,  // measure 41
1000
0001
0100
0000
0100
0010
1000
0000
,  // measure 42
1000
0100
0010
0000
0010
0100
0001
0000
,  // measure 43
0100
0010
0100
0000
0100
0010
1000
0000
,  // measure 44
1000
0010
0100
0110
0000
0000
1001
0000
,  // measure 45
0001
1000
0100
0000
0100
0010
0001
0000
,  // measure 46
0001
1000
0010
0000
0010
0100
1000
0000
,  // measure 47
0100
0010
1000
0000
0100
0010
0001
0000
,  // measure 48
1000
0001
1000
0200
0000
0000
0300
0000
;

//---------------dance-single - ----------------
#NOTES:
     dance-single:
     :
     Medium:
     5:
     0.357609,0.353153,0.177079,0.000000,0.000000,311.000000,289.000000,22.000000,0.000000,0.000000,0.000000,0.357609,0.353153,0.177079,0.000000,0.000000,311.000000,289.000000,22.000000,0.000000,0.000000,0.000000:
0000
0000
0000
0000
,
0110
0000
1010
0000
0100
0000
0001
1000
,
0010
0010
0110
0000
0001
0010
0001
0100
,
0100
0010
0110
0000
1010
1000
0010
0100
,
0001
0011
0010
0011
,
1000
0100
0100
1001
,
0001
1000
0001
0010
0100
0000
0011
0000
,
0001
0000
0010
0001
1000
0000
0010
0100
,
0001
0001
1000
0000
1000
0100
0100
1000
,
1000
0001
0010
0001
0100
0001
0100
1000
,
0100
0010
0100
0001
0101
0000
0011
0000
,
1000
0001
0010
0000
0010
0000
0010
0000
,
1000
0000
0100
1000
0101
0000
0100
0001
,
1000
0100
0010
0100
0110
0000
0010
0100
,
1000
0001
0100
0010
0100
0010
0100
0000
,
0100
0100
0001
0001
0010
0100
0010
0000
,
1000
0000
1000
0010
0001
0000
0001
0100
,
0101
0000
1010
0000
1000
0100
1100
0000
,
0001
0100
0101
0000
0000
0001
0010
0000
,
0001
0000
0001
0000
1000
0001
1000
0000
,
0001
0001
0100
0100
0000
0000
1000
0000
,
0001
0000
0100
0010
0100
0000
0001
0000
,
1000
0100
0001
0000
0100
0000
1000
0000
,
0001
0000
0100
0000
1000
0100
0001
0000
,
0001
0001
1000
1000
0000
0000
0100
0000
,
1000
0000
1000
0000
1000
0100
1000
0000
,
0001
0000
0001
0000
0001
0100
0001
0000
,
0100
0000
0010
0000
1000
0010
0100
0000
,
0001
0000
0100
0000
0010
1000
0001
0100
,
0010
0000
1010
0000
0100
0010
1000
0001
,
0100
0001
1000
0000
0001
0100
1010
0000
,
0001
0000
0100
0000
0010
1000
0010
0000
,
1001
0000
0110
0000
1001
0000
1000
0100
,
1000
1000
0100
0000
0010
0010
0001
0000
,
0100
0100
0010
0000
1000
1000
0001
1000
,
0001
0001
0100
0000
0010
0010
1000
0000
,
1000
0000
1000
0010
1000
1000
0001
0000
,
0100
0100
0010
0000
0010
0010
1000
0000
,
0001
0001
0010
0000
0001
0001
0100
0000
,
1000
0100
1000
0000
0100
0001
0100
0000
,
0001
0001
1000
1000
0001
1000
0010
0000
,
1000
1000
0001
0001
0100
0010
1000
0001
,
0100
0100
0010
0010
0100
0001
0010
0000
,
0001
0001
0100
0100
0010
1000
0010
0100
,
0010
0010
0100
0100
0010
1000
0001
0000
,
1000
1000
0001
0001
0100
0001
0010
0100
,
0010
0010
0001
0001
0100
0010
1000
0000
,
0001
0001
1000
0000
1000
1000
0010
0000
,
0010
0100
0010
1000
0001
0100
0001
0000
;

//---------------dance-single - ----------------
#NOTES:
     dance-single:
     :
     Hard:
     8:
     0.477195,0.512726,0.289766,0.032196,0.253546,415.000000,379.000000,36.000000,4.000000,0.000000,0.000000,0.477195,0.512726,0.289766,0.032196,0.253546,415.000000,379.000000,36.000000,4.000000,0.000000,0.000000:
0000
0000
0000
0000
,
1000
0000
1001
0000
0001
0000
0000
0001
0100
0000
0001
0000
0010
0000
0001
0000
,
0001
0000
1001
0000
1000
0000
0000
0001
0100
0000
0010
0000
1000
0000
0010
0000
,
0100
0000
0001
0000
0010
0000
0000
0100
1000
0001
1000
0000
0010
0000
0000
0000
,
0100
0000
0001
0000
0010
0000
0000
0001
1000
0000
0100
0000
0010
0000
0010
0000
,
0100
0000
1000
0000
0001
0000
0000
0100
0001
0000
0100
0000
0010
0000
1000
0000
,
0001
0000
0001
0000
0100
0000
0000
0001
1000
0000
1000
0000
0010
0000
0000
0000
,
0100
0000
0100
0000
0001
0000
0000
1000
0001
0100
0010
0000
1000
0000
0000
0000
,
0001
0000
0001
0000
0001
0000
0000
0001
1000
0000
0000
0000
0000
0000
0000
0000
,
0001
0000
0010
0000
0100
1000
0100
0000
0010
0000
0100
0000
1000
0000
0000
0000
,
1000
0000
0100
0000
0010
0001
0010
0000
0010
0001
0010
0000
0100
0000
0000
0000
,
1000
0000
0100
0000
0001
0100
0001
0000
0100
0000
0010
0000
1000
0000
0000
0000
,
0010
0000
0100
0000
1000
0010
1000
0000
1000
0100
1000
0000
0001
0000
0000
0000
,
0001
0000
0100
0000
1010
0000
0001
0100
0010
0000
1000
0000
0001
0000
1000
0100
,
0010
0000
0001
0000
1010
0000
0001
0100
0010
0000
0001
0000
0010
0000
1000
0000
,
0100
0000
1000
0000
1010
0000
0010
0100
0001
0000
0100
0000
1000
0000
0100
0010
,
1000
0000
0001
0000
1001
0000
1000
0100
1000
0100
0010
0000
0001
1000
0010
0000
,
1001
0000
0000
0001
1000
0100
1000
0001
0100
0000
0010
1000
0010
0000
1000
0000
,
0001
0000
0001
0100
1000
0000
0100
0000
0001
0000
0001
0000
0010
0000
0100
0000
,
0100
0000
1000
0000
0010
1000
0001
0000
,
0100
0001
1000
0001
0000
0100
0001
1000
,
0010
0000
0010
0000
0000
0010
1000
0010
1000
0001
1000
0010
0000
1000
0010
0001
,
0010
1000
0001
1000
0100
0010
0100
1000
,
1001
0000
0110
0000
1000
0010
1000
0000
,
0001
0100
0100
1001
0000
0000
0000
0000
,
1010
0000
0101
0000
1000
0010
0101
0000
,
1000
0000
0100
0000
0100
0000
0010
0000
0001
1000
0100
0000
1100
0000
0100
0000
,
1000
0000
0010
0000
1100
0000
0000
0000
0010
0000
0001
0000
0101
0000
0000
0001
,
0100
0000
0010
0000
1000
0000
0001
0000
1000
0000
0100
0000
0010
0001
0100
0000
,
1000
0000
0100
0000
1000
0100
0010
0000
0001
0000
0010
0000
0101
0000
0000
1000
,
0100
0000
0010
0000
1000
0010
1000
0000
0010
0000
0001
0000
0100
0001
0100
1000
,
0100
0000
0010
0000
1000
0001
0100
0010
1000
0000
0001
0000
0100
0000
0010
0000
,
1010
0000
0000
0000
0100
0000
0000
0000
1000
0010
1000
0010
0001
0010
1000
0000
,
0100
0000
0100
0000
1100
0000
0000
1000
0001
0000
0001
0000
0101
0000
0000
0100
,
0010
0000
0010
0000
1010
0000
0000
0001
1000
0000
1000
0000
1100
0000
0000
1000
,
0010
0000
0010
0000
0110
0000
0000
0001
0100
0000
0100
0000
0101
0000
0000
0001
,
1000
0000
1000
0000
1010
0000
0000
1000
0001
0000
0001
0000
0101
0000
0000
0001
,
1000
0000
0010
0000
0101
0000
0000
0100
0010
0000
0100
0000
1001
0000
0000
0001
,
1000
0000
0100
0000
0011
0000
0000
1000
0001
0000
0010
0000
1100
0000
0100
0000
,
0010
0001
0100
0000
0010
1000
0001
0000
,
0010
0000
0100
0000
1001
0000
1001
0000
1000
0001
0100
0000
0110
0000
0000
0000
,
1000
0000
0100
0000
0011
0000
0000
0001
0100
0000
0010
0000
1000
0000
0100
0000
,
0010
0000
0001
0000
1000
0000
0000
0100
1000
0000
0010
0000
0100
0000
0001
0000
,
1000
0000
0010
0000
1001
0000
0000
0001
0100
0000
0010
0000
1000
0000
0000
0000
,
0001
0100
0110
0010
1000
0001
0100
0010
,
1000
0000
0100
0010
0001
0010
0001
0200
,
0000
0310
1000
1000
0000
0000
1000
0001
,
0100
0000
0000
0001
1000
0010
0100
0002
,
0000
0103
0010
2000
0002
0000
0000
0000
,
3003
0000
0000
0000
;
