#TITLE:Muéveme;
#SUBTITLE:;
#ARTIST:Miguel Cadenas;
#TITLETRANSLIT:Mueveme;
#SUBTITLETRANSLIT:;
#ARTISTTRANSLIT:;
#GENRE:;
#CREDIT:;
#BANNER:Miguel Cadenas - Mueveme (ddr edit)-banner.png;
#BACKGROUND:Miguel Cadenas - Mueveme (ddr edit)-bg.png;
#LYRICSPATH:;
#CDTITLE:;
#MUSIC:Miguel Cadenas - Mueveme (ddr edit).mp3;
#LEADTRACK:;
#OFFSET:-0.030;
#SAMPLESTART:53.502;
#SAMPLELENGTH:17.000;
#SELECTABLE:YES;
#BPMS:0.000=112.000;
#STOPS:;
#BGCHANGES:;
#KEYSOUNDS:;

//---------------dance-single - ----------------
#NOTES:
     dance-single:
     :
     Hard:
     8:
     0.482,0.505,0.235,0.141,0.447,318.000,25.000,15.000,0.000,0.000,0.000,0.482,0.505,0.235,0.141,0.447,318.000,25.000,15.000,0.000,0.000,0.000: // measure 1
0000
0000
0000
0000
,  // measure 2
0000
0000
0000
0000
,  // measure 3
0000
0000
0000
0000
,  // measure 4
0000
0000
0000
0000
,  // measure 5
0001
0100
0010
0100
,  // measure 6
0001
1000
0100
0010
,  // measure 7
0001
0100
0010
1000
,  // measure 8
0001
1000
0100
1000
,  // measure 9
0020
0000
0000
0130
0001
0000
0000
0000
2000
0000
0000
3001
0100
0000
0010
0000
,  // measure 10
1000
0000
0000
0100
1000
0000
0100
0000
0010
0000
0000
0001
0100
0000
0010
1000
,  // measure 11
0010
0000
0000
0100
0010
0000
0100
0001
1000
0000
0000
0010
1000
0000
0100
1000
,  // measure 12
1100
0000
0000
0110
0000
0000
0011
0000
1001
0000
0000
1010
0000
0000
0100
0001
,  // measure 13
1000
0000
0000
0010
1000
0000
0001
0000
0100
0000
0000
0001
0100
0000
0001
0000
,  // measure 14
1000
0000
0000
0010
1000
0000
0100
0000
0001
0000
0000
0100
1000
0000
0010
1000
,  // measure 15
0001
0000
0000
1000
0100
0000
1000
0000
0010
0000
0100
0000
0001
0000
1000
0000
,  // measure 16
0001
0000
0000
1000
0000
0000
0010
0000
0000
0000
0000
0001
1000
0000
1001
0000
,  // measure 17
1001
0000
0000
0001
0100
0000
0000
0100
0010
0000
0000
0010
1000
0000
0001
0000
,  // measure 18
0100
0000
0000
0100
0001
0000
0000
0001
1000
0000
0000
1000
0010
0000
1000
0000
,  // measure 19
0100
0000
0000
0100
0010
0000
0000
0010
0001
0000
1000
0000
0010
0000
0100
0000
,  // measure 20
1000
0000
0000
0100
0000
0000
0001
0000
0000
0000
0000
0001
1000
0000
0001
1000
,  // measure 21
0001
0000
0000
0001
0100
0000
0000
0100
0010
0000
0000
0010
1000
0000
0001
0000
,  // measure 22
0100
0000
0000
0100
0010
0000
0000
0010
1000
0000
0000
1000
0001
0000
0100
0000
,  // measure 23
0010
0000
0000
0010
0001
0000
0000
0001
0010
0000
1000
0000
0100
0000
0010
0000
,  // measure 24
0100
0000
0000
1000
0000
0000
0001
0000
0000
0000
1000
0000
0001
0000
0000
0000
,  // measure 25
1000
0000
0000
0001
0000
0000
1000
0100
1000
0010
0100
0001
0100
0010
1000
0001
,  // measure 26
0200
0000
0000
0000
0002
0300
2000
0003
,  // measure 27
0020
3000
0000
0000
2000
0030
0200
3000
,  // measure 28
0020
0300
0000
0000
2000
0030
0020
3000
,  // measure 29
0002
0030
0200
0003
0020
0300
2000
0030
,  // measure 30
0001
3000
0000
1000
0100
0000
0000
0010
0001
0000
0000
0010
0100
0000
1000
0000
,  // measure 31
0010
0000
0000
0100
0001
0000
0000
0100
0010
0000
0000
0100
1000
0000
0100
0000
,  // measure 32
0010
0000
0000
1000
0100
0000
0010
0000
0001
0000
0000
0000
1000
0000
0001
0000
,  // measure 33
1000
0000
0000
0010
0000
0000
0100
0000
0000
0000
0000
0001
1000
0000
1001
0000
,  // measure 34
1001
0000
0000
0001
0100
0000
0000
0100
0010
0000
0000
0010
1000
0000
0100
0000
,  // measure 35
0010
0000
0000
0010
0001
0000
0000
0001
0010
0000
0000
0010
0100
0000
1000
0000
,  // measure 36
0010
0000
0000
0010
1000
0000
0001
0000
0100
0000
0010
0000
1000
0000
0001
0000
,  // measure 37
0101
0000
0000
0011
0000
0000
1100
0000
0000
0000
0000
0001
0100
0000
0010
1000
,  // measure 38
0010
0000
0000
0010
0100
0000
0000
0100
0001
0000
1000
0000
0100
0000
0010
0000
,  // measure 39
0100
0000
0000
0100
1000
0000
0010
0100
0010
0000
1000
0000
0001
0000
1000
0010
,  // measure 40
0100
0000
0000
0001
0100
0000
0010
0000
1000
0000
0000
0001
0010
0000
0001
1000
,  // measure 41
1010
0000
0000
0110
0000
0000
0101
0000
0000
0000
0110
0000
1100
0000
0100
0010
,  // measure 42
1000
0000
0000
1000
0100
0000
0000
0100
0010
0000
0000
0010
1000
0000
0010
0000
,  // measure 43
0100
0000
0000
0100
0001
0000
0000
0001
0100
0000
0000
0100
0010
0000
0001
0000
,  // measure 44
1000
0000
0000
1000
0001
0000
0000
0001
0100
0000
0000
0100
0001
0000
0010
0000
,  // measure 45
1100
0000
0000
0110
0000
0000
0101
0000
0000
0000
0010
0000
1000
0000
0010
0000
,  // measure 46
0001
0000
0000
0001
0100
0000
0000
0100
0010
0000
0000
0010
0001
0000
0010
0000
,  // measure 47
1000
0000
0000
1000
0100
0000
0000
0100
0010
0000
0000
0010
0001
0000
0100
0000
,  // measure 48
0010
0000
0000
0010
1000
0000
0000
1000
0010
0000
0000
0010
0100
0000
0001
0000
,  // measure 49
0011
0000
0000
0101
0000
0000
0110
0000
0000
0000
1001
0000
1001
0000
0000
0000
;

//---------------dance-single - Blank----------------
#NOTES:
     dance-single:
     Blank:
     Medium:
     5:
     0.307,0.275,0.104,0.000,0.212,217.000,11.000,0.000,0.000,0.000,0.000,0.307,0.275,0.104,0.000,0.212,217.000,11.000,0.000,0.000,0.000,0.000: // measure 1
0000
0000
0000
0000
,  // measure 2
0000
0000
0000
0000
,  // measure 3
0000
0000
0000
0000
,  // measure 4
0000
0000
0000
0000
,  // measure 5
1000
1000
0010
0010
,  // measure 6
0100
0100
0001
0001
,  // measure 7
0010
0010
0100
0100
,  // measure 8
1000
1000
0001
0001
,  // measure 9
1000
0010
0100
0010
,  // measure 10
1000
0100
0001
0100
,  // measure 11
1000
0010
0100
0001
,  // measure 12
1000
0000
0000
0100
0000
0000
1000
0000
0001
0000
0000
0100
0000
0000
0001
0000
,  // measure 13
1000
0100
1000
0010
,  // measure 14
0100
0001
0010
1000
,  // measure 15
0010
0100
0001
0100
,  // measure 16
1000
0000
0000
0010
0000
0000
0100
0000
0000
0000
0000
0100
0001
0000
0010
0000
,  // measure 17
0001
0000
0000
0001
0100
0000
0000
0000
0100
0000
0000
0100
0010
0000
0000
0000
,  // measure 18
0010
0000
0000
0010
1000
0000
0000
0000
1000
0000
0000
1000
0100
0000
0000
0000
,  // measure 19
0100
0000
0000
0100
0010
0000
0000
0000
0010
0000
0000
0010
0001
0000
0000
0000
,  // measure 20
0001
0000
0000
1000
0000
0000
0010
0000
0000
0000
0000
0000
0000
0000
0000
0000
,  // measure 21
1000
0000
0000
1000
0100
0000
0000
0000
0010
0000
0000
0010
0001
0000
0000
0000
,  // measure 22
0100
0000
0000
0100
0010
0000
0000
0000
1000
0000
0000
1000
0100
0000
0000
0000
,  // measure 23
0100
0000
0000
0100
0010
0000
0000
0000
0001
0000
0000
0001
0100
0000
0000
0000
,  // measure 24
0010
0000
0000
1000
0000
0000
0100
0000
0000
0000
0010
0000
0001
0000
0000
0000
,  // measure 25
1000
0000
0000
0100
0000
0000
1000
0000
0001
0000
0000
0010
0000
0000
0100
0000
,  // measure 26
1000
0000
0001
0100
,  // measure 27
0010
0000
1000
0100
,  // measure 28
0010
0000
0001
0100
,  // measure 29
1010
1001
0101
1001
,  // measure 30
1000
0000
0010
0100
,  // measure 31
0001
0000
0010
0100
,  // measure 32
1000
0000
0001
0100
,  // measure 33
0001
0000
0000
0001
0000
0000
0001
0000
0000
0000
0000
1000
0100
0000
0010
0000
,  // measure 34
0100
1100
0010
0011
,  // measure 35
0001
0101
0010
1010
,  // measure 36
0100
1100
0010
0110
,  // measure 37
1000
0000
0000
0100
0000
0000
0010
0000
0000
0000
0000
0001
0010
0000
0001
0000
,  // measure 38
0010
0000
0000
0001
0010
0000
0000
0000
0100
0000
0000
1000
0100
0000
0000
0000
,  // measure 39
0010
0000
0000
0100
1000
0000
0000
0000
0001
0000
0000
0100
0010
0000
0000
0000
,  // measure 40
0100
0000
0000
0010
1000
0000
0000
0000
0010
0000
0000
0100
0001
0000
0000
0000
,  // measure 41
1000
0000
0000
0100
0000
0000
1000
0000
0000
0000
0010
0000
0100
0000
0000
0000
,  // measure 42
0010
0000
0000
1000
0010
0000
0000
0000
0100
0000
0000
0001
0100
0000
0000
0000
,  // measure 43
0001
0000
0000
0010
0001
0000
0000
0000
1000
0000
0000
0100
1000
0000
0000
0000
,  // measure 44
0001
0000
0000
0010
0001
0000
0000
0000
0100
0000
0000
0010
0100
0000
0000
0000
,  // measure 45
0100
0000
0000
0010
0000
0000
1000
0000
0000
0000
0001
0000
0100
0000
0000
0000
,  // measure 46
0100
0000
0000
0100
0001
0000
0000
0000
0001
0000
0000
0001
1000
0000
0000
0000
,  // measure 47
1000
0000
0000
1000
0010
0000
0000
0000
0010
0000
0000
0010
0100
0000
0000
0000
,  // measure 48
0100
0000
0000
0100
0001
0000
0000
0000
0001
0000
0000
0001
1000
0000
0000
0000
,  // measure 49
0001
0000
0000
1000
0000
0000
0001
0000
0000
0000
1000
0000
1001
0000
0000
0000
;

//---------------dance-single - Blank----------------
#NOTES:
     dance-single:
     Blank:
     Easy:
     3:
     0.196,0.207,0.132,0.000,0.038,132.000,14.000,0.000,0.000,0.000,0.000,0.196,0.207,0.132,0.000,0.038,132.000,14.000,0.000,0.000,0.000,0.000: // measure 1
0000
0000
0000
0000
,  // measure 2
0000
0000
0000
0000
,  // measure 3
0000
0000
0000
0000
,  // measure 4
0000
0000
0000
0000
,  // measure 5
1000
0000
0100
0000
,  // measure 6
0010
0000
0001
0000
,  // measure 7
0100
0000
0010
0000
,  // measure 8
1000
0000
0001
0000
,  // measure 9
1100
0000
0000
0000
,  // measure 10
0011
0000
0000
0000
,  // measure 11
0110
0000
0000
0000
,  // measure 12
1001
0000
1000
0001
,  // measure 13
1100
0000
0000
0000
,  // measure 14
0011
0000
0000
0000
,  // measure 15
0101
0000
0000
0000
,  // measure 16
1000
0000
0000
0100
0000
0000
0010
0000
0000
0000
0000
0000
0000
0000
0000
0000
,  // measure 17
0001
0001
0100
0100
,  // measure 18
0010
0010
1000
1000
,  // measure 19
0001
0001
0100
0100
,  // measure 20
0001
0000
0000
1000
0000
0000
0100
0000
0000
0000
0000
0000
0000
0000
0000
0000
,  // measure 21
0010
0010
0001
0001
,  // measure 22
0100
0100
0010
0010
,  // measure 23
1000
1000
0001
0001
,  // measure 24
1000
0000
0000
0010
0000
0000
0100
0000
0000
0000
0010
0000
0100
0000
0000
0000
,  // measure 25
0001
0000
1000
0000
,  // measure 26
0011
0000
0000
0000
,  // measure 27
1100
0000
0000
0000
,  // measure 28
0110
0000
0000
0000
,  // measure 29
1001
0000
1000
1000
,  // measure 30
1100
0000
0000
0000
,  // measure 31
0011
0000
0000
0000
,  // measure 32
0101
0000
0000
0000
,  // measure 33
1000
0000
0000
1000
0000
0000
1000
0000
0000
0000
0000
0000
0000
0000
0000
0000
,  // measure 34
0010
0010
0100
0100
,  // measure 35
0001
0001
1000
1000
,  // measure 36
0100
0100
1000
1000
,  // measure 37
0010
0000
0000
0100
0000
0000
0001
0000
0000
0000
0000
0000
0000
0000
0000
0000
,  // measure 38
1000
1000
0100
0100
,  // measure 39
0010
0010
0100
0100
,  // measure 40
1000
1000
0001
0001
,  // measure 41
0100
0000
0000
0010
0000
0000
1000
0000
0000
0000
0010
0000
1000
0000
0000
0000
,  // measure 42
0010
0100
0010
0100
,  // measure 43
0001
1000
0100
0010
,  // measure 44
0001
0100
0010
0100
,  // measure 45
1000
0000
0000
0100
0000
0000
0010
0000
0000
0000
0100
0000
0010
0000
0000
0000
,  // measure 46
1000
0100
0010
0100
,  // measure 47
0001
0100
1000
0010
,  // measure 48
0001
0010
0100
0001
,  // measure 49
1000
0000
0000
0100
0000
0000
0010
0000
0000
0000
0100
0000
0010
0000
0000
0000
;

//---------------dance-single - LIGHT----------------
#NOTES:
     dance-single:
     LIGHT:
     Beginner:
     2:
     0.130,0.161,0.019,0.066,0.038,88.000,2.000,7.000,0.000,0.000,0.000,0.130,0.161,0.019,0.066,0.038,88.000,2.000,7.000,0.000,0.000,0.000: // measure 1
0000
0000
0000
0000
,  // measure 2
0000
0000
0000
0000
,  // measure 3
0000
0000
0000
0000
,  // measure 4
0000
0000
0000
0000
,  // measure 5
0001
0000
0000
0000
,  // measure 6
0100
0000
0000
0000
,  // measure 7
0010
0000
0000
0000
,  // measure 8
1000
0000
0000
0000
,  // measure 9
0001
0000
0000
0000
,  // measure 10
1000
0000
0000
0000
,  // measure 11
0100
0000
0000
0000
,  // measure 12
0010
0000
0001
0000
,  // measure 13
0001
0000
0000
0000
,  // measure 14
1100
0000
0000
0000
,  // measure 15
1010
0000
0000
0000
,  // measure 16
0001
0000
0000
0001
0000
0000
0001
0000
0000
0000
0000
0000
0000
0000
0000
0000
,  // measure 17
1000
0000
0010
0000
,  // measure 18
0100
0000
0001
0000
,  // measure 19
1000
0000
0010
0000
,  // measure 20
1000
0000
0000
1000
0000
0000
1000
0000
0000
0000
0000
0000
0000
0000
0000
0000
,  // measure 21
0100
0000
1000
0000
,  // measure 22
0010
0000
0100
0000
,  // measure 23
0001
0000
1000
0000
,  // measure 24
0100
0000
0000
0100
0000
0000
0100
0000
0000
0000
0010
0000
0010
0000
0000
0000
,  // measure 25
0001
0000
0000
0000
,  // measure 26
2000
0000
0000
0000
,  // measure 27
0002
3000
0000
0000
,  // measure 28
0200
0003
0000
0000
,  // measure 29
0020
0300
0000
0000
,  // measure 30
2000
0030
0000
0000
,  // measure 31
0200
3000
0000
0000
,  // measure 32
0020
0300
0000
0000
,  // measure 33
0031
0000
0000
0001
0000
0000
0001
0000
0000
0000
0000
0000
0000
0000
0000
0000
,  // measure 34
0100
0000
0010
0000
,  // measure 35
1000
0000
0001
0000
,  // measure 36
0010
0000
0001
0000
,  // measure 37
0010
0000
0000
0010
0000
0000
0010
0000
0000
0000
0000
0000
0000
0000
0000
0000
,  // measure 38
0001
0000
0010
0000
,  // measure 39
0100
0000
0010
0000
,  // measure 40
0001
0000
1000
0000
,  // measure 41
0100
0000
0000
0100
0000
0000
0100
0000
0000
0000
1000
0000
1000
0000
0000
0000
,  // measure 42
0001
0000
0010
0000
,  // measure 43
0001
0000
0100
0000
,  // measure 44
0010
0000
1000
0000
,  // measure 45
0001
0000
0000
0001
0000
0000
0001
0000
0000
0000
0010
0000
0010
0000
0000
0000
,  // measure 46
0001
0000
0100
0000
,  // measure 47
0010
0000
1000
0000
,  // measure 48
0001
0000
0010
0000
,  // measure 49
0100
0000
0000
0100
0000
0000
0100
0000
0000
0000
1000
0000
0100
0000
0000
0000
;
