#TITLE:就是我;
#SUBTITLE:;
#ARTIST:林俊杰;
#TITLETRANSLIT:Jiu Shi Wo;
#SUBTITLETRANSLIT:;
#ARTISTTRANSLIT:Lin Jun Jie;
#GENRE:;
#CREDIT:;
#BANNER:jiushiwo-banner.png;
#BACKGROUND:jiushiwo-bg.png;
#LYRICSPATH:;
#CDTITLE:;
#MUSIC:jiu shi wo.mp3;
#OFFSET:-0.056;
#SAMPLESTART:72.000;
#SAMPLELENGTH:8.727;
#SELECTABLE:YES;
#BPMS:0.000=110.000;
#STOPS:;
#BGCHANGES:212.000=jiushiwo-bg2.png=1.000=0=0=1=====,
99999=-nosongbg-=1.000=0=0=0 // don't automatically add -songbackground-
;
#KEYSOUNDS:;

//---------------dance-single - Blank----------------
#NOTES:
     dance-single:
     Blank:
     Easy:
     3:
     0.212,0.221,0.267,0.133,0.000,130.000,32.000,16.000,0.000,0.000,0.000,0.212,0.221,0.267,0.133,0.000,130.000,32.000,16.000,0.000,0.000,0.000: // measure 1
0000
0000
0000
0000
,  // measure 2
0010
0100
0001
0000
,  // measure 3
1000
0010
0000
0101
,  // measure 4
0001
0010
0000
0000
,  // measure 5
0001
0100
0001
0011
,  // measure 6
0001
0010
0000
0011
,  // measure 7
0001
0100
0000
0110
,  // measure 8
0010
1000
0000
1001
,  // measure 9
0001
1000
0100
1100
,  // measure 10
0020
0030
0010
0100
,  // measure 11
0010
0010
1000
0000
,  // measure 12
2000
3000
1000
0100
,  // measure 13
1000
0010
1000
0000
,  // measure 14
0200
0300
0100
1000
,  // measure 15
0001
0010
0001
0100
,  // measure 16
0020
0000
2030
0000
,  // measure 17
3002
0000
0000
0000
0023
0000
0000
0030
,  // measure 18
0011
0000
1100
0000
,  // measure 19
0110
0000
0010
0001
,  // measure 20
0100
0000
0010
0010
,  // measure 21
1001
1010
0101
0000
,  // measure 22
0110
0000
1100
0000
,  // measure 23
0101
0000
0100
0100
,  // measure 24
0002
0000
0000
0000
0203
0000
0000
0300
,  // measure 25
1010
0000
0100
1000
,  // measure 26
0020
0000
0000
0000
0000
0000
0000
0030
,  // measure 27
0002
0000
0000
0003
1000
0000
0010
0000
,  // measure 28
2000
0000
0000
0000
0000
0000
0000
3000
,  // measure 29
0200
0000
0000
0300
1000
0000
0010
0000
,  // measure 30
0200
0000
0000
0000
0000
0000
0000
0300
,  // measure 31
0002
0000
0000
0003
1000
0000
0010
0000
,  // measure 32
0110
0000
1001
0000
,  // measure 33
0000
0000
0100
1000
,  // measure 34
1100
0000
1100
0000
,  // measure 35
1001
0000
1000
0001
,  // measure 36
0011
0000
0010
0001
,  // measure 37
1000
0010
1010
0000
,  // measure 38
0100
0000
0010
0000
,  // measure 39
0100
0000
0010
0001
,  // measure 40
0010
0000
0010
0000
,  // measure 41
0100
0000
0001
0100
,  // measure 42
0101
0000
0101
0000
,  // measure 43
1010
0000
1010
0000
,  // measure 44
1010
0000
0001
0001
,  // measure 45
0100
0100
0010
0000
,  // measure 46
1000
0000
1000
0000
,  // measure 47
0010
0000
0100
0100
,  // measure 48
0110
0000
0110
0000
,  // measure 49
1001
0000
1000
0010
,  // measure 50
2000
0000
0000
0000
,  // measure 51
0000
0000
0000
0000
,  // measure 52
0000
0000
0000
0000
0000
0000
0000
3000
,  // measure 53
1000
0000
1000
0000
,  // measure 54
1001
0000
0000
0000
;

//---------------dance-single - Blank----------------
#NOTES:
     dance-single:
     Blank:
     Hard:
     7:
     0.408,0.420,0.392,0.083,0.050,286.000,47.000,10.000,4.000,2.000,0.000,0.408,0.420,0.392,0.083,0.050,286.000,47.000,10.000,4.000,2.000,0.000: // measure 1
0000
0000
0000
0000
,  // measure 2
0100
0000
0000
0000
0010
0000
0000
1000
0001
0000
1000
0000
0000
0000
0000
0000
,  // measure 3
0100
0000
0000
0000
0010
0000
0000
0001
0100
0000
0000
0000
0110
0000
0000
0000
,  // measure 4
1000
0000
0100
0000
0010
0000
0001
0000
0000
1000
0000
0000
0000
0000
0000
0000
,  // measure 5
1000
0001
0100
0010
,  // measure 6
1000
0000
0010
0000
0100
0000
0000
0000
0001
0000
0000
0000
1000
0000
0000
0001
,  // measure 7
0100
0000
0000
0000
0010
0000
0000
1000
0000
1000
0000
0000
0010
0000
0000
0000
,  // measure 8
0100
0001
1000
0010
0000
1000
1001
0000
,  // measure 9
0100
0100
0000
0000
0010
0000
1001
0000
,  // measure 10
0110
0000
0010
0100
0010
0000
1000
0001
,  // measure 11
1000
0000
0000
0000
0010
0000
0000
0010
1000
0000
0000
0010
1000
0000
1000
0000
,  // measure 12
0001
0000
0010
0100
0010
0000
0001
0000
,  // measure 13
0100
0001
0100
0010
1000
1000
0100
0100
,  // measure 14
1100
0000
0010
0010
0010
0000
0001
0001
,  // measure 15
0001
0000
0000
0000
0100
0000
0000
0010
1000
0000
0000
0000
0010
0000
0000
0000
,  // measure 16
2000
0000
0100
0100
0100
0000
0010
3000
,  // measure 17
0100
0101
1010
0110
,  // measure 18
1001
0000
1000
0100
0011
0000
0001
0100
,  // measure 19
1010
0000
1000
0010
0100
0010
1000
0001
,  // measure 20
0101
0000
0100
1000
0100
0010
1000
0100
,  // measure 21
1100
0000
2000
0000
0002
0000
0010
3003
,  // measure 22
0110
0000
1000
0100
1000
0000
0001
0010
,  // measure 23
0001
0000
1000
1000
0001
0001
0100
0010
,  // measure 24
1000
0000
0110
0100
0100
0000
0110
0010
,  // measure 25
0010
0000
0000
0000
1000
0000
0000
0000
0010
1000
0000
0000
0100
0000
0010
0000
,  // measure 26
0002
0000
0100
0100
,  // measure 27
0103
0010
2000
0000
,  // measure 28
3200
0000
0000
0000
0010
0300
0001
0000
,  // measure 29
0011
1100
1001
0000
,  // measure 30
0002
0000
0000
0000
0100
0000
0100
0003
,  // measure 31
0010
1000
0010
0000
1000
0000
0000
0000
0000
0000
0000
0000
0100
0000
0000
0000
,  // measure 32
1001
0000
0001
0001
0101
0100
0110
0000
,  // measure 33
1000
0000
0001
0000
0100
0010
1000
0010
,  // measure 34
1010
0000
1000
1000
1001
0000
0001
0001
,  // measure 35
1001
0000
1000
0100
0010
0100
0001
0100
,  // measure 36
0110
0000
1000
1100
0100
0110
0010
0011
,  // measure 37
2000
0000
0002
3000
0200
0000
1010
0303
,  // measure 38
0001
0000
1000
0100
0010
0010
0011
0001
,  // measure 39
1000
0000
0001
0001
0001
0000
1000
1000
,  // measure 40
1000
0000
0010
0010
0010
0000
0101
0000
,  // measure 41
1010
0000
0000
0000
0101
0010
1000
0000
,  // measure 42
1001
0000
1000
0100
1000
0000
0001
0010
,  // measure 43
0001
0000
0100
0010
1000
0001
0100
0010
,  // measure 44
1000
1000
0100
0010
0001
0100
0010
0100
,  // measure 45
1001
0101
1010
MMMM
,  // measure 46
0001
0000
1000
0100
1000
1000
0001
0001
,  // measure 47
0101
0000
0100
0100
0010
0010
1000
0100
,  // measure 48
1000
0000
1001
0001
0001
0000
0110
0100
,  // measure 49
0001
0000
1000
0100
1000
0010
0100
0001
,  // measure 50
0101
0000
0000
0000
1000
0000
0000
0010
0100
0000
0000
0000
0001
0000
0000
0000
,  // measure 51
0000
0100
0110
1000
0001
0001
1001
0010
,  // measure 52
0100
0000
0001
0010
0100
0000
1000
0100
,  // measure 53
0010
0000
0011
1100
,  // measure 54
1001
0000
0000
0000
;

//---------------dance-single - Blank----------------
#NOTES:
     dance-single:
     Blank:
     Medium:
     5:
     0.310,0.309,0.058,0.125,0.000,238.000,7.000,15.000,0.000,0.000,0.000,0.310,0.309,0.058,0.125,0.000,238.000,7.000,15.000,0.000,0.000,0.000: // measure 1
0000
0000
0000
0000
,  // measure 2
1000
0100
1000
0000
0001
0000
0100
0000
,  // measure 3
0010
1000
0010
0000
0100
0000
0001
0000
,  // measure 4
1000
0010
1000
0000
0010
0000
0010
0000
,  // measure 5
1000
0000
0001
0000
0100
0001
0010
0000
,  // measure 6
0001
0000
0100
0000
0100
0010
0100
0000
,  // measure 7
0001
0000
0100
0000
0010
1000
0100
0000
,  // measure 8
1000
0100
1000
0000
0001
0010
0001
0000
,  // measure 9
1000
1000
0000
0000
0001
0000
0001
0000
,  // measure 10
1000
0000
0001
0100
0001
0000
1000
0100
,  // measure 11
1000
0010
0100
0000
,  // measure 12
0001
0000
1000
0010
0100
0000
0001
1000
,  // measure 13
0010
0100
0010
0000
,  // measure 14
1000
0000
0100
0000
1000
0010
0100
0001
,  // measure 15
1000
0100
0001
0100
,  // measure 16
2000
0000
3002
0000
,  // measure 17
0103
0010
1000
0010
,  // measure 18
1010
0000
1000
0100
1000
0000
0100
0001
,  // measure 19
0100
0000
1000
0100
0001
0100
1000
0100
,  // measure 20
0001
0000
0100
1000
0100
0010
0100
0001
,  // measure 21
0100
1000
0010
0000
,  // measure 22
1000
0000
0001
0010
0001
0000
0100
0001
,  // measure 23
0100
0000
0010
1000
0100
0010
0001
0100
,  // measure 24
0010
1000
0100
1000
,  // measure 25
0010
0000
1000
0010
,  // measure 26
2000
0000
3200
0000
,  // measure 27
0302
0000
0203
0000
,  // measure 28
2300
0000
3020
0000
,  // measure 29
0032
0000
0203
0000
,  // measure 30
0302
0000
0023
0000
,  // measure 31
2030
0000
3200
0300
,  // measure 32
0021
0000
0031
0000
,  // measure 33
0011
0000
0000
0000
1000
0100
1000
0000
,  // measure 34
1001
0000
0100
0010
0100
0000
0001
0010
,  // measure 35
0001
0000
0100
0000
1000
0100
1000
0100
,  // measure 36
1000
0000
0100
0000
0010
0000
1000
0100
,  // measure 37
1000
0010
0100
1001
,  // measure 38
0010
0000
1000
0100
1000
0000
0010
0100
,  // measure 39
0010
0000
1000
0100
0010
0100
0001
0100
,  // measure 40
0010
0001
1000
0010
,  // measure 41
1000
0000
0000
0000
0010
0010
0010
0000
,  // measure 42
1000
0000
0100
1000
0100
0000
0010
0001
,  // measure 43
0010
0000
0100
0000
1000
0100
1000
0010
,  // measure 44
1000
0000
0100
0000
0010
0000
0001
0010
,  // measure 45
0100
1000
0010
0000
,  // measure 46
1000
0000
0100
1000
0100
0000
0010
0001
,  // measure 47
0010
0000
0100
0000
1000
0000
0100
0010
,  // measure 48
0001
1000
0010
1000
,  // measure 49
0001
0100
0010
1000
,  // measure 50
1010
0000
0010
0000
0100
0010
0100
0010
,  // measure 51
0100
0000
0001
0000
1000
0010
1000
0000
,  // measure 52
0010
0000
0010
0000
0100
0001
0100
0000
,  // measure 53
0001
0100
0001
0000
1000
0000
1000
0000
,  // measure 54
1001
0000
0000
0000
;
