#TITLE:Fandangu los Lobos;
#SUBTITLE:;
#ARTIST:Hevia;
#TITLETRANSLIT:;
#SUBTITLETRANSLIT:;
#ARTISTTRANSLIT:;
#GENRE:;
#CREDIT:;
#BANNER:fandangu-banner.png;
#BACKGROUND:fandangu-bg.png;
#LYRICSPATH:;
#CDTITLE:;
#MUSIC:Hevia - Fandangu los Lobos (dwi edit).mp3;
#OFFSET:-0.043;
#SAMPLESTART:10.271;
#SAMPLELENGTH:12.000;
#SELECTABLE:YES;
#DISPLAYBPM:135.000;
#BPMS:0.000=135.000;
#STOPS:;
#BGCHANGES:;
#KEYSOUNDS:;

//---------------dance-single - ----------------
#NOTES:
     dance-single:
     :
     Hard:
     11:
     0.796,0.848,0.000,0.025,0.951,662.000,0.000,3.000,0.000,0.000,0.000,0.796,0.848,0.000,0.025,0.951,662.000,0.000,3.000,0.000,0.000,0.000: // measure 1
0000
0000
0000
0000
,  // measure 2
0000
0000
0000
0000
,  // measure 3
0000
0000
0000
0000
,  // measure 4
1000
0100
0000
0010
0001
0100
0010
1000
,  // measure 5
0000
0010
0100
0001
0100
0000
0000
0010
,  // measure 6
1000
0100
0010
0100
0001
0100
1000
0010
,  // measure 7
1000
0100
0010
0100
1000
0001
0010
0001
0100
0010
1000
0001
0100
0010
0100
0001
,  // measure 8
1000
0010
0100
0001
1000
0001
0100
0010
0100
1000
0100
0001
0100
0010
1000
0100
,  // measure 9
1000
0001
0010
1000
0010
0001
0100
1000
0100
0010
1000
0001
0100
0000
0000
0000
,  // measure 10
0001
0100
0010
0100
1000
0100
0001
1000
0010
0001
0010
1000
0100
0001
0100
1000
,  // measure 11
0010
1000
0001
0100
0010
0000
0000
0000
1000
0001
0100
0010
1000
0100
1000
0001
,  // measure 12
0010
1000
0010
0001
0100
0010
1000
0100
0010
0001
1000
0001
0010
0100
1000
0001
,  // measure 13
0010
0000
0001
0000
1000
0000
0100
0000
1000
0010
1000
0001
0100
0000
0010
0000
,  // measure 14
1000
0000
0001
0100
0010
0000
1000
0000
0001
0000
1000
0000
0010
0000
0100
0000
,  // measure 15
0001
0010
0001
0100
0001
0000
1000
0000
0010
0000
0100
0001
1000
0000
0010
1000
,  // measure 16
0001
0000
0100
0000
0010
0000
0100
0001
0010
0000
1000
0000
0010
0000
0100
0000
,  // measure 17
1000
0000
0001
0100
1000
0000
0100
0000
0001
0000
1000
0000
0100
0000
0010
0001
,  // measure 18
0100
0000
0010
1000
0010
0000
0100
0000
0001
0000
1000
0010
0001
0000
1000
0100
,  // measure 19
0010
0000
1000
0000
0001
0000
1000
0000
0010
0100
0001
0100
1000
0000
0100
0000
,  // measure 20
0010
0000
1000
0001
0100
0010
0100
0001
0100
0000
0010
0000
1000
0000
0001
0000
,  // measure 21
0100
1000
0100
0001
0010
0000
0100
0000
1000
0000
0100
1000
0010
0001
0010
1000
,  // measure 22
0010
0000
0100
0000
0001
0000
1000
0010
0100
0010
0100
1000
0100
0000
1000
0000
,  // measure 23
0001
0000
0010
1000
0100
0001
0100
0010
1000
0000
0001
0100
1000
0000
0010
1000
,  // measure 24
0010
0100
0001
0100
1000
0000
0100
1000
0100
0000
0010
1000
0100
0010
0100
0001
,  // measure 25
0100
0000
0100
1000
0001
0000
0100
1000
0001
0010
1000
0100
0001
0000
0100
1000
,  // measure 26
0100
0000
1000
0010
0100
0001
1000
0010
0100
0000
0001
0010
0001
0000
1000
0100
,  // measure 27
0010
1000
0010
0100
0010
1000
0010
0100
1000
0000
0010
1000
0001
0000
0000
0000
,  // measure 28
1000
0000
0001
0100
0010
0000
1000
0100
0010
0000
0000
0000
0010
0000
0001
0100
,  // measure 29
0010
0000
1000
0100
0010
0000
0000
0000
0001
0000
1000
0100
1000
0000
0010
0100
,  // measure 30
0001
0000
0000
0000
1000
0100
1000
0010
0001
0000
0010
0100
1000
0000
0000
0000
,  // measure 31
0100
0000
0001
0010
0001
0000
0100
0001
0010
0000
0000
0000
0001
0000
0010
0100
,  // measure 32
1000
0000
0100
1000
0001
0000
0000
0000
1000
0000
0100
1000
0100
0000
0010
0001
,  // measure 33
0010
0000
0000
0000
0001
0010
0100
0010
1000
0000
0010
0100
1000
0000
0000
0000
,  // measure 34
0001
0000
0100
0010
1000
0000
0100
0010
0001
0000
0000
0000
1000
0000
0100
1000
,  // measure 35
0010
0000
1000
0001
0010
0000
0000
0000
0001
0000
0001
0010
0001
0000
0100
1000
,  // measure 36
0100
0000
0000
0000
0010
1000
0001
0100
0010
0000
0100
0010
1000
0000
0000
0000
,  // measure 37
2000
0000
0000
0000
0100
0000
0100
0000
0000
0000
0010
0000
0010
0000
3000
0001
,  // measure 38
1000
0100
1000
0100
0010
0001
0010
0001
1000
0000
0000
0010
0100
0000
0001
0000
,  // measure 39
0010
0001
0100
0001
0100
0000
0000
0001
0010
0000
0100
0000
1000
0010
1000
0001
,  // measure 40
1000
0000
0000
0010
1000
0000
0001
0000
0100
0000
0001
0000
0100
1000
0100
0010
,  // measure 41
0100
0000
0001
0000
1000
0001
0010
0001
0100
0000
0010
0000
1000
0000
0001
0000
,  // measure 42
1000
0010
0100
0001
1000
0000
0001
0000
0100
0000
0001
0000
1000
0001
0010
1000
,  // measure 43
0010
0000
0001
0100
1000
0000
0100
0010
1000
0001
0100
0010
0100
0000
0010
1000
,  // measure 44
0001
0000
0100
0010
0100
0001
1000
0100
1000
0000
0100
1000
0001
0000
1000
0010
,  // measure 45
1000
0100
0001
0100
1000
0000
0001
0000
0010
0000
1000
0000
0010
1000
0001
0100
,  // measure 46
1000
0000
0001
0000
0100
0000
1000
0000
0001
0010
1000
0100
0001
0000
0000
0100
,  // measure 47
1000
0000
0000
0000
0100
1000
0100
1000
0100
0000
0000
1000
0001
0000
0000
0100
,  // measure 48
0010
1000
0010
0100
0001
0000
0000
1000
0010
0000
0000
0100
0001
1000
0010
0100
,  // measure 49
0001
0000
0100
0010
0100
0000
0100
0000
0001
0100
0001
0100
0001
0000
1000
0010
,  // measure 50
0100
0000
0000
0000
0001
1000
0010
1000
0100
0000
1000
0001
0100
0000
0010
1000
,  // measure 51
0010
1000
0100
0010
0001
0000
0100
0001
0100
0000
0010
1000
0001
0100
0001
0010
,  // measure 52
1000
0000
0010
0001
0100
0000
0001
0000
1000
0100
1000
0010
0100
0001
1000
0010
,  // measure 53
0100
0000
0001
0000
0010
0001
0010
0001
0010
0000
0100
1000
0100
0000
1000
0000
,  // measure 54
0010
0100
1000
0100
0001
0000
0100
0001
0010
0000
0100
0000
1000
0000
0100
0000
,  // measure 55
1000
0000
0000
1000
0001
0000
0100
0000
0010
0000
1000
0100
1000
0010
1000
0001
,  // measure 56
0010
0000
0100
0000
0001
0100
1000
0010
0001
0000
0010
1000
0010
0000
0100
0001
,  // measure 57
0010
0100
1000
0001
0100
0000
0001
1000
0010
0000
0100
0000
1000
0100
0001
0010
,  // measure 58
1000
0000
0000
0010
0100
0000
0001
0000
0100
1000
0100
0010
0100
0001
0100
1000
,  // measure 59
0001
0000
1000
0000
0010
1000
0010
1000
0010
0000
0100
0001
0100
0000
1000
0000
,  // measure 60
0100
0001
0010
1000
0010
0000
0100
0010
1000
0000
0010
0000
1000
0010
0001
0100
,  // measure 61
1000
0000
0100
0010
1000
0000
0001
0000
1000
0100
1000
0001
1000
0010
1000
0000
,  // measure 62
0001
0000
0100
0000
0001
1000
0001
2000
0002
0000
0000
0000
0000
0000
0000
0000
,  // measure 63
0000
0000
0000
0000
,  // measure 64
0000
3003
0000
0000
;

//---------------dance-single - Blank----------------
#NOTES:
     dance-single:
     Blank:
     Medium:
     8:
     0.582,0.530,0.042,0.059,0.352,474.000,5.000,7.000,0.000,0.000,0.000,0.582,0.530,0.042,0.059,0.352,474.000,5.000,7.000,0.000,0.000,0.000:
0000
0000
0000
0000
,
0000
0000
0000
0000
,
0000
0000
0000
0000
,
1001
1000
0000
0001
0100
0010
1000
0100
,
0000
0010
0001
1000
0010
0000
0000
0010
,
1000
0001
1000
0010
1000
0100
1000
0010
,
1010
0010
0000
1000
0010
1000
0010
0100
,
0000
0001
0100
0001
0010
0000
0000
0001
,
0010
0001
1000
0010
1000
0001
1000
0010
,
0110
0100
0000
0100
0010
1000
0001
0100
,
0000
0010
1000
0100
0010
0000
0000
0100
,
1000
0001
0010
0001
0100
0001
1000
0010
,
1000
0100
1000
0100
1000
0000
0001
0100
,
0010
0100
0001
0000
1000
0100
1000
0010
,
0100
0000
0010
0100
0001
0010
0100
0000
,
0010
0000
1000
0000
0010
0000
0100
0001
0100
0000
0000
0000
1000
0000
0100
0000
,
0010
0000
0001
0100
0001
0000
0000
0000
0010
0000
0100
0000
0010
0000
0001
0100
,
0001
0000
0000
0000
1000
0000
0100
0000
0010
0000
0100
1000
0100
0000
0000
0000
,
0010
0000
0100
0000
1000
0000
0010
0100
0010
0000
1000
0000
0100
0000
1000
0000
,
0010
0000
0100
0001
0100
0000
0000
0000
0001
0000
0100
0000
0001
0000
0010
0100
,
0010
0000
0001
0000
0100
0000
0001
0000
1000
0000
0100
1000
0100
0000
0000
0000
,
0010
0000
0001
0000
0100
0000
0001
0010
0001
0000
0000
0000
0010
0000
0100
0000
,
0001
0000
0100
1000
0100
0000
0000
0000
0010
0000
0001
0000
0010
0000
0100
0010
,
0100
0000
0000
0000
1000
0000
0100
0000
0001
0000
0100
0010
0100
0000
0000
0000
,
1000
0000
0100
1000
0100
0000
0010
0001
0010
0000
0000
0000
0100
0000
1000
0010
,
1000
0000
0001
0100
0001
0000
0000
0000
0100
0000
0010
1000
0010
0000
0100
0001
,
0100
0000
0000
0000
0001
0010
0001
0010
0001
0000
0100
0001
0100
0000
0000
0000
,
0001
0000
1000
0010
1000
0000
0001
0100
0001
0000
0000
0000
1000
0000
0001
0100
,
0001
0000
0100
0010
0100
0000
0000
0000
0010
0000
1000
0001
1000
0000
0010
0100
,
0010
0000
0000
0000
0100
0001
0100
0001
0100
0000
0010
0100
0010
0000
0000
0000
,
0001
0000
0010
1000
0010
0000
0100
0001
0100
0000
0000
0000
0010
0000
0100
0010
,
0100
0000
0010
1000
0010
0000
0000
0000
1000
0000
0001
0100
0001
0000
1000
0010
,
1000
0000
0000
0000
0010
0100
0010
0100
0010
0000
1000
0100
1000
0000
0000
0000
,
0001
0000
1000
0100
1000
0000
0010
1000
0010
0000
0000
0000
0100
0000
0001
0010
,
0001
0000
1000
0010
1000
0000
0000
0000
0010
0000
0100
0001
0100
0000
0010
1000
,
0010
0000
0000
0000
1000
0001
1000
0001
1000
0000
0010
0000
0100
0000
0010
0000
,
2000
0000
0000
0000
0000
0000
0001
3000
,
0110
0000
1010
0000
0010
0100
0001
1000
,
0010
2000
0000
3001
,
0100
0010
1000
0100
0001
0000
0200
0000
,
0000
0000
1300
0000
0010
0100
0001
0100
,
1000
0200
0000
0310
,
0001
0010
1000
0100
0001
0000
0200
0000
,
0000
0000
0000
0000
0310
0000
0000
0000
1000
0000
0100
1000
0100
0000
0010
0000
,
0100
0000
0001
0000
0100
0000
0010
0001
0010
0000
1000
0000
0010
0000
0100
0000
,
1000
0000
0010
0100
0010
0000
1000
0000
0100
0000
0001
0000
0100
0000
1000
0010
,
1000
0000
0001
0000
0100
0000
0010
0000
1000
0000
0001
0100
0001
0000
1000
0000
,
0010
0000
0100
0000
0010
0000
1000
0100
1000
0000
0010
0000
0100
0000
0010
0000
,
0100
0000
0001
0010
0001
0000
0100
0000
0010
0000
1000
0000
0001
0000
0100
0010
,
0100
0000
0010
0000
1000
0000
0000
0000
1000
0000
0100
1000
0100
0000
0010
0100
,
0010
0000
0000
0000
0001
0000
0100
0010
0100
0000
0001
0010
0001
0000
0000
0000
,
0100
0000
0010
1000
0010
0000
0100
0010
0100
0000
0000
0000
0001
0100
0001
0100
,
0001
0000
1000
0001
1000
0000
0000
0000
0010
0000
0100
0001
0100
0000
0010
0100
,
0010
0000
0000
0000
1000
0000
0100
1000
0100
0000
0010
0001
0010
0000
0000
0000
,
0001
0000
0100
0001
0100
0000
0001
1000
0001
0000
0000
0000
1000
0010
1000
0010
,
1000
0000
0100
1000
0100
0000
0000
0000
1000
0000
0010
0100
0010
0000
0100
0000
,
0001
0000
1000
0000
0010
0000
0100
0001
0100
0000
0010
0000
1000
0000
0010
0000
,
0001
0000
0010
0100
0010
0000
0100
0000
0001
0000
1000
0000
0100
1000
0100
1000
,
0100
0000
0010
0000
0001
0000
0000
0000
1000
0000
0010
1000
0010
0000
1000
0000
,
0100
0000
0001
0000
0100
0000
1000
0100
1000
0000
0010
0000
0001
0000
0010
0000
,
0100
0000
0001
0010
0001
0000
0100
0000
1000
0000
0100
0000
0010
1000
0010
1000
,
0010
0000
0100
0000
0001
0000
1000
0002
2000
0000
0000
0000
0000
0000
0000
0000
,
0000
0000
0000
0000
,
0000
3003
0000
0000
;

//---------------dance-single - Blank----------------
#NOTES:
     dance-single:
     Blank:
     Easy:
     6:
     0.448,0.424,0.276,0.059,0.004,334.000,33.000,7.000,0.000,0.000,0.000,0.448,0.424,0.276,0.059,0.004,334.000,33.000,7.000,0.000,0.000,0.000:
0000
0000
0000
0000
,
0000
0000
0000
0000
,
0000
0000
0000
0000
,
0100
1000
0000
0100
1000
0001
0010
0100
,
0000
1000
0001
0010
0001
0100
0000
0010
,
1000
0001
0100
0010
1000
0100
1000
0010
,
1000
0100
1000
0100
1000
0100
1000
0001
,
0010
0001
0010
0001
0010
0100
0010
0100
,
0010
0100
1000
0010
1000
0010
1000
0000
,
0001
0010
0001
0010
0001
0100
0010
0100
,
0010
0100
0010
0000
1000
0100
0010
0100
,
0001
0100
0010
0100
1000
0100
0010
0000
,
0001
0100
0010
1000
0100
0010
0010
0001
,
0100
0010
1000
0000
0100
1000
0001
0100
,
0010
0000
0100
0001
0010
0001
0100
0000
,
0001
0100
0010
1000
0001
0001
0100
0001
,
0010
0001
1000
0000
0010
1000
0010
1000
,
0001
0000
0001
0000
0100
0000
0001
0000
1000
0000
0010
0000
1000
0000
0100
1000
,
0100
0010
0100
0001
0100
1000
0010
0100
,
0010
0001
0010
0010
1000
0100
0010
0001
,
0010
0001
0100
0100
0010
1000
0001
0000
,
0010
0001
0010
0001
0010
0000
0100
1000
,
0100
1000
0100
0000
0010
0100
0010
0100
,
0010
0000
0001
0100
0010
1000
0100
0100
,
1100
1010
0110
0101
,
0110
1100
0110
1010
,
0110
0011
0110
1010
,
1000
0100
1000
0010
,
0010
0100
0001
0000
0100
0000
1000
0000
,
0100
0000
0001
0010
0100
1000
0100
0000
,
1100
1001
0101
0110
,
1010
1100
0110
0011
,
0101
0110
1010
1001
,
0001
0100
0010
1000
,
1000
0100
1000
0000
0010
0000
0100
0000
,
0001
0000
1000
0100
1000
0100
1000
0000
,
0002
0000
0000
0000
0000
0000
1000
0003
,
1000
0000
0001
0000
0100
0000
0010
1000
,
0010
0000
0100
0000
0001
0010
0001
0000
,
1000
0000
0010
1000
0100
0000
0010
0000
,
0001
0100
0010
0000
0100
0000
0001
1000
,
0010
0000
1000
0000
0100
1000
0100
0000
,
0010
0000
0001
0100
0001
0000
1000
0000
,
1000
0000
1000
0000
0001
0100
0001
0010
,
0100
0100
1000
0010
0100
0010
1000
1000
,
0100
0010
0001
0100
0001
0001
1000
0010
,
0100
0010
1000
1000
0010
1000
0010
0100
,
0001
0001
0100
0010
1000
0010
0100
0100
,
0010
1000
0001
0100
0001
0001
1000
0100
,
1000
0100
1000
0000
1001
0000
1010
0000
,
0110
0101
0011
0101
,
0110
1100
0110
0002
,
0000
0000
2003
0000
,
0000
3020
0000
0000
,
0100
0100
0130
0001
,
1000
0010
2000
0000
,
0000
3001
0001
1000
,
0010
0000
1000
0000
0100
0000
0010
0001
,
0010
0001
0010
0000
0100
0000
1000
0000
,
1000
0010
0100
0100
,
0001
1000
0001
0002
,
1000
1000
2000
0000
,
0000
0000
0000
0000
,
0000
3003
0000
0000
;
