#TITLE:Erin Shore;
#SUBTITLE:;
#ARTIST:Corrs;
#TITLETRANSLIT:;
#SUBTITLETRANSLIT:;
#ARTISTTRANSLIT:;
#GENRE:;
#CREDIT:;
#BANNER:Erin Shore-banner.png;
#BACKGROUND:erin shore-bg.png;
#LYRICSPATH:;
#CDTITLE:;
#MUSIC:Erin Shore.mp3;
#OFFSET:-8.6550;
#BPMS:0.0=160.2136,
10.0=160.1423,
22.0=159.9147,
37.0=160.1281,
47.0=159.9695,
61.0=159.8579,
76.0=160.0949,
85.0=159.7870,
91.0=160.0000,
97.0=160.0000,
106.0=160.1423,
115.0=159.9052,
124.0=159.8106,
133.0=160.1423,
139.0=160.7143,
142.0=160.2850,
148.0=160.1423,
157.0=159.5745,
166.0=160.0854,
181.0=159.4331,
182.0=159.9289,
194.0=159.9289,
200.0=160.1661,
218.0=159.8579,
236.0=159.7728,
251.0=160.2850,
266.0=158.5903,
269.0=137.6147,
272.0=102.1277,
274.0=77.0218;
#SAMPLESTART:77.599998;
#SAMPLELENGTH:12.000000;
#SELECTABLE:YES;
#DISPLAYBPM:160.000000;
#STOPS:181.000000=0.753000
;
#BGCHANGES:;
#KEYSOUNDS:;
#ATTACKS:;

//---------------dance-single - ----------------
#NOTES:
     dance-single:
     :
     Beginner:
     2:
     0.184891,0.191699,0.140339,0.015593,0.000000,146.000000,18.000000,2.000000,0.000000,0.000000,0.000000,0.184891,0.191699,0.140339,0.015593,0.000000,146.000000,18.000000,2.000000,0.000000,0.000000,0.000000:
1000
0010
0000
0000
,
1100
0010
0000
0100
,
0000
0000
1001
0000
,
0001
1000
0001
0000
,
0100
0000
0001
1000
,
0010
0000
0100
0000
,
0000
0010
0000
1010
,
1000
0010
1000
0010
,
0000
0000
1000
0000
,
0000
1000
0100
1000
,
0001
0000
0000
1000
,
0000
0000
1001
0000
,
0000
0110
0000
0000
,
1100
0000
0100
1000
,
0000
0000
0010
0000
,
0000
1000
0010
0000
,
0100
0000
0000
0101
,
0000
0000
0001
0100
,
0000
0010
0100
0000
,
0001
0100
0000
0010
,
0100
0010
1000
0000
,
0000
1000
0000
0000
,
0010
1000
0010
1000
,
0000
0000
0001
0100
,
0010
0100
0000
0000
,
0001
0000
0000
1000
,
0100
0000
0001
0000
,
0000
0010
0000
0000
,
0100
0000
0000
0010
,
0000
0000
0001
0000
,
0010
0001
0000
0000
,
0100
0001
0000
0100
,
0000
0000
1000
0000
,
1000
0010
0000
0000
,
0100
0000
1000
0010
,
0000
0000
0100
0100
,
0100
0100
0000
0000
,
0110
0000
0000
1000
,
0100
1000
0100
0000
,
0000
1000
0100
0000
,
0011
0001
0000
1000
,
0000
0000
0011
0010
,
0000
0001
0000
0000
,
1100
0100
0000
0010
,
0001
0000
0010
0000
,
0000
0101
0010
0000
,
0000
0100
0000
0100
,
0001
0000
0000
0000
,
0000
0000
0100
0101
,
0000
0010
0100
0000
,
0010
0000
0000
0100
,
0100
0000
0000
0000
,
1000
0101
0000
0000
,
0001
0000
0000
0010
,
0100
1000
0010
0000
,
0000
1000
0000
0000
,
0001
0000
1000
0010
,
0010
1000
0010
0000
,
0000
0101
0000
0000
,
1000
0000
0000
0001
,
0000
0100
0001
0000
,
0000
0010
0000
0100
,
0010
0000
0000
1001
,
0000
0000
0010
0010
,
0010
0100
0000
0000
,
0100
0101
0000
0001
,
0000
1000
0001
1000
,
0001
0010
0000
0000
,
0001
0000
0100
2002
,
0000
0000
0000
0000
,
0000
3003
0000
0000
;

//---------------dance-single - ----------------
#NOTES:
     dance-single:
     :
     Easy:
     4:
     0.286247,0.273856,0.210508,0.054576,0.000000,223.000000,27.000000,7.000000,0.000000,0.000000,0.000000,0.286247,0.273856,0.210508,0.054576,0.000000,223.000000,27.000000,7.000000,0.000000,0.000000,0.000000:
0000
1001
0000
1000
,
0001
1000
0001
1000
,
0100
0010
0001
0100
,
0001
0000
2000
0000
0001
0000
0001
3000
,
0002
0000
1000
0000
1000
0003
0100
0000
,
0010
0100
0100
0001
,
0000
0010
0100
1000
,
0010
1000
0001
0010
,
0100
1000
0001
0100
,
0001
1000
0001
1000
,
0010
0000
0100
1000
,
0000
0000
0010
1000
,
0100
1000
0100
0100
,
0010
0100
0010
1000
,
0010
0100
1000
0010
,
0000
0110
0100
1000
,
0010
0000
0010
0001
,
0000
0010
0100
0010
,
1000
0010
1000
0100
,
1100
0000
0000
0001
,
1000
1000
0001
0010
,
0100
1000
1010
0010
,
1000
0001
0100
0001
,
1000
0001
0010
0100
,
0010
0000
0020
0000
0000
0000
0000
0030
,
0001
0100
1000
0100
,
0000
0010
1000
0001
,
0010
0000
0002
0000
0000
0000
0000
0003
,
1000
0001
1000
0200
,
0000
0000
0000
0300
1000
0000
0010
0000
,
0100
0010
0000
0000
,
1000
0001
0100
0101
,
0000
0101
0001
0100
,
0010
1000
0000
0000
,
0010
1000
0100
1000
,
0100
1000
0100
0010
,
0001
0110
0000
0000
,
1001
0101
0101
0001
,
0000
0010
0001
0100
,
0010
1000
0000
0000
,
0100
1000
0100
1000
,
1000
0001
1100
0100
,
1000
1100
0000
0010
,
1000
0001
0100
0001
,
0010
1000
0010
0000
,
0001
0100
0010
0000
,
0011
0010
0000
0000
,
1010
1010
0001
1000
,
0001
0100
1000
0100
,
0100
0010
0000
0001
,
0010
1010
0010
1000
,
0001
0000
0001
0100
,
1000
0100
0000
1000
,
1100
1010
0100
1000
,
0100
0000
0100
0010
,
0100
0001
0000
0000
,
0001
0001
0100
0101
,
0001
0000
0000
1000
,
0010
0000
0000
0011
,
0100
1000
0010
0000
,
1010
0000
0100
0001
,
1000
0010
1000
0100
,
1001
0000
0010
0011
,
0010
0001
0011
0001
,
0010
0011
0001
0010
,
0100
0000
0000
0100
,
0000
0010
0010
0000
,
0010
0100
0000
0000
,
1100
0000
0001
2002
,
0000
0000
0000
0000
,
0000
3003
0000
0000
;

//---------------dance-single - ----------------
#NOTES:
     dance-single:
     :
     Medium:
     5:
     0.346392,0.328627,0.046780,0.452203,0.089661,247.000000,6.000000,58.000000,0.000000,0.000000,0.000000,0.346392,0.328627,0.046780,0.452203,0.089661,247.000000,6.000000,58.000000,0.000000,0.000000,0.000000:
// measure 0
1000
0000
0000
0000
0000
0000
0002
0000
0000
0000
0000
0000
0000
0000
0000
0003
0100
0000
0010
0000
0000
0000
0000
0000
,  // measure 1
2000
0000
0000
0000
0001
3000
0200
0000
,  // measure 2
0000
0300
0010
0000
1000
0000
0001
0000
,  // measure 3
0100
0000
0020
0000
0000
0030
1000
0001
,  // measure 4
0200
0000
0000
0300
0010
0000
2000
0000
,  // measure 5
0000
0000
0000
0000
0000
0000
0000
3000
,  // measure 6
0001
0000
0000
0000
0000
0000
0200
0000
0000
0000
0000
0000
0000
0000
0000
0300
0010
0000
1000
0000
0000
0000
0000
0000
,  // measure 7
0002
0000
0000
0000
0000
0000
0000
0000
0000
0003
1000
0000
0010
0000
0000
0000
0000
0000
0200
0000
0000
0000
0000
0000
,  // measure 8
0000
0000
0000
0300
0001
0000
1000
0000
0000
0000
0000
0000
0020
0000
0000
0000
0000
0000
0000
0000
0000
0030
0000
0000
,  // measure 9
1000
0000
0000
0000
0000
0000
0200
0000
0000
0000
0000
0000
0000
0000
0000
0300
0010
0000
0001
0000
0000
0000
0000
0000
,  // measure 10
1000
0100
1000
0020
,  // measure 11
0000
0000
0000
0000
0000
0000
0000
0030
,  // measure 12
1000
0000
0000
0000
0000
0000
0200
0000
0000
0000
0000
0000
0000
0000
0000
0300
0010
0000
0001
0000
0000
0000
0000
0000
,  // measure 13
2000
0000
0000
0000
0000
0000
0000
0000
0000
3000
0001
0000
0010
0000
0000
0000
0000
0000
0200
0000
0000
0000
0000
0000
,  // measure 14
0000
0000
0000
0300
1000
0000
0010
0000
0000
0000
0000
0000
2000
0000
0000
0000
0000
0000
0000
0000
0000
3000
0000
0000
,  // measure 15
0001
0000
0000
0000
0000
0000
0020
0000
0000
0000
0000
0000
0000
0000
0000
0030
0001
0000
0100
0000
0000
0000
0000
0000
,  // measure 16
0010
1000
0100
0020
,  // measure 17
0000
0000
0000
0000
0000
0000
0000
0030
,  // measure 18
0001
0000
0000
0000
0000
0000
2000
0000
0000
0000
0000
0000
0000
0000
0000
3000
0100
0000
0010
0000
0000
0000
0000
0000
,  // measure 19
0002
0000
0000
0003
1000
0000
0020
0000
,  // measure 20
0000
0000
0000
0030
0100
0000
1000
0000
0000
0000
0000
0000
0100
0000
0000
0000
0000
0000
0001
0000
0000
0000
0000
0000
,  // measure 21
0100
0000
2000
0000
0000
3000
0100
0010
,  // measure 22
2000
0000
0000
3000
0001
0000
2002
0000
,  // measure 23
0000
0000
0000
0000
,  // measure 24
0000
0000
0000
3003
0000
0000
2000
0000
0000
0000
0000
0000
0000
0000
0000
3000
0100
0000
0010
0000
0000
0000
0000
0000
,  // measure 25
0002
0000
0000
0003
1000
0000
0020
0000
,  // measure 26
0000
0000
0000
0030
0000
0100
0010
0000
0000
0000
0000
0000
1000
0000
0000
0000
0000
0000
0001
0000
0000
0000
0000
0000
,  // measure 27
0010
0000
0002
0000
0000
0003
1000
0010
,  // measure 28
0200
0000
0000
0300
0001
0000
1000
0000
,  // measure 29
0001
0100
1000
0100
0001
0000
1000
0100
,  // measure 30
1000
0000
0001
0000
1000
0010
0001
0010
,  // measure 31
1000
0001
1000
0200
,  // measure 32
0000
0000
0000
0300
1100
0000
1000
0000
,  // measure 33
0001
0000
2001
0000
0000
0000
0000
3000
,  // measure 34
0120
0000
0000
0000
0000
0030
1000
0100
,  // measure 35
1000
0010
1000
0001
1000
0000
0001
0000
,  // measure 36
0100
0000
0001
0100
0001
0010
0001
1000
,  // measure 37
0001
0000
0010
0000
0100
0000
1000
0100
,  // measure 38
1000
0001
1000
0100
1000
0000
0000
0010
,  // measure 39
0100
0000
0010
0100
0010
1000
0000
0000
,  // measure 40
0010
0100
0010
0000
1000
0000
0001
0010
,  // measure 41
0001
0100
0001
1000
0001
0000
0010
0000
,  // measure 42
0001
0000
0100
1000
0100
0010
0100
1000
,  // measure 43
0100
0000
0001
0000
1000
0000
0010
0100
,  // measure 44
0010
0001
0010
0100
0010
0000
0000
1000
,  // measure 45
0100
1001
1000
0001
,  // measure 46
0100
0000
0000
0010
0000
0000
2000
0000
0000
0000
0000
0000
0000
0000
0000
3000
0001
0000
0100
0000
0000
0000
0000
0000
,  // measure 47
0020
0000
0000
0030
1000
0000
0002
0000
,  // measure 48
0000
0000
0000
0003
1000
0000
0100
0000
0000
0000
0000
0000
0010
0000
0000
0000
0000
0000
0001
0000
0000
0000
0000
0000
,  // measure 49
1000
0000
0002
0000
0000
0003
1000
0010
,  // measure 50
0200
0000
0000
0300
0001
0000
2000
0000
,  // measure 51
0000
0000
0000
0000
0000
0000
0000
3000
,  // measure 52
0010
0000
0000
0000
0000
0000
0200
0000
0000
0000
0000
0000
0000
0000
0000
0300
0001
0000
1000
0000
0000
0000
0000
0000
,  // measure 53
0020
0000
0000
0000
0000
0000
0000
0000
0000
0030
1000
0000
0001
0000
0000
0000
0000
0000
2000
0000
0000
0000
0000
0000
,  // measure 54
0000
0000
0000
3000
0001
0000
0100
0000
0000
0000
0000
0000
0002
0000
0000
0000
0000
0000
0000
0000
0000
0003
0000
0000
,  // measure 55
1000
0000
0000
0000
0000
0000
0020
0000
0000
0000
0000
0000
0000
0000
0000
0030
0100
0000
0001
0000
0000
0000
0000
0000
,  // measure 56
1000
0001
0010
0002
,  // measure 57
0000
0000
0000
0000
0000
0000
0000
0003
,  // measure 58
1000
0000
0000
0000
0000
0000
0020
0000
0000
0000
0000
0000
0000
0000
0000
0030
1000
0000
0100
0000
0000
0000
0000
0000
,  // measure 59
2000
0000
0000
0000
0000
0000
0000
0000
0000
3000
0001
0000
0100
0000
0000
0000
0000
0000
0020
0000
0000
0000
0000
0000
,  // measure 60
0000
0000
0000
0030
1000
0000
0001
0000
0000
0000
0000
0000
0200
0000
0000
0000
0000
0000
0000
0000
0000
0300
0000
0000
,  // measure 61
0001
0000
0000
0000
0000
0000
2000
0000
0000
0000
0000
0000
0000
0000
0000
3000
0010
0000
0100
0000
0000
0000
0000
0000
,  // measure 62
0010
1000
0001
0020
,  // measure 63
0000
0000
0000
0000
0000
0000
0000
0030
,  // measure 64
0001
0000
2000
0000
0000
0000
0100
3000
,  // measure 65
0020
0000
0000
0000
0001
0030
0200
0000
,  // measure 66
0000
0000
0000
0300
0001
0000
1000
0000
,  // measure 67
0010
0000
2000
0000
0000
0000
0000
3000
,  // measure 68
0002
0000
0000
0003
0100
0000
2002
0000
,  // measure 69
0000
0000
0000
0000
,  // measure 70
0000
3003
0000
0000
;

//---------------dance-single - ----------------
#NOTES:
     dance-single:
     :
     Hard:
     8:
     0.480048,0.547711,0.304067,0.070169,0.019492,383.000000,39.000000,9.000000,0.000000,0.000000,0.000000,0.480048,0.547711,0.304067,0.070169,0.019492,383.000000,39.000000,9.000000,0.000000,0.000000,0.000000:
// measure 0
1000
0000
0010
0000
2000
0000
0010
3010
,  // measure 1
0100
0000
0100
0010
0100
0000
0001
0000
,  // measure 2
2000
0000
0100
3100
1000
0000
0001
1000
,  // measure 3
0010
0000
0100
0000
0001
0000
1000
1000
,  // measure 4
0100
0000
0100
0010
0001
1000
0010
0000
,  // measure 5
1000
0000
1000
1000
0010
0000
0010
1000
,  // measure 6
0100
0010
0001
0000
1000
0000
0001
0001
,  // measure 7
0010
0000
0010
0001
1000
0010
0100
0000
,  // measure 8
0001
0000
0001
0001
1000
0000
1000
1000
,  // measure 9
0001
0000
1000
0000
0001
0000
0100
0100
,  // measure 10
0010
0000
1000
0001
0001
0100
0010
1000
,  // measure 11
0010
0100
0001
0010
0100
0000
1000
0100
,  // measure 12
0001
0100
0010
0000
0001
0000
0100
0100
,  // measure 13
1000
0000
0100
0100
0001
0000
1000
0000
,  // measure 14
0001
0001
1000
1000
0010
0000
1000
0001
,  // measure 15
0100
0010
1000
0000
0001
0000
1000
1000
,  // measure 16
0100
0000
1000
0001
0010
0000
0100
1000
,  // measure 17
0010
0100
0001
1000
0010
0000
1000
0100
,  // measure 18
1000
0000
0010
0000
0100
0001
0010
0100
,  // measure 19
0010
0000
0001
0000
0100
0010
1000
0000
,  // measure 20
0010
0000
1000
0001
0100
0010
1000
0001
,  // measure 21
0100
0000
0001
0000
1000
0100
0010
0100
,  // measure 22
0001
0000
0100
1000
0010
1000
0001
0000
,  // measure 23
1000
0000
0010
0000
0100
0000
0101
0001
,  // measure 24
1000
1010
1000
0000
,  // measure 25
1001
0001
0000
0101
,  // measure 26
0100
0000
0001
0011
,  // measure 27
1000
0001
0100
0000
,  // measure 28
0101
1000
0001
1001
,  // measure 29
1000
0010
0100
0001
0010
0000
0100
1000
,  // measure 30
0100
0000
0000
1000
0010
0000
0000
0000
0100
0000
0001
0000
0010
0000
0001
0000
,  // measure 31
1000
0000
0000
0000
0001
0000
0000
0000
0010
0000
0000
1000
0010
0000
0000
0000
,  // measure 32
0001
1000
0001
0100
0010
0000
0100
0000
,  // measure 33
0001
0000
0010
0100
0001
0000
0100
0000
,  // measure 34
0020
0000
0000
0000
0000
0030
1001
1000
,  // measure 35
0010
0100
0001
0100
0010
0000
1010
0000
,  // measure 36
0110
0000
0100
0001
0010
1000
0010
0001
,  // measure 37
0100
0000
0110
0000
1100
0000
1000
0100
,  // measure 38
0001
1001
1000
0010
0110
0000
0000
1000
,  // measure 39
0100
0000
1000
1010
0010
1000
0000
0000
,  // measure 40
0001
0101
0010
0000
1000
0000
0010
1000
,  // measure 41
0001
0100
1000
0100
0101
0000
1010
0000
,  // measure 42
0110
0100
0101
0001
1000
1010
0100
0001
,  // measure 43
1001
0000
1010
0000
0110
0100
0001
1000
,  // measure 44
0010
0100
0001
1000
1100
0000
0000
0100
,  // measure 45
0010
1001
1000
0010
,  // measure 46
0100
0010
0001
0000
0010
0000
1000
0100
,  // measure 47
1000
0000
0100
0000
1000
0000
0001
0100
,  // measure 48
0010
0100
0001
1000
0010
0000
1000
0000
,  // measure 49
0001
0000
1000
0010
0100
0001
0100
0010
,  // measure 50
1000
0000
0000
0100
0010
0000
0001
0011
,  // measure 51
0000
0010
0000
0000
0100
1100
1000
0000
,  // measure 52
1000
0000
0000
0001
1000
0000
0010
0000
0100
0000
0010
0000
0001
0000
0010
0000
,  // measure 53
1000
0000
0010
0100
0010
0000
0100
0001
,  // measure 54
0010
0001
1000
0010
0001
0000
0010
1000
,  // measure 55
0100
0000
1000
0001
0010
0001
0100
0010
,  // measure 56
0001
0000
0010
0100
1000
0000
0001
1001
,  // measure 57
0000
1000
0000
0000
0001
0010
1000
0010
,  // measure 58
0001
1000
1001
0000
0000
0010
0100
0001
,  // measure 59
1001
0000
1010
1000
1001
0000
0101
0000
,  // measure 60
0000
0100
0110
0000
1000
0001
1000
0010
,  // measure 61
0100
0000
1001
0000
0001
0100
0010
1000
,  // measure 62
1100
0000
1000
0001
0100
0000
0001
0100
,  // measure 63
0010
1000
0001
0100
0010
0100
0001
1000
,  // measure 64
0001
1000
0001
1000
0002
0000
0000
0000
0000
0000
0000
0000
0000
0000
0003
0000
,  // measure 65
0010
0100
1000
0020
,  // measure 66
0000
0030
1000
0000
0001
0000
0100
0000
,  // measure 67
0010
0000
2000
0000
0000
0000
0001
3000
,  // measure 68
0002
0000
0000
0003
1001
0000
2002
0000
,  // measure 69
0000
0000
0000
0000
,  // measure 70
0000
3003
0000
0000
;
