#TITLE:Don't Sleep in the Subway;
#SUBTITLE:;
#ARTIST:Petula Clark;
#TITLETRANSLIT:;
#SUBTITLETRANSLIT:;
#ARTISTTRANSLIT:;
#CREDIT:;
#BANNER:Subway-banner.png;
#BACKGROUND:Subway-bg.png;
#LYRICSPATH:;
#CDTITLE:;
#MUSIC:Subway.mp3;
#SAMPLESTART:51.635;
#SAMPLELENGTH:12.000;
#SELECTABLE:YES;
#DISPLAYBPM:133.000;
#OFFSET:-0.467;
#BPMS:0.0=133.3333,
2.0=133.8166,
10.0=133.8539,
14.0=133.7047,
18.0=133.8912,
26.0=133.5188,
34.0=133.8166,
42.0=133.7793,
50.0=133.7047,
58.0=133.7420,
66.0=133.8166,
74.0=134.7558,
82.0=132.8536,
90.0=133.4445,
98.0=133.9286,
106.0=133.7296,
109.0=132.4503,
114.0=132.7801,
122.0=132.4869,
130.0=132.4503,
136.0=132.5674,
141.0=132.5088,
146.0=132.6333,
154.0=134.2282,
158.0=132.7434,
165.0=132.2168,
170.0=132.5967,
178.0=132.5601,
186.0=132.4138,
194.0=132.4503,
202.0=133.6675;
#STOPS:;
#BGCHANGES:;

//---------------dance-single - ----------------
#NOTES:
     dance-single:
     :
     Easy:
     2:
     0.186,0.198,0.000,0.000,0.000: // measure 1
0000
0000
0000
0000
,  // measure 2
0000
0000
0000
0000
,  // measure 3
0000
0000
0001
0000
,  // measure 4
1000
0000
0001
1000
,  // measure 5
0001
0000
1000
0000
,  // measure 6
0001
1000
0010
0000
,  // measure 7
0100
0000
0010
0000
,  // measure 8
1000
0001
1000
0000
,  // measure 9
0100
0010
0100
0000
,  // measure 10
0100
0000
1000
0000
,  // measure 11
0001
0010
0100
0000
,  // measure 12
0010
0000
0010
0000
,  // measure 13
0001
1000
0100
0000
,  // measure 14
0010
0000
0100
0000
,  // measure 15
0010
0100
1000
0000
,  // measure 16
0001
0000
1000
0000
,  // measure 17
0001
1000
0100
0000
,  // measure 18
0010
0100
0010
0000
,  // measure 19
0100
0000
0010
0000
,  // measure 20
0100
0000
0010
0001
,  // measure 21
1000
0010
1000
0000
,  // measure 22
0001
0000
0010
0000
,  // measure 23
0010
0001
1000
0000
,  // measure 24
1000
0001
1000
0000
,  // measure 25
0100
0000
1000
0000
,  // measure 26
0100
1000
0001
0000
,  // measure 27
0100
0001
0010
0000
,  // measure 28
0100
0000
1000
0100
,  // measure 29
1000
0001
0100
0000
,  // measure 30
0010
0000
0010
0000
,  // measure 31
1000
0010
1000
0000
,  // measure 32
0100
0000
1000
0001
,  // measure 33
0100
0001
1000
0000
,  // measure 34
0010
0000
0010
0100
,  // measure 35
0001
0000
0100
0000
,  // measure 36
0010
0000
0100
0010
,  // measure 37
1000
0000
0100
0000
,  // measure 38
1000
0000
0010
1000
,  // measure 39
0010
0100
0001
0000
,  // measure 40
0010
0001
0100
0001
,  // measure 41
1000
0100
1000
0000
,  // measure 42
0001
0000
0010
0001
,  // measure 43
1000
0100
1000
0000
,  // measure 44
0100
0000
1000
0001
,  // measure 45
0010
0000
0001
0000
,  // measure 46
0100
0000
0001
0010
,  // measure 47
0100
0000
1000
0000
,  // measure 48
0001
0000
0100
0001
,  // measure 49
1000
0000
0100
0000
,  // measure 50
0010
0000
0100
0010
,  // measure 51
0001
0100
0010
0000
,  // measure 52
1000
0010
1000
0001
,  // measure 53
0100
0010
1000
0000
;

//---------------dance-single - ----------------
#NOTES:
     dance-single:
     :
     Hard:
     7:
     0.408,0.397,0.198,0.000,0.213:
0000
0000
0000
0000
,
0000
0000
0000
0000
,
0000
0000
0000
0000
0010
0000
1000
0100
,
0100
0000
1000
0000
0001
0000
1000
0100
,
0100
0010
0001
1000
0100
0000
1000
0001
,
0001
0000
0100
0000
1000
0000
0100
0001
,
0001
0100
0001
0010
0100
0000
1000
0010
,
0010
0000
1000
0000
0010
0000
0100
0001
,
0001
1000
0010
0100
0001
0000
0100
0010
,
0010
0000
1000
0000
1000
0000
0100
1000
,
1000
0000
0001
0000
1000
0000
0100
0010
,
0010
0000
0001
0000
1000
0000
0001
0100
,
0100
0010
1000
0001
0010
0000
0001
0100
,
0100
0000
0001
0000
0001
0000
1000
0100
,
0100
1000
0001
0100
0001
0000
0010
0100
,
0100
1000
0001
0100
1000
0000
0100
0010
,
0010
0000
1000
0000
0001
0000
0010
0001
,
0001
0000
0010
0000
0100
0000
1000
0010
,
0010
0001
0010
1000
0001
0000
0100
0010
,
0010
0000
1000
0010
0010
1000
0100
0001
,
0100
1000
0010
0001
0110
0000
0001
0100
,
0110
0000
1010
0000
0001
0000
0100
1000
,
1000
0000
0010
0000
1010
0000
0100
1000
,
1001
0000
1000
0000
1000
0000
0001
0100
,
0100
0010
0010
0100
0001
0000
1000
0010
,
0010
0000
1000
0000
0011
0000
0001
1000
,
1000
0000
0010
0000
1000
0000
0010
0001
,
0001
0000
0000
0010
0000
0000
1000
0100
1000
0001
0010
0001
,
0100
0010
0100
0001
1000
0001
1001
0000
0000
1000
0000
0000
,
0010
0100
0001
0100
,
0010
1000
0010
0100
,
0001
0000
0000
1000
0000
0000
0001
0000
0000
0100
0000
0001
,
0100
0000
0010
0100
0000
0001
0010
0000
0000
0000
0000
0000
,
0011
0000
1010
0000
,
0101
0000
1001
1001
,
0000
0000
0001
0100
0000
0010
1000
0000
0000
0000
0000
0001
,
0000
0000
0000
1000
0000
0000
0100
0000
0000
0000
0000
1000
,
0010
0000
0000
0000
0000
0000
1000
0000
0000
0000
0000
0001
,
0100
0000
1100
0110
,
0101
0000
0000
0011
0000
0000
0001
0100
0010
1000
0100
1000
,
0010
1000
0001
0100
0010
1000
0010
0000
0000
0100
0000
0010
,
1000
0000
0000
1001
0000
0000
0001
0000
0000
1000
0000
0001
,
0100
0000
0000
0110
0000
0000
0001
0000
0000
1000
0000
0001
,
0100
0000
0000
0110
0000
0000
1000
0000
0000
0001
0000
1000
,
0100
0000
0100
0010
0000
0010
0001
0000
0000
1000
0000
0010
,
1000
0000
0000
0101
0000
0000
0010
0000
0000
1000
0000
0100
,
0010
0000
0010
0001
0000
0001
1000
0000
0000
1001
0000
0010
,
0000
0000
1000
0010
0000
0100
0001
0000
0000
0000
0000
1000
,
0000
0000
0000
0001
0000
0000
0100
0000
0000
0010
0000
1000
,
0001
0000
0000
0010
0000
0000
1000
0000
0000
0010
0000
0001
,
1000
0000
0100
0000
0010
0001
1000
0010
,
0100
0000
0000
0001
0000
0000
0100
0000
0000
0010
0000
0000
1000
0000
0000
0000
1000
0000
0001
0000
0000
0000
1000
0000
,
0001
0000
1000
0001
0100
0010
1000
0000
0000
0000
0000
0000
;

//---------------dance-single - Copied from----------------
#NOTES:
     dance-single:
     Copied from:
     Medium:
     5:
     0.324,0.347,0.151,0.132,0.047:
0000
0000
0000
0000
,
0000
0000
0000
0000
,
0000
0000
0000
0000
0100
0000
0010
0100
,
1000
0000
0001
0000
0010
0000
0100
1000
,
0100
0000
0010
0100
0010
0000
0001
0010
,
0001
0000
0010
0000
0001
0000
0001
0010
,
0001
0000
1000
0000
0001
0000
1000
0010
,
0100
0000
0010
0000
1000
0000
0001
0100
,
0010
0000
1000
0000
0010
0000
0100
0001
,
0100
0000
0010
0000
1000
0000
0010
1000
,
0100
0000
0010
0000
0001
0000
0100
0001
,
0100
0000
0001
0000
0100
0000
0001
1000
,
0100
0000
1000
0000
0010
0000
1000
0010
,
0100
0000
0001
0000
1000
0000
0001
0100
,
1000
0000
0100
0000
0001
0000
1000
0001
,
0100
0000
0010
0000
1000
0000
0001
1000
,
0100
0000
0010
0000
0001
0000
0100
0001
,
0100
0000
0010
0000
1000
0000
0001
0010
,
0001
0000
0010
0001
0100
0000
0010
1000
,
0001
0000
1000
0100
0020
0000
0002
0030
,
2000
0003
0200
3000
0020
0300
0000
0000
,
0001
0030
0100
0000
2000
0000
0000
0000
,
3000
0001
0010
0001
1000
0000
0010
0100
,
0010
0100
0002
0000
,
0003
0000
2000
0000
,
3002
0023
0032
0003
,
0000
1000
0010
1000
0002
0000
0000
0000
,
0010
0003
0200
0000
0302
0000
0000
0000
,
0000
0000
0013
0010
,
0001
1000
0001
0100
,
0010
0100
0010
0100
,
0010
1000
0010
0100
,
1100
0110
1010
0000
,
1001
0000
0011
0000
,
0011
0000
1100
0101
,
0000
0000
0000
0000
0000
0000
0011
0000
0000
0000
0000
0100
,
0000
0000
0000
0010
0000
0000
0100
0000
0000
0000
0000
0010
,
0001
0000
0000
0000
0000
0000
0001
0000
0000
0000
0000
1000
,
0100
0000
0100
1000
,
0100
1000
0001
0110
,
1100
0000
0000
0101
0000
0000
1010
0000
0000
0001
0000
1000
,
0100
0000
0000
1000
0000
0000
1000
0000
0000
0001
0000
0100
,
0001
0000
0000
0100
0000
0000
0001
0000
0000
1000
0000
0001
,
1000
0000
0000
0010
0000
0000
0100
0000
0000
0010
0000
0100
,
0001
0000
0000
0100
0000
0000
0001
0000
0000
0100
0000
0010
,
1000
0000
0000
0100
0000
0000
1000
0000
0000
0001
0000
0010
,
0001
0010
0001
1000
,
0000
0000
0000
1000
0000
0000
0001
0000
0000
0000
0000
1000
,
0000
1000
0001
0000
,
0011
0000
0101
0010
,
0100
0000
0001
0000
1000
0100
1000
0100
,
0010
0100
0010
0100
0010
0000
0100
0000
,
0100
0010
0011
0000
;
