#TITLE:代言人;
#SUBTITLE:;
#ARTIST:蕭亞軒;
#TITLETRANSLIT:Dai Yan Ren;
#SUBTITLETRANSLIT:;
#ARTISTTRANSLIT:Elva Hsiao;
#GENRE:;
#CREDIT:;
#BANNER:dai yan ren-banner.png;
#BACKGROUND:dai yan ren-bg.png;
#LYRICSPATH:;
#CDTITLE:;
#MUSIC:dai yan ren (sm edit).mp3;
#LEADTRACK:;
#OFFSET:-0.020;
#SAMPLESTART:39.960;
#SAMPLELENGTH:14.000;
#SELECTABLE:YES;
#BPMS:0.000=132.000;
#STOPS:;
#TIMESIGNATURES:0.000=4=4
;
#BGCHANGES:;
#KEYSOUNDS:;

//---------------dance-single - Blank----------------
#NOTES:
     dance-single:
     Blank:
     Beginner:
     2:
     0.173,0.215,0.060,0.105,0.004,140.000,8.000,14.000,0.000,0.000,2.000,0.173,0.215,0.060,0.105,0.004,140.000,8.000,14.000,0.000,0.000,2.000: // measure 1
0000
0000
0000
0000
,  // measure 2
0000
0000
0000
0000
,  // measure 3
0000
0000
0000
0000
,  // measure 4
0000
0000
0000
0000
,  // measure 5
1000
0000
0000
0000
,  // measure 6
0010
0000
0100
0000
,  // measure 7
0001
0000
0010
0000
,  // measure 8
0100
0100
0100
0000
,  // measure 9
1000
0000
0001
0000
,  // measure 10
0100
0000
0010
0000
,  // measure 11
1000
0000
0010
0000
,  // measure 12
1000
1000
1000
0000
,  // measure 13
0011
0000
0000
0000
,  // measure 14
1100
0000
0000
0000
,  // measure 15
0110
0000
0000
0000
,  // measure 16
1001
0000
0000
0000
,  // measure 17
0011
0000
0000
0000
,  // measure 18
1100
0000
0000
0000
,  // measure 19
1010
0000
0000
0000
,  // measure 20
0101
0000
0000
0000
,  // measure 21
1000
1000
0000
0000
,  // measure 22
0010
0010
0000
0000
,  // measure 23
1000
0000
0001
0001
,  // measure 24
0001
0000
0010
0010
,  // measure 25
0010
0000
0100
0000
,  // measure 26
0010
0000
0001
0000
,  // measure 27
1000
0000
0100
0100
,  // measure 28
0100
0000
0010
0000
,  // measure 29
0010
0000
0001
0000
,  // measure 30
1000
1000
1000
0000
,  // measure 31
0010
0000
0100
0100
,  // measure 32
0100
0000
0001
0001
,  // measure 33
0001
0000
1000
0000
,  // measure 34
0010
0000
0100
0000
,  // measure 35
0100
0100
0000
0001
,  // measure 36
0001
0000
0100
0000
,  // measure 37
0010
1000
0010
1000
,  // measure 38
0010
0000
0000
0000
,  // measure 39
0200
0000
0000
0000
,  // measure 40
0002
0300
0000
0000
,  // measure 41
2000
0003
0000
0000
,  // measure 42
0020
3000
0000
0000
,  // measure 43
0100
0030
0100
0000
,  // measure 44
0001
0000
0001
0000
,  // measure 45
1000
0000
0010
0000
,  // measure 46
2000
0000
3002
0000
,  // measure 47
0103
0000
0000
0100
0000
0000
0000
0000
,  // measure 48
0001
0000
0000
0001
0000
0000
0000
0000
,  // measure 49
1000
0100
1000
0100
,  // measure 50
0010
0001
0010
0001
,  // measure 51
2000
0000
3200
0000
,  // measure 52
0320
0000
0032
0000
,  // measure 53
0203
0000
0320
0000
,  // measure 54
2030
0000
0000
0000
,  // measure 55
3000
0000
0000
0000
,  // measure 56
0004
0040
0000
0000
0000
0000
0000
0000
0000
0000
0000
0000
0033
0000
0000
0000
,  // measure 57
0010
0000
0100
0100
,  // measure 58
0010
0000
0001
0001
,  // measure 59
1000
0000
0001
0000
,  // measure 60
0010
0010
0001
0001
,  // measure 61
0100
0000
0010
0000
,  // measure 62
1000
0000
0100
0000
,  // measure 63
0010
0000
0001
0000
,  // measure 64
1000
1000
1000
0000
,  // measure 65
0001
0000
0010
0010
,  // measure 66
0010
0000
0100
0000
,  // measure 67
0100
0000
1000
0000
,  // measure 68
0001
0000
0001
0000
,  // measure 69
1000
1000
0000
0000
,  // measure 70
0010
0010
0000
0000
,  // measure 71
0100
0000
0010
0000
,  // measure 72
0200
0000
0000
0000
,  // measure 73
0301
0000
0000
0000
;

//---------------dance-single - Blank----------------
#NOTES:
     dance-single:
     Blank:
     Easy:
     3:
     0.221,0.296,0.097,0.142,0.004,175.000,13.000,19.000,0.000,0.000,2.000,0.221,0.296,0.097,0.142,0.004,175.000,13.000,19.000,0.000,0.000,2.000: // measure 1
0000
0000
0000
0000
,  // measure 2
0000
0000
0000
0000
,  // measure 3
0000
0000
0000
0000
,  // measure 4
0000
0000
0000
0000
,  // measure 5
1000
0000
0001
0010
,  // measure 6
0001
0000
0100
0000
,  // measure 7
0001
0100
0001
0100
,  // measure 8
0010
0000
0000
0000
,  // measure 9
1000
1000
0010
0010
,  // measure 10
0100
0000
0010
0010
,  // measure 11
1000
0000
0000
0000
,  // measure 12
1000
0000
0000
0000
,  // measure 13
0001
0100
0100
0010
,  // measure 14
0010
1000
0010
1000
,  // measure 15
0000
0010
1000
1000
,  // measure 16
0100
0100
0010
0001
,  // measure 17
1000
0001
0100
0000
,  // measure 18
0000
0000
0100
0100
,  // measure 19
0010
0100
0000
0000
,  // measure 20
0010
0000
0000
0000
,  // measure 21
1000
1000
0000
0000
,  // measure 22
0001
0001
0000
0000
,  // measure 23
1000
0100
1000
0100
,  // measure 24
0010
0001
0001
0010
,  // measure 25
0100
1000
1000
0001
,  // measure 26
0100
0001
1000
0010
,  // measure 27
0100
0010
0010
0000
,  // measure 28
1000
1000
0001
0010
,  // measure 29
0000
0100
0010
0001
,  // measure 30
1001
1001
1001
0000
,  // measure 31
0000
1000
0010
0100
,  // measure 32
0101
0000
0010
0010
,  // measure 33
1010
0000
0100
0000
,  // measure 34
1001
1010
1001
0101
,  // measure 35
1001
0000
0000
0000
,  // measure 36
0110
0000
0000
0000
,  // measure 37
1000
0100
0100
1000
,  // measure 38
0011
0000
0000
0000
,  // measure 39
2000
0000
0000
0010
,  // measure 40
3020
0000
0000
0000
,  // measure 41
0230
0000
0000
0001
,  // measure 42
0302
0000
0000
0000
,  // measure 43
2003
0000
0000
0010
,  // measure 44
3020
0000
0000
0000
,  // measure 45
2030
0000
0000
0000
,  // measure 46
3200
0000
0320
0000
,  // measure 47
0031
0000
0100
0010
,  // measure 48
1000
0000
0100
0010
,  // measure 49
0001
0000
1000
0000
,  // measure 50
0001
0100
0001
0100
,  // measure 51
0002
0000
0203
0000
,  // measure 52
2300
0000
3200
0000
,  // measure 53
0320
0000
0032
0000
,  // measure 54
0023
0000
2030
0000
,  // measure 55
3200
0000
0000
0000
,  // measure 56
0340
0004
0000
0000
0000
0000
0000
0000
0000
0000
0000
0000
0033
0000
0000
0000
,  // measure 57
0011
0000
0001
1000
,  // measure 58
0010
0000
0100
0010
,  // measure 59
1000
0000
0100
0000
,  // measure 60
0010
0001
0010
0001
,  // measure 61
0010
0000
0100
0000
,  // measure 62
1000
0100
1000
0100
,  // measure 63
0000
0010
0001
0100
,  // measure 64
0010
0010
1000
0000
,  // measure 65
0000
0001
0001
0010
,  // measure 66
0010
0100
1000
0100
,  // measure 67
1000
0000
0010
0000
,  // measure 68
1000
1000
0100
0100
,  // measure 69
1000
1000
0000
0000
,  // measure 70
0001
0001
0000
0000
,  // measure 71
0100
0000
0001
0001
,  // measure 72
0020
0000
0000
0000
,  // measure 73
0031
0000
0000
0000
;

//---------------dance-single - ----------------
#NOTES:
     dance-single:
     :
     Hard:
     8:
     0.483,0.646,0.210,0.067,0.165,415.000,28.000,9.000,0.000,0.000,0.000,0.483,0.646,0.210,0.067,0.165,415.000,28.000,9.000,0.000,0.000,0.000: // measure 1
0000
0000
0000
0000
,  // measure 2
0000
0000
0000
0000
,  // measure 3
0000
0000
0000
0000
,  // measure 4
0000
0000
0000
0000
,  // measure 5
1000
0000
0100
0000
1000
0000
0010
0000
0100
0000
0000
0001
0100
0000
0010
0000
,  // measure 6
1000
0000
0100
0000
0010
0000
0100
0000
1000
0000
0000
0010
0100
0000
0001
0000
,  // measure 7
0010
0000
1000
0000
0010
0000
0001
0000
0100
0000
0000
0010
0100
0000
1000
0000
,  // measure 8
0100
0000
0000
0001
0100
0000
0010
0000
0100
0000
0000
0001
0010
0000
1000
0000
,  // measure 9
0010
0000
0000
0100
1000
0000
0010
0000
0001
0000
0010
0000
1000
0000
0100
0000
,  // measure 10
1000
0000
0000
1000
0100
0000
0010
0000
0100
0000
0000
1000
0100
0000
0001
0000
,  // measure 11
0100
1000
0010
0001
1000
0100
0001
0010
,  // measure 12
0100
0000
1000
0000
0100
0000
1000
0000
0001
0000
1000
0010
1000
0000
0100
0010
,  // measure 13
0100
0000
0000
0010
0001
0000
1000
0000
0100
0000
0000
0010
0001
0000
0100
0000
,  // measure 14
0010
0000
0000
0010
1000
0000
0100
0000
1000
0000
0000
0010
1000
0000
0001
0000
,  // measure 15
0100
0000
0000
0100
0010
0000
1000
0000
0100
0000
0000
0010
0001
0000
1000
0000
,  // measure 16
0100
0000
0000
0100
1000
0000
0010
0000
0100
0000
0000
0001
0100
0000
0010
0000
,  // measure 17
1000
0000
0000
1000
0100
0000
0010
0000
0001
0000
0000
0100
0001
0000
0010
0000
,  // measure 18
0100
0000
0000
0100
1000
0000
0010
0000
0001
0000
0000
0010
1000
0000
0100
0000
,  // measure 19
0010
0000
0000
0010
0001
0000
0100
0000
0001
0000
0000
0010
0001
0000
1000
0000
,  // measure 20
0100
0000
0000
0100
1000
0000
0010
0000
1000
0000
0000
0001
0100
0000
0010
0000
,  // measure 21
1000
0100
0001
0100
0010
0001
0010
1000
,  // measure 22
0010
0001
0100
0010
0001
1000
0100
0010
,  // measure 23
1010
0100
0010
1000
,  // measure 24
1001
0000
0010
0001
0100
0000
0010
0000
,  // measure 25
1010
0000
0010
0100
0001
0000
0011
0000
,  // measure 26
1001
1010
0110
1001
,  // measure 27
1001
0000
1000
0100
1000
0000
0000
0010
,  // measure 28
0100
0001
0100
0001
1000
0010
0100
0000
,  // measure 29
0000
0001
0010
0100
1000
0100
0001
0100
,  // measure 30
1000
0000
0000
0000
0100
0000
0000
0000
1000
0010
1000
0000
0100
0000
0010
0001
,  // measure 31
0010
0000
0000
0000
0100
0000
0000
0000
1000
0100
1000
0000
0100
0000
0000
0000
,  // measure 32
0010
0000
0001
1000
0100
0000
0010
0000
,  // measure 33
0001
0000
0100
0010
0100
0000
0001
0000
,  // measure 34
1000
0100
1000
0100
1000
0000
0010
0000
,  // measure 35
0100
0000
0000
0000
0001
0000
0000
0000
0001
0100
0001
0000
0010
0000
0000
0000
,  // measure 36
0100
1000
0100
0000
1000
0010
1000
0000
,  // measure 37
0010
0000
0100
0001
0010
0000
0100
0000
,  // measure 38
1100
0000
0000
0000
1100
0000
0000
0000
0010
0001
0010
0000
0100
0000
0000
0000
,  // measure 39
2000
0000
0000
0000
,  // measure 40
3020
0000
0000
0000
,  // measure 41
0230
0000
0000
0000
,  // measure 42
0302
0000
0000
0000
,  // measure 43
0023
0001
0100
0001
,  // measure 44
0032
0010
1000
0100
,  // measure 45
0203
1000
0010
0001
,  // measure 46
0302
0000
0000
0000
2000
0000
0000
3003
,  // measure 47
1000
0000
0001
0100
0000
0010
0000
0000
,  // measure 48
1100
1000
0101
0001
,  // measure 49
0001
0000
0100
0010
0000
0100
0000
0000
,  // measure 50
0101
0100
1010
0010
,  // measure 51
1000
0010
0001
0010
,  // measure 52
0100
0001
1000
0100
,  // measure 53
1000
0100
0010
0000
0001
0100
0010
0000
,  // measure 54
1000
0010
0100
0000
0001
0100
0010
0000
,  // measure 55
0010
0100
1000
0100
0001
0010
0100
0010
,  // measure 56
0001
0010
0001
0010
0100
1000
0100
1000
0100
0010
0100
0010
0001
1000
0001
1000
,  // measure 57
0010
0000
1000
0100
1000
0010
0100
0001
,  // measure 58
0010
0000
0100
0001
0100
1000
0100
1000
,  // measure 59
0100
0000
0010
0001
0100
0000
0010
0000
,  // measure 60
1010
1001
0101
1010
,  // measure 61
1001
0000
1000
0100
1000
0000
0000
0010
,  // measure 62
0100
0001
0010
1000
0010
0001
0010
0000
,  // measure 63
0100
0000
1000
0010
0100
0001
0010
0000
,  // measure 64
1100
0000
0000
0000
1010
0000
0000
0000
1000
0100
0010
0000
0001
0000
0100
0010
,  // measure 65
1000
0100
0010
0001
0100
1000
0100
0000
,  // measure 66
0101
0000
1000
0001
0100
1000
0100
0000
,  // measure 67
0010
0000
1000
0100
0001
0000
0100
0000
,  // measure 68
0001
0100
1000
0010
0001
0000
1010
0000
,  // measure 69
1100
0000
0000
0000
0101
0000
0000
0000
1000
0100
1000
0000
0010
0000
0000
0000
,  // measure 70
0100
0001
0010
1000
0010
0001
0100
0000
,  // measure 71
0010
1000
0010
0001
0010
0000
1010
0000
,  // measure 72
0101
0000
0000
0000
0001
0000
0000
0000
0100
0001
0100
0000
0010
0000
1000
0010
,  // measure 73
1000
0000
0000
0000
;

//---------------dance-single - HEAVY----------------
#NOTES:
     dance-single:
     HEAVY:
     Medium:
     5:
     0.354,0.350,0.180,0.052,0.034,300.000,24.000,7.000,0.000,0.000,2.000,0.354,0.350,0.180,0.052,0.034,300.000,24.000,7.000,0.000,0.000,2.000: // measure 1
0000
0000
0000
0000
,  // measure 2
0000
0000
0000
0000
,  // measure 3
0000
0000
0000
0000
,  // measure 4
0000
0000
0000
0000
,  // measure 5
1000
0100
1000
0000
0001
0100
0001
0000
,  // measure 6
0010
0100
0010
0100
0010
0000
0100
0000
,  // measure 7
1000
0100
0010
0000
0001
0010
0100
0000
,  // measure 8
0100
1000
0001
0010
,  // measure 9
0010
0001
0100
0010
1000
0000
0100
0000
,  // measure 10
0010
0001
0010
0000
0100
1000
0100
0000
,  // measure 11
0010
0100
1000
0000
0010
0100
0001
0000
,  // measure 12
1000
0000
0100
0000
0010
0001
0010
0000
,  // measure 13
0001
0000
0000
0001
0010
0000
0000
0000
0001
0000
0100
0000
0010
0000
0000
0000
,  // measure 14
1000
0000
0000
1000
0010
0000
0000
0000
1000
0000
0001
0000
0100
0000
0000
0000
,  // measure 15
0010
0000
0000
0010
0100
0000
0000
0000
0001
0000
1000
0000
0100
0000
0000
0000
,  // measure 16
1000
0000
0000
1000
0001
0000
0000
0000
0010
0000
0001
0000
1000
0000
0000
0000
,  // measure 17
0100
0000
0000
0100
1000
0000
0000
0000
0100
0000
0010
0000
0100
0000
0000
0000
,  // measure 18
0100
0000
0000
0100
1000
0000
0000
0000
0001
0000
0100
0000
0001
0000
0000
0000
,  // measure 19
0010
0000
0000
0010
0001
0000
0000
0000
0001
0000
0010
0000
0100
0000
0000
0000
,  // measure 20
0100
0000
0000
0100
0010
0000
0000
0000
0001
0000
0100
0000
0010
0000
0000
0000
,  // measure 21
0110
0000
0000
0000
,  // measure 22
0001
1000
0010
0100
,  // measure 23
0110
0100
0010
0100
,  // measure 24
0001
0000
0010
0001
0100
0000
0001
0000
,  // measure 25
1000
0000
0010
1000
0010
0000
1000
0000
,  // measure 26
0001
0010
0100
1000
,  // measure 27
0001
0000
0100
0001
0100
0000
0000
0000
,  // measure 28
0101
0000
0101
0000
0001
0100
0010
0000
,  // measure 29
0000
1000
0100
1000
,  // measure 30
0010
0100
0010
0000
1000
0000
0100
0000
,  // measure 31
0011
0000
0001
0000
0100
0010
1000
0000
,  // measure 32
0001
0000
0100
0010
0100
0000
0010
0000
,  // measure 33
1000
0000
0001
1000
0100
0000
0010
0000
,  // measure 34
0011
0011
0011
0001
,  // measure 35
0100
0000
0010
0000
1000
0100
0010
0000
,  // measure 36
0100
0000
1000
0000
0010
0100
0001
0000
,  // measure 37
0010
0000
0100
1000
0010
0000
0100
0000
,  // measure 38
0100
0000
0001
0001
,  // measure 39
0200
0000
0000
0000
,  // measure 40
0302
0000
0000
0000
,  // measure 41
2003
0000
0000
0000
,  // measure 42
3020
0000
0000
0000
,  // measure 43
0130
0001
1000
0010
,  // measure 44
0100
0010
1000
0010
,  // measure 45
0100
0001
0100
0010
,  // measure 46
2000
0000
0000
0000
0002
0000
0000
3003
,  // measure 47
1001
0000
0000
0000
,  // measure 48
0110
0000
0000
0000
,  // measure 49
0010
0001
0010
0001
,  // measure 50
1000
0100
1000
0100
,  // measure 51
0011
0001
1000
0100
,  // measure 52
0110
0010
0001
1000
,  // measure 53
1010
0010
0100
0001
,  // measure 54
1001
1000
0010
0100
,  // measure 55
0001
0010
0001
0010
0100
1000
0100
1000
,  // measure 56
0400
4000
0000
0000
0000
0000
0000
0000
0000
0000
0000
0000
0000
0000
3300
0000
,  // measure 57
1100
0000
1000
0100
0010
0000
0100
0000
,  // measure 58
0010
0000
0001
0100
0001
0000
1000
0000
,  // measure 59
0001
0000
0010
0001
0100
0000
0010
0000
,  // measure 60
1010
0101
1010
0101
,  // measure 61
1001
0000
0001
0010
0001
0000
0000
0000
,  // measure 62
0010
0000
0100
0000
1000
0100
1000
0000
,  // measure 63
0100
0000
0010
0000
0001
0100
0001
0000
,  // measure 64
0100
0010
1001
1001
,  // measure 65
1001
0000
0001
0000
0100
0000
0010
0100
,  // measure 66
0001
0000
1000
0001
0100
0000
0010
0000
,  // measure 67
1000
0000
0001
0100
0001
0000
0100
0000
,  // measure 68
0001
0100
0001
0100
0001
0000
1000
0000
,  // measure 69
0010
1000
0010
0000
1000
0100
1000
0000
,  // measure 70
0010
0010
0100
0001
,  // measure 71
0100
0010
1000
0000
0100
1000
0100
0000
,  // measure 72
2000
0000
0000
0000
0000
0000
0000
3000
,  // measure 73
0011
0000
0000
0000
;
