#TITLE:Cruise;
#SUBTITLE:;
#ARTIST:Florida Georgia Line feat. Nelly;
#TITLETRANSLIT:;
#SUBTITLETRANSLIT:;
#ARTISTTRANSLIT:;
#GENRE:;
#CREDIT:;
#BANNER:cruise-banner.png;
#BACKGROUND:cruise-bg.png;
#LYRICSPATH:;
#CDTITLE:;
#MUSIC:cruise (ddr cut).mp3;
#OFFSET:0.300000;
#SAMPLESTART:60.000000;
#SAMPLELENGTH:11.959999;
#SELECTABLE:YES;
#BPMS:0.000000=149.000000
;
#STOPS:
;
#BGCHANGES:0.300=cruise.avi=1.000=1=1=1=StretchRewind==CrossFade==,
99999=-nosongbg-=1.000=0=0=0 // don't automatically add -songbackground-
;
#KEYSOUNDS:;
#ATTACKS:;

//---------------dance-single - ----------------
#NOTES:
     dance-single:
     :
     Hard:
     8:
     0.506868,0.606391,0.243341,0.000000,0.113821,452.000000,421.000000,31.000000,0.000000,0.000000,0.000000,0.506868,0.606391,0.243341,0.000000,0.113821,452.000000,421.000000,31.000000,0.000000,0.000000,0.000000:
0000
0000
0000
0000
,
0000
0000
0000
0000
,
0000
0000
0000
0000
,
0000
0000
0000
0000
,
0000
0000
1001
0000
0001
0010
0001
0100
,
0001
0000
1001
0000
0101
1000
0010
0001
,
0010
0000
0110
0000
0001
0100
1000
0100
,
0001
1001
1001
1001
,
0000
0000
0010
0000
0100
0010
1000
0010
,
1000
0000
0100
0001
0100
0000
1000
0010
,
0100
0001
0100
0000
1000
0010
1000
0100
,
1000
0000
1000
1000
0010
0000
0010
0010
,
0100
0000
0010
0000
0100
0000
0001
1000
,
0010
0000
0100
0001
1000
0000
0001
0100
,
0000
0010
0010
1000
0001
0000
0001
0010
,
0001
0000
1000
0000
0001
0000
1000
0001
,
0001
1000
0000
0001
0000
0010
0000
0100
,
0010
0001
1000
0000
0001
0000
0010
0000
,
0100
0000
0010
0000
0000
0000
0000
0001
0000
0000
1000
0000
0010
0000
0000
0010
,
0000
0000
1000
0000
0100
0000
0000
0010
0000
0000
0001
0000
1000
0000
0000
0000
,
0000
0000
0001
0010
0001
0010
0001
0000
,
0000
0001
0010
0100
0010
0001
1001
0000
,
0010
0001
1001
0000
1001
0000
1001
0000
,
0000
0010
0100
0000
0001
0000
1000
0000
,
0100
0100
0100
0000
1000
0000
0010
1000
,
0100
0000
0010
0000
0001
1000
0001
0010
,
0001
0001
1000
0001
0010
0000
0001
0000
,
0000
1000
0010
0000
0100
0000
0000
0001
,
0001
0000
1001
0000
1001
0000
0110
1000
,
0100
1000
0010
0000
0100
0000
0000
0010
,
0100
0010
1000
1000
0001
0000
0001
0010
,
0001
0010
0001
1000
0001
0000
0001
0001
,
0000
0000
1000
0010
1000
0010
0100
0000
,
0000
0010
0100
0001
1000
0001
0010
0001
,
0001
1001
1010
0101
,
0000
0010
0001
0000
0001
0000
0000
0001
,
0010
0000
0100
0000
0010
0000
0001
0010
0000
0000
0001
0000
1000
0000
0000
0010
,
0000
0000
1000
0000
0001
0000
0100
0001
0000
0001
0010
0000
0001
0000
0000
0000
,
0000
0000
0010
0000
0100
0000
0000
1000
0000
0010
0100
0000
0010
0000
0000
1000
,
0000
1000
0100
0000
0010
0000
0001
0000
0100
0000
0100
0000
0010
0000
0000
0000
,
0000
0000
0100
0000
0010
0000
0010
1000
0000
0000
0001
0000
0010
0000
0001
0100
,
0000
0000
0001
0000
0010
0000
0001
1000
0000
0000
0001
0000
0001
0000
0000
0000
,
0000
0000
0100
0000
0001
0000
0100
0001
0000
0000
0000
0000
0011
0000
0000
1100
,
0000
0000
0001
0000
0010
0000
0100
1000
0000
0000
0010
0000
0100
0000
0000
0000
,
0010
0000
0010
0000
1000
0000
0000
0100
0000
0000
0000
0000
0010
0000
0000
0001
,
0000
0000
0000
0000
0100
0000
0100
0001
0000
0000
0010
0000
0001
0000
0000
0010
,
0000
0000
0000
0000
0001
1000
0000
0100
0000
0000
1000
0000
0001
0000
0000
0100
,
0000
0000
0000
0000
0010
1000
0000
0001
0000
0000
0100
0000
0001
0000
0000
0010
,
0000
0001
0000
0000
1000
0100
0001
0100
,
1000
0010
0100
0000
0001
0100
0001
0000
,
0010
0000
0000
0001
0100
1000
0100
0010
,
0001
0010
0100
1000
0100
0010
0100
0000
,
0001
0000
1000
0010
1000
0010
0100
0001
,
0000
0001
0010
0001
0010
0001
0100
0010
,
0000
0100
0010
1000
0100
0010
0100
0000
,
1000
0010
0100
0010
0100
0001
0010
0000
,
0001
1010
0101
0110
,
1001
0000
1001
1010
0110
0101
1001
0000
,
0000
0000
0001
0010
0001
0010
0100
0000
,
0010
0001
0001
0010
0001
1000
1000
0000
,
0010
0100
0010
1000
,
0000
0010
0100
0000
0001
0000
0000
0000
,
0100
0100
1001
0000
1001
0000
0010
0001
,
0010
0000
0001
0000
0010
0100
1000
0010
,
0100
0001
0100
0001
1000
0000
0010
0000
,
0000
0100
0010
0000
1000
0000
0000
0001
,
0001
0000
1000
0000
1000
0000
1000
0001
,
0010
0100
0010
0000
0100
0000
0000
1000
,
0001
0000
0010
0000
0010
0001
0010
0001
0010
0000
0000
0000
0010
0000
0001
0000
,
0010
1000
0001
0001
0100
0000
1000
0001
,
0000
0000
0001
0010
0001
0100
0001
0000
,
0000
0001
0001
1000
0010
0010
0100
0001
,
0010
0001
1000
0001
,
0000
0010
0100
0000
0010
0000
0000
0001
,
0001
0000
1000
0000
0001
0001
1000
0001
,
0100
0000
0010
0000
1000
0100
1000
0100
,
1000
0000
0001
0000
0100
0001
0100
0001
,
0100
1001
0000
0000
;

//---------------dance-single - ----------------
#NOTES:
     dance-single:
     :
     Medium:
     5:
     0.374544,0.454793,0.431735,0.000000,0.019624,334.000000,279.000000,55.000000,0.000000,0.000000,0.000000,0.374544,0.454793,0.431735,0.000000,0.019624,334.000000,279.000000,55.000000,0.000000,0.000000,0.000000:
0000
0000
0000
0000
,
0000
0000
0000
0000
,
0000
0000
0000
0000
,
0000
0000
0000
0000
,
0000
0000
1000
0000
0001
0010
0001
0000
,
0100
0010
0100
0000
0001
0000
0010
0001
,
0010
0000
0010
0000
0100
1000
0100
0000
,
1001
0100
0010
0100
,
0000
0000
0010
0000
0100
0100
0100
0000
,
0010
0010
0010
0000
1000
0000
1000
0000
,
0010
0010
0100
0100
,
1001
0000
0100
0100
0100
0000
0001
0001
,
0001
0010
0100
1010
,
0000
0100
0010
0101
,
0000
0010
0100
0001
,
0001
1000
1000
1001
,
0000
0101
0000
1010
,
0000
0001
0001
0110
,
0000
1001
0000
1001
,
0000
0010
0010
0010
,
0000
0000
1000
0100
1000
0100
1000
0000
,
0000
0000
0001
0010
0001
0010
0001
0000
,
0000
1001
1001
1001
,
0000
0110
0000
1001
,
0000
0010
0010
0110
,
0000
0100
0100
0101
,
0000
0001
0000
0011
,
0000
0000
0010
0100
0010
0000
1000
0100
,
1000
1001
0000
0110
,
0000
0010
0010
0110
,
0000
1000
1000
0001
,
0001
0000
0100
0001
0100
0000
1010
0000
,
0000
1000
1000
1100
,
0000
0001
0001
0011
,
0000
0000
1000
0100
1000
0000
0101
0000
,
0000
0000
0010
0000
0010
0100
0000
0100
,
0010
1000
1000
1010
,
0000
0001
0001
0101
,
0000
1001
0000
1001
,
0000
0010
0100
1001
,
0000
0100
0100
0101
,
0000
0000
0010
1000
0010
0000
0100
0000
,
0000
0010
0010
0100
,
0100
0000
0001
0010
0001
0000
1001
0000
,
0000
0000
0000
0000
0100
0000
0000
0100
0000
0000
0000
0000
0001
0000
0000
0001
,
0000
0000
0000
0000
0100
0000
0000
0000
0100
0000
0000
0000
0010
0000
0000
0010
,
0000
0000
0000
0000
0001
0000
0000
0000
0001
0000
0000
0000
0100
0000
0000
0100
,
0000
0000
0000
0000
1000
0000
0000
0000
1000
0000
0000
0000
0010
0000
0000
0010
,
0000
0000
1000
0000
0001
0001
0001
0000
,
0000
0000
0100
0000
0001
0001
0001
0000
,
0000
0010
0010
0100
,
0100
0000
0001
0001
1000
1000
0001
0000
,
0100
0010
0010
0100
,
0000
0000
0001
0000
0001
0000
0100
0010
,
0100
1000
1000
0101
,
0000
0010
0010
1100
,
0000
1010
0000
0110
,
0000
0000
0001
0001
0001
0001
0001
0000
,
0000
0000
0001
0010
0001
0000
1000
0010
,
1000
0000
0001
0010
0001
0000
1000
0100
,
1000
0110
0110
0110
,
0000
0101
0101
0101
,
0000
0000
1100
0000
1100
0000
0100
0010
,
0100
0000
0011
0000
0011
0000
0010
0001
,
0010
0001
0001
1000
,
1000
0000
0010
0100
0010
0000
0000
0000
,
0000
1100
1100
1100
,
0000
0110
0110
0110
,
0000
0000
0010
0001
0010
0000
0100
0000
,
0100
0000
0001
0000
0001
0000
1000
1000
,
1000
0000
0001
0010
0001
0000
1100
0000
,
0000
0000
0001
0010
0001
0000
0110
0000
,
0000
0010
1000
0001
,
0010
0100
0010
0000
,
0000
0001
0001
0001
,
1000
1000
0010
0010
,
0100
0000
0001
0000
0001
0010
0001
0000
,
1000
1001
0000
0000
;

//---------------dance-single - ----------------
#NOTES:
     dance-single:
     :
     Easy:
     3:
     0.207457,0.303196,0.172694,0.047098,0.000000,185.000000,163.000000,22.000000,6.000000,0.000000,0.000000,0.207457,0.303196,0.172694,0.047098,0.000000,185.000000,163.000000,22.000000,6.000000,0.000000,0.000000:
// measure 0
0000
0000
0000
0000
,  // measure 1
0000
0000
0000
0000
,  // measure 2
0000
0000
0000
0000
,  // measure 3
0000
0000
0000
0000
,  // measure 4
0000
1000
0000
0001
,  // measure 5
0000
0100
0100
0010
,  // measure 6
0000
0010
0000
0100
,  // measure 7
0000
0001
0001
0100
,  // measure 8
0000
0010
0000
1000
,  // measure 9
0000
0001
0001
0001
,  // measure 10
0000
1000
0000
0010
,  // measure 11
0000
0110
0000
0110
,  // measure 12
0000
0010
0000
1000
,  // measure 13
0000
0010
0010
0010
,  // measure 14
0000
0100
0000
0001
,  // measure 15
0000
1000
1000
1000
,  // measure 16
0000
0100
0000
0010
,  // measure 17
0000
0100
0000
0110
,  // measure 18
0000
0001
0000
0001
,  // measure 19
0000
0100
0100
0100
,  // measure 20
0000
0001
0000
0001
,  // measure 21
0000
1000
1000
1000
,  // measure 22
0000
0001
0000
0001
,  // measure 23
0000
0100
0100
0100
,  // measure 24
0000
0001
0000
0010
,  // measure 25
0000
0100
0100
0100
,  // measure 26
0000
0001
0000
0100
,  // measure 27
0000
0010
0000
1001
,  // measure 28
0000
0010
0000
0010
,  // measure 29
0000
0100
0100
0100
,  // measure 30
0000
0001
0000
0001
,  // measure 31
0000
0001
0000
0101
,  // measure 32
0000
1000
0000
1000
,  // measure 33
0000
0001
0000
0011
,  // measure 34
0000
1100
0000
0101
,  // measure 35
0000
0020
0000
0000
,  // measure 36
0030
0110
0000
1000
,  // measure 37
0000
0001
0000
0101
,  // measure 38
0000
0001
0000
1000
,  // measure 39
0000
0010
0000
0110
,  // measure 40
0000
1000
0000
1000
,  // measure 41
0000
0001
0000
0001
,  // measure 42
0000
0010
0000
0100
,  // measure 43
0000
1000
0000
1001
,  // measure 44
0000
0100
0000
0001
,  // measure 45
0000
0100
0100
0110
,  // measure 46
0000
0001
0000
1000
,  // measure 47
0000
0010
0000
0110
,  // measure 48
0000
0000
0001
0001
,  // measure 49
0000
1000
1000
1000
,  // measure 50
0000
0010
0010
0100
,  // measure 51
0100
0001
0001
1000
,  // measure 52
1000
1001
0000
1001
,  // measure 53
0000
1001
0000
1001
,  // measure 54
0000
0100
0000
0100
,  // measure 55
0000
0010
0000
0010
,  // measure 56
0000
1001
0000
1001
,  // measure 57
0000
0002
0000
1003
,  // measure 58
0000
0001
0000
1000
,  // measure 59
0000
0001
0000
1000
,  // measure 60
0000
0010
0010
0010
,  // measure 61
0000
1000
1000
1000
,  // measure 62
0000
0001
0000
0001
,  // measure 63
0000
0100
0000
0100
,  // measure 64
0000
0001
0000
1000
,  // measure 65
0000
0010
0010
0010
,  // measure 66
0000
0100
0000
0101
,  // measure 67
0000
0100
0100
0100
,  // measure 68
0000
0001
0000
0001
,  // measure 69
0000
0002
0000
1003
,  // measure 70
0000
0010
0000
1000
,  // measure 71
0000
0001
0000
0100
,  // measure 72
0000
0010
0000
1000
,  // measure 73
0000
0010
0000
1000
,  // measure 74
0000
0002
0000
0000
,  // measure 75
0000
0203
0000
0000
,  // measure 76
0000
0320
0000
0000
,  // measure 77
0030
0110
0000
0000
;
