#TITLE:愛情復興;
#SUBTITLE:;
#ARTIST:容祖兒;
#TITLETRANSLIT:Ai Qing Fu Xing;
#SUBTITLETRANSLIT:;
#ARTISTTRANSLIT:Joey Yung;
#GENRE:;
#CREDIT:;
#BANNER:Ai Qing Fu Xing-banner.jpg;
#BACKGROUND:Ai Qing Fu Xing-bg.jpg;
#LYRICSPATH:;
#CDTITLE:;
#MUSIC:Ai Qing Fu Xing (ddr edit).mp3;
#OFFSET:-0.165;
#SAMPLESTART:61.780;
#SAMPLELENGTH:12.000;
#SELECTABLE:YES;
#BPMS:0.000=180.000;
#STOPS:;
#TIMESIGNATURES:0.000=4=4
;
#BGCHANGES:0.000=Ai Qing Fu Xing.avi=1.000=1=1=1=StretchRewind==CrossFade==,
332.000=Ai Qing Fu Xing-bg2.jpg=1.000=0=0=0=StretchNoLoop====,
99999=-nosongbg-=1.000=0=0=0 // don't automatically add -songbackground-
;
#KEYSOUNDS:;

//---------------dance-single - Blank----------------
#NOTES:
     dance-single:
     Blank:
     Easy:
     2:
     0.176,0.174,0.086,0.043,0.000,129.000,10.000,5.000,0.000,0.000,0.000,0.176,0.174,0.086,0.043,0.000,129.000,10.000,5.000,0.000,0.000,0.000:
0000
0000
0000
0000
,
0000
0000
0000
0000
,
0000
0000
0000
0000
,
0010
0000
0000
0001
,
0000
0000
0001
0000
,
0000
0100
0000
0000
,
0010
0000
0000
0100
,
0000
0010
0010
0000
,
0000
1000
0000
0000
,
0100
0000
0100
0100
,
0000
0000
0010
0000
,
0000
0001
0000
0010
,
0010
0000
0000
0001
,
0000
0000
1000
0000
,
0000
0010
0000
0000
,
0100
0000
0000
0001
,
0000
0001
0001
0000
,
0000
0100
0000
0000
,
0010
0010
0010
0010
,
0000
0000
1000
0000
,
0000
0010
0000
0000
,
0010
0000
0000
1000
,
0000
0000
0001
0000
,
0000
0010
0000
0000
,
0101
0000
0000
0101
,
0000
0000
0100
0000
,
0000
0100
0000
0001
,
0100
0000
0001
0100
,
0000
0000
0010
0000
,
0000
0100
0000
0000
,
0010
0000
0000
0000
,
0000
0000
1000
1000
,
0000
0010
0000
0000
,
0100
0000
0010
0010
,
0000
0000
1000
0000
,
0000
0001
0000
0000
,
1000
1000
1000
1000
,
0000
0000
0010
0000
,
0000
0100
0000
0000
,
0001
0000
0001
0001
,
0000
0000
0100
0000
,
0000
0100
0000
0010
,
1000
0000
0010
1000
,
0000
0000
1100
0000
,
0000
0011
0000
0000
,
0010
0000
0010
0001
,
0000
0000
0101
0000
,
0000
0010
0000
0001
,
1000
0000
0001
1000
,
0000
0000
0100
0100
,
0000
0010
0000
0000
,
0100
0000
1000
1000
,
0000
0000
0001
0000
,
0000
0010
0010
0000
,
0100
0000
0000
0100
,
0000
0000
0010
0010
,
0000
0001
0000
0000
,
0011
0000
0000
0011
,
0000
0000
0001
0000
,
0000
0100
0000
0000
,
0010
0000
0100
0001
,
0000
0000
0100
0000
,
0000
0100
0000
0000
,
0010
0000
0000
1000
,
0000
0000
0010
0000
,
0000
0010
0010
0000
,
0100
0000
0000
0001
,
0000
0000
0010
0010
,
0000
0001
0000
0000
,
0101
0000
0000
0101
,
0000
0000
0002
0000
,
0000
2003
0000
0000
,
3020
0000
0000
0230
,
0000
0000
0310
0000
,
0000
0100
0000
0000
,
0010
0000
0000
0100
,
0000
0000
1000
0000
,
0000
0001
0000
0001
,
0001
0000
0000
0011
,
0000
0000
0200
0000
,
0000
0000
0000
0000
,
0301
0000
0000
0000
;

//---------------dance-single - Blank----------------
#NOTES:
     dance-single:
     Blank:
     Hard:
     7:
     0.501,0.452,0.455,0.026,0.000,353.000,53.000,3.000,0.000,0.000,0.000,0.501,0.452,0.455,0.026,0.000,353.000,53.000,3.000,0.000,0.000,0.000: // measure 1
0000
0000
0000
0000
,  // measure 2
0000
0000
0000
0000
,  // measure 3
0000
0000
0000
0000
,  // measure 4
1001
0000
0100
0010
,  // measure 5
1000
0000
1000
0000
0100
0000
0000
0010
,  // measure 6
0001
0000
0100
0000
0100
0010
1000
0100
,  // measure 7
0010
0001
1000
1001
,  // measure 8
0000
0100
0100
1001
,  // measure 9
0001
0100
0001
0000
1000
0000
1000
0000
,  // measure 10
1100
0000
0100
0010
,  // measure 11
0001
0000
1000
0000
0010
0000
0000
0100
,  // measure 12
0010
0000
1001
0000
0001
0100
0010
1000
,  // measure 13
0100
0010
0001
0100
,  // measure 14
0000
0000
1000
0000
0100
0010
1000
0001
,  // measure 15
0100
0010
1000
0010
0100
0001
0010
0100
,  // measure 16
1100
0010
0100
1000
,  // measure 17
0001
0010
0002
0100
,  // measure 18
1000
0000
0010
0003
0010
1000
0001
0100
,  // measure 19
1000
0000
0010
0000
0010
1000
1010
0000
,  // measure 20
0000
0000
0110
0010
,  // measure 21
1000
1001
0100
0010
,  // measure 22
0101
0000
1000
1010
,  // measure 23
1000
0100
1000
0010
0100
0000
0001
0000
,  // measure 24
0001
1100
0010
0100
,  // measure 25
1100
0000
0100
0010
0100
0000
0011
0000
,  // measure 26
0010
0100
1000
0100
1000
0000
0001
0000
,  // measure 27
0100
0110
1000
0001
,  // measure 28
0011
0000
0100
1010
,  // measure 29
1000
0001
0010
0001
0100
0000
0001
0000
,  // measure 30
0100
1010
0100
0001
,  // measure 31
1001
0000
1000
0100
0010
0000
0002
0000
,  // measure 32
0000
0000
0000
0000
1003
0000
1000
0010
,  // measure 33
1000
0000
0100
0000
0100
1000
0010
0000
,  // measure 34
0100
0000
0100
0000
0001
0100
0001
0010
,  // measure 35
0001
1000
0001
0100
0101
0000
0100
1000
,  // measure 36
0100
0000
0010
0000
0001
0010
0001
0000
,  // measure 37
0110
0010
1000
1000
,  // measure 38
0110
0000
1001
0000
0110
0000
0001
1000
,  // measure 39
0001
0100
0001
0001
,  // measure 40
0100
0000
0000
0000
1000
0000
0010
1000
,  // measure 41
0001
0100
0010
0100
1000
0000
0000
0000
,  // measure 42
0101
0101
0001
1000
,  // measure 43
1010
0000
0010
0010
0100
0000
0001
0000
,  // measure 44
0000
0000
1000
0010
0101
0000
0001
0000
,  // measure 45
0001
0100
1100
0000
0010
0100
0010
0000
,  // measure 46
1001
0001
0100
0010
,  // measure 47
1000
0100
0010
0100
0001
0000
0100
0000
,  // measure 48
0010
0100
1000
0000
0010
0000
1000
1000
,  // measure 49
0100
0010
1000
1010
,  // measure 50
1000
1000
0010
0100
0001
0000
0001
0100
,  // measure 51
1000
0100
0010
0001
,  // measure 52
1100
0000
0010
0000
1000
1000
0100
0000
,  // measure 53
1000
0100
0010
0001
1100
0000
0000
1000
,  // measure 54
1000
0000
1100
0000
0010
0000
0001
0100
,  // measure 55
0010
0000
0000
0000
0010
1000
0100
0000
,  // measure 56
0000
0000
0101
0000
1000
0100
1000
0000
,  // measure 57
0110
0000
0001
0100
0010
0000
1000
1000
,  // measure 58
0100
0100
0010
1001
,  // measure 59
1000
0000
1000
0000
0001
0000
0100
0010
,  // measure 60
0100
0000
0001
0000
0001
0000
1000
1000
,  // measure 61
0010
0000
0100
0000
0001
1000
0010
0000
,  // measure 62
0100
0000
0001
0010
1100
0000
0000
0000
,  // measure 63
1000
0000
0101
0000
0000
0000
1000
0100
,  // measure 64
0011
0001
1100
0100
,  // measure 65
1000
0100
1000
0000
0001
0000
0000
0010
,  // measure 66
0110
0000
1000
0000
0000
0100
1100
0000
,  // measure 67
0011
0100
0010
0001
,  // measure 68
0000
0000
1000
1000
0010
0000
0100
0000
,  // measure 69
0001
0110
0010
1000
,  // measure 70
1100
0000
0001
0010
0001
0000
0100
0000
,  // measure 71
0010
0000
1000
0100
1000
0000
0100
0000
,  // measure 72
0010
0011
0001
0100
,  // measure 73
0110
0100
0001
0011
,  // measure 74
0000
0000
1100
0010
,  // measure 75
0001
0100
0010
1100
,  // measure 76
0101
0000
0010
0010
,  // measure 77
1010
0000
0100
0010
0100
0000
0001
0000
,  // measure 78
0100
0010
1000
0010
,  // measure 79
0100
0010
1000
1000
,  // measure 80
0000
0010
0000
0010
2000
0000
0000
0000
,  // measure 81
0000
0010
0001
0100
,  // measure 82
3100
0000
0000
0000
;

//---------------dance-single - Blank----------------
#NOTES:
     dance-single:
     Blank:
     Medium:
     5:
     0.295,0.278,0.103,0.000,0.000,229.000,12.000,0.000,0.000,0.000,0.000,0.295,0.278,0.103,0.000,0.000,229.000,12.000,0.000,0.000,0.000,0.000: // measure 1
0000
0000
0000
0000
,  // measure 2
0000
0000
0000
0000
,  // measure 3
0000
0000
0000
0000
,  // measure 4
1100
0000
0010
0001
,  // measure 5
0010
0000
0100
0000
1000
0000
0000
0010
,  // measure 6
1000
0100
0000
1000
,  // measure 7
0100
0010
0100
0010
,  // measure 8
0000
0001
1000
0001
,  // measure 9
1000
0100
1000
0000
0000
0000
0000
0000
,  // measure 10
1100
0000
0010
0100
,  // measure 11
0010
0001
1000
0000
,  // measure 12
0001
0011
0000
0000
,  // measure 13
1000
0100
0010
0100
,  // measure 14
0000
0010
0001
0000
,  // measure 15
1000
0100
0000
0010
,  // measure 16
0010
0000
0001
1001
,  // measure 17
0000
0100
0010
1000
,  // measure 18
0100
0110
0010
0100
,  // measure 19
1001
0000
1000
0000
0100
0010
0100
0000
,  // measure 20
0000
0000
0010
0001
,  // measure 21
0100
0001
0010
0100
,  // measure 22
0010
0000
0010
0001
,  // measure 23
0000
0000
1000
0100
,  // measure 24
0010
0100
1000
0001
,  // measure 25
0010
0000
0000
0001
,  // measure 26
0000
0000
0100
0010
,  // measure 27
1000
0010
0100
0001
,  // measure 28
0010
0000
0010
0001
,  // measure 29
0000
0000
0100
0010
,  // measure 30
1000
0000
0100
0000
0010
0000
0000
0001
,  // measure 31
0100
0000
0000
0000
,  // measure 32
0000
0000
0000
0000
0100
0000
0001
0010
,  // measure 33
0001
0100
0010
1000
,  // measure 34
0100
0000
0010
0010
,  // measure 35
0000
0000
0000
0000
0001
0000
1000
0100
,  // measure 36
1000
0010
0100
0100
,  // measure 37
0001
1000
0010
0100
,  // measure 38
0000
0000
0000
0000
0001
0000
0100
0010
,  // measure 39
0100
0001
1000
1000
,  // measure 40
0100
0000
0010
0010
,  // measure 41
0000
0001
0001
0000
,  // measure 42
0010
0100
1000
0010
,  // measure 43
0100
0000
0010
0010
,  // measure 44
0000
0000
0000
0000
1000
0000
0001
0100
,  // measure 45
0001
0000
0010
0000
0100
1000
0100
0000
,  // measure 46
0010
0000
0001
0001
,  // measure 47
0000
1000
1100
0000
,  // measure 48
1000
0100
0010
0100
,  // measure 49
1000
0000
0001
0001
,  // measure 50
0000
0000
1000
0100
,  // measure 51
1000
0010
0100
0010
,  // measure 52
0001
0000
0010
0010
,  // measure 53
0000
0100
0001
0000
,  // measure 54
0000
0010
0100
1000
,  // measure 55
0001
0000
1000
0010
,  // measure 56
0000
0000
1000
1000
,  // measure 57
1000
0001
0001
0001
,  // measure 58
0100
0000
0001
0001
,  // measure 59
0000
0000
1000
0000
,  // measure 60
0010
0010
0100
0001
,  // measure 61
0100
0000
0001
0001
,  // measure 62
0000
0000
1000
1000
,  // measure 63
0010
0100
0010
1000
,  // measure 64
0001
0000
0100
0100
,  // measure 65
0000
0010
0010
0000
,  // measure 66
0000
1000
0100
0010
,  // measure 67
0001
0000
0100
0010
,  // measure 68
0000
0000
0100
0100
,  // measure 69
0100
0001
0001
0001
,  // measure 70
1000
0000
0000
0010
,  // measure 71
0000
0010
0010
0000
,  // measure 72
0000
1100
0000
0000
,  // measure 73
0011
0000
0000
0110
,  // measure 74
0000
0000
0100
0010
,  // measure 75
0001
0100
0000
0000
,  // measure 76
0100
0000
0001
0010
,  // measure 77
0100
1000
0010
0000
,  // measure 78
0000
0101
0000
0000
,  // measure 79
0100
0100
0100
0100
,  // measure 80
0000
0000
0001
0000
,  // measure 81
0000
1000
0001
0100
,  // measure 82
0110
0000
0000
0000
;
