#TITLE:Tohoku EVOLVED;
#SUBTITLE:;
#ARTIST:2.1MB underground;
#TITLETRANSLIT:;
#SUBTITLETRANSLIT:;
#ARTISTTRANSLIT:;
#GENRE:;
#CREDIT:;
#MENUCOLOR:;
#METERTYPE:DDR;
#BANNER:Tohoku EVOLVED.png;
#BACKGROUND:Tohoku EVOLVED-bg.png;
#LYRICSPATH:;
#CDTITLE:;
#MUSIC:Tohoku EVOLVED.mp3;
#OFFSET:1.375;
#SAMPLESTART:35.294;
#SAMPLELENGTH:11.980;
#SELECTABLE:YES;
#LISTSORT:;
#BPMS:0.000=340.000,7.000=680.000,9.000=340.000,369.000=42.500,370.000=680.000,380.000=340.000,512.000=1020.000;
#STOPS:370.000=1.941
,512.000=3.529
;
#BGCHANGES:;
#ATTACKS:;

//---------------dance-single - ----------------
#NOTES:
     dance-single:
     :
     Hard:
     17:
     1.000,1.000,0.479,0.198,0.016:
0000
0000
0000
0000
,
0000
0000
0000
0000
,
0000
1010
0000
0000
,
0000
0000
0001
0000
0000
0000
1000
0100
,
0010
0100
1000
0000
0001
0000
0101
0000
,
0010
0000
1010
0000
0000
0000
0001
0010
,
0100
0010
0001
0000
0000
0000
1000
0000
,
1100
0000
0010
0000
0011
0000
0100
0001
,
1000
0001
0100
0000
0010
0000
0110
0000
,
0010
0000
1010
0000
0000
0000
1000
0001
,
1000
0001
0010
0000
0000
0010
0100
0000
,
0000
0100
1000
0000
0000
1000
0001
0000
,
0000
0001
0100
0000
0000
0100
0010
0000
,
0000
0010
1000
0000
0000
1000
0100
0010
,
0001
0100
0010
0000
0000
0010
0100
0000
,
0000
0100
0101
0000
1100
0000
0101
0000
,
1100
1010
0011
1010
,
0011
0000
0100
0000
0010
0000
0001
1000
,
0010
0100
0001
0000
0000
0001
1000
0000
,
0000
1000
0100
0000
0000
0100
0010
0000
,
0000
0010
0001
0000
0000
0001
0100
0000
,
0000
0100
0010
0000
0000
0010
1000
0100
,
0010
0100
1000
0000
0000
1000
0001
0000
,
0000
0001
0100
0000
0000
0100
1000
0000
,
0000
1000
0100
0000
0000
0100
0001
0000
,
0000
0001
1000
0100
0010
0001
1000
0100
,
0010
0001
0100
0010
1000
0100
0010
0001
,
0100
0010
1000
0000
0001
0100
1000
0000
,
1000
0100
0001
0000
0001
0010
1000
0000
,
1000
0010
0001
0000
0001
1000
0100
1000
,
0001
1000
0010
0000
1000
0010
0001
0000
,
0001
0010
1000
0000
1000
0100
0001
0000
,
0001
0100
1000
0000
1000
0010
0100
0000
,
0001
1000
0100
0010
0100
0010
0100
1000
,
0100
1000
0010
1000
0100
0010
0001
0100
,
0010
1000
0001
0100
1000
0100
0001
0010
,
1000
0010
0001
0000
0010
0001
0010
0000
,
0110
0000
0010
0000
0011
0000
1000
0001
,
0100
0001
1000
0000
0000
1000
0010
0000
,
0000
0010
0100
0000
0000
0100
0001
0000
,
0000
0001
0010
0000
0100
0010
0100
0000
,
0110
0000
0001
0000
0110
0000
0001
1000
,
0010
1000
0001
0000
0000
0001
0100
0000
,
0000
0100
0010
0000
0000
0010
1000
0000
,
0000
1000
0100
0000
0010
0001
0100
0000
,
0110
0000
0100
0000
0101
0000
1000
0010
,
0100
0010
1000
0000
0000
1000
0001
0000
,
0000
0001
0100
0000
0000
0100
0010
0000
,
0000
0010
0100
0000
0001
1000
0100
0000
,
0110
0000
0001
0000
1001
0000
0100
0010
,
0001
0010
0100
0000
0000
0100
1000
0000
,
0000
1000
0010
0100
0001
0100
0001
0000
,
1000
0100
0010
0100
0000
0100
0010
0001
,
0000
0001
0100
0010
0000
0010
1000
0010
,
0000
0010
0100
0001
0000
0001
1000
0100
,
0000
0100
1000
0010
0000
0010
0100
0000
,
0001
0000
1000
0100
0000
0100
0010
0100
,
0000
0100
0010
0001
0000
0001
1000
0010
,
0000
0010
0100
0010
0000
0010
0100
0001
,
0000
0001
1000
0100
0000
0100
1000
0010
,
0100
0001
0010
0001
0000
0001
0100
0010
,
0000
0010
1000
0100
0000
0100
1000
0001
,
0000
0001
1000
0010
0000
0010
0100
0001
,
0000
0001
1000
0001
0000
0001
1000
0000
,
0100
0000
0010
0001
0000
0001
0010
0100
,
0000
0100
1000
0001
0000
0001
0100
0010
,
0000
0010
1000
0000
0100
0010
0001
0100
,
1000
0100
0001
0000
0000
0000
1000
0010
,
0100
0001
1000
0000
0000
0000
2000
0000
,
0000
3100
0000
0200
,
0000
0301
0000
0002
,
0000
0013
0000
0020
,
0000
1030
0000
2000
,
0000
3100
0000
0200
,
0000
0301
0000
0002
,
0000
0013
0000
0010
,
0000
1000
0010
1000
,
0100
1000
0001
0010
,
0100
0010
0001
1000
,
0010
0000
0100
0001
0100
1000
0100
0001
,
0100
1000
0100
0000
0010
0000
1000
0000
,
0100
0101
1100
0101
,
1100
0110
1001
0110
,
1001
0000
0010
0100
0001
0100
0010
0100
,
0001
0100
1000
0010
0200
0000
0301
0000
,
0101
0000
0010
1000
0200
0000
1300
0000
,
1001
0000
0010
0001
2000
0000
3010
0000
,
0110
0000
0001
1000
0200
0000
0310
0000
,
0011
0000
1000
0010
0200
0000
0310
1000
,
0002
0000
0013
0100
2000
0000
3001
0100
,
0020
0000
1030
0001
0100
0010
1000
0100
,
0010
0001
1000
0001
0100
1000
0100
0001
,
0010
0000
0000
0000
0100
0000
0000
0000
0000
0000
0000
0000
0000
0000
0000
0000
2002
3003
0000
0000
0000
0000
0000
0000
0000
0000
0000
0000
0000
0000
0000
0000
,
0100
0010
0100
0001
,
0010
0100
1000
0001
,
1000
0000
0001
0010
0100
0000
1000
0001
,
0100
0000
0010
1000
0001
0000
0100
0010
,
1000
0000
0001
1000
0100
0000
0010
0001
,
0100
0000
0010
1000
0001
0000
0110
0000
,
0001
1000
0000
0100
0010
0000
0001
1000
,
0001
0100
0000
0010
1000
0000
0001
0010
,
0100
0010
0000
0001
1000
0100
0000
1000
,
0001
0100
0000
0010
1000
0100
1000
0001
,
0100
0000
0010
1000
0100
0000
1000
0001
,
0010
0000
0001
1000
0100
0000
1000
0001
,
0100
0010
1000
0010
0100
0000
0001
0010
,
0100
0000
0000
0100
0010
0000
0001
0010
,
0100
0000
0000
0100
1000
0010
0000
0100
,
0001
0010
0000
0100
0010
0000
0110
0000
,
1000
0000
0001
1000
0100
0000
1000
0001
,
0010
0001
0100
0010
1000
0001
0010
0100
,
1000
0000
0001
1000
0100
0000
0001
0100
,
1000
0000
0010
0100
0010
0000
0001
0010
,
1000
0000
0001
1000
0100
0000
0010
0001
,
0100
0000
1000
0100
0001
0000
1001
0000
,
0010
0100
0000
0100
0010
0001
0000
0100
,
0001
0010
0000
0100
1000
0000
0001
1000
,
0001
0000
0000
0100
0010
1000
0000
0001
,
1000
0001
0000
1000
0100
0010
0001
0100
,
0010
1000
0000
0001
1000
0010
0000
0100
,
0001
1000
0000
0100
1000
0001
0000
0010
,
0001
1000
0000
0010
0100
0001
0000
1000
,
0100
0010
0000
0001
1000
0010
0000
0100
,
0001
0010
0001
0100
0010
1000
0100
0001
,
0100
1000
0010
0100
0010
1000
0100
0010
,
0011
0000
0000
0000
1100
0000
0000
0000
0101
0000
0000
0000
,
0110
0000
0000
0000
0101
0000
0000
0000
1100
0000
0000
0000
,
0010
0000
0100
0000
,
2002
3003
0000
0000
0000
0000
0000
0000
0000
0000
0000
0000
0000
0000
0000
0000
0000
0000
0000
0000
0000
0000
0000
0000
0000
0000
0000
0000
0000
0000
0000
0000
,
0000
0000
0000
0000
,
0000
0000
0000
0000
,
0000
0000
0000
0000
,
0000
0000
0000
0000
,
0000
0011
0000
0000
;

//---------------dance-double - ----------------
#NOTES:
     dance-double:
     :
     Hard:
     17:
     0.991,1.000,0.312,0.104,0.021: // measure 1
00000000
00000000
00000000
00000000
,  // measure 2
00000000
00000000
00000000
00000000
,  // measure 3
00000000
01010000
00000000
00000000
,  // measure 4
00000000
00000000
00010000
00000000
00000000
00000000
10000000
01000000
,  // measure 5
00100000
01000000
10000000
00000000
01000000
00000000
00100000
00000000
,  // measure 6
00001000
00000000
00011000
00000000
00000000
00000000
00000010
00000100
,  // measure 7
00000001
00000100
00000010
00000000
00000000
00000000
00001000
00000000
,  // measure 8
00000100
00000000
00000010
00000000
00000001
00000000
00000100
00000010
,  // measure 9
00000001
00000010
00000100
00000000
00001000
00000000
00010000
00000000
,  // measure 10
00100000
00000000
01100000
00000000
00000000
00000000
10000000
00010000
,  // measure 11
10000000
00010000
00100000
00000000
00000000
00100000
01000000
00000000
,  // measure 12
00000000
01000000
10000000
00000000
00000000
10000000
00010000
00000000
,  // measure 13
00000000
00010000
01000000
00000000
00000000
01000000
00001000
00000000
,  // measure 14
00000000
00001000
00010000
00000000
00000000
00010000
00000010
00001000
,  // measure 15
00000100
00000010
00000001
00000000
00000000
00000001
00000100
00000000
,  // measure 16
00000000
00000100
00001000
00000000
00011000
00000000
00100000
00000000
,  // measure 17
01100000
01000000
11000000
01000000
,  // measure 18
00110000
00000000
00001000
00000000
00011000
00000000
00000100
00000010
,  // measure 19
00000001
00001000
00000010
00000000
00000000
00000010
00000100
00000000
,  // measure 20
00000000
00000100
00000001
00000000
00000000
00000001
00000010
00000000
,  // measure 21
00000000
00000010
00001000
00000000
00000000
00001000
00100000
00000000
,  // measure 22
00000000
00100000
00010000
00000000
00000000
00010000
10000000
01000000
,  // measure 23
00100000
01000000
10000000
00000000
00000000
10000000
00010000
00000000
,  // measure 24
00000000
00010000
01000000
00000000
00000000
01000000
10000000
00000000
,  // measure 25
00000000
10000000
01000000
00000000
00000000
01000000
00001000
00000000
,  // measure 26
00000000
00001000
00100000
00001000
01000000
00010000
00100000
00001000
,  // measure 27
01000000
00010000
00100000
00001000
00010000
00000010
00001000
00000001
,  // measure 28
00000010
00000100
00001000
00000000
00000010
00001000
00000010
00000000
,  // measure 29
00000100
00000001
00000100
00000000
00000001
00000010
00000001
00000000
,  // measure 30
00001000
00000100
00001000
00000000
00000010
00010000
00001000
00000000
,  // measure 31
00100000
00010000
10000000
00000000
00010000
01000000
00100000
00000000
,  // measure 32
01000000
00010000
10000000
00000000
01000000
00100000
00010000
00000000
,  // measure 33
01000000
00001000
00010000
00000000
00000010
00001000
00000001
00000000
,  // measure 34
00000010
00000100
00001000
00000000
00000101
00000000
00001100
00000000
,  // measure 35
00000101
00000000
00000001
00000100
00000010
00001000
00000100
00000010
,  // measure 36
00000001
00000100
00001000
00010000
00100000
01000000
00010000
10000000
,  // measure 37
01000000
10000000
00010000
00000000
00100000
01000000
00100000
00000000
,  // measure 38
11000000
00000000
00100000
00000000
00010000
00000000
10000000
01000000
,  // measure 39
00010000
00001000
00010000
00000000
00000000
00010000
00000010
00000000
,  // measure 40
00000000
00000010
00001000
00000000
00000000
00001000
00000001
00000000
,  // measure 41
00000000
00000001
00000010
00000000
00000100
00000010
00000100
00000000
,  // measure 42
00001100
00000000
00000001
00000000
00000100
00000000
00000010
00001000
,  // measure 43
00010000
01000000
00010000
00000000
00000000
00010000
01000000
00000000
,  // measure 44
00000000
01000000
00100000
00000000
00000000
00100000
10000000
00000000
,  // measure 45
00000000
10000000
01000000
00000000
00100000
00010000
01000000
00000000
,  // measure 46
01100000
00000000
00010000
00000000
00001000
00000000
00010000
00000100
,  // measure 47
00001000
00000001
00000010
00000000
00000000
00000010
00000100
00000000
,  // measure 48
00000000
00000100
00001000
00000000
00000000
00001000
00000010
00000000
,  // measure 49
00000000
00000010
00000100
00000000
00000001
00001000
00000100
00000000
,  // measure 50
00000110
00000000
00001000
00000000
00010000
00000000
00001000
00010000
,  // measure 51
01000000
10000000
01000000
00000000
00000000
01000000
10000000
00000000
,  // measure 52
00000000
10000000
00100000
01000000
00010000
01000000
00010000
00000000
,  // measure 53
10000000
00000000
00010000
01000000
00000000
01000000
00100000
01000000
,  // measure 54
00000000
01000000
00001000
00010000
00000000
00010000
00001000
00000100
,  // measure 55
00000000
00000100
00000001
00000010
00000000
00000010
00000100
00001000
,  // measure 56
00000000
00001000
00000001
00000100
00000000
00000100
00000001
00000000
,  // measure 57
00000010
00000000
00000100
00000010
00000000
00000010
00001000
00010000
,  // measure 58
00000000
00010000
01000000
10000000
00000000
10000000
00010000
00100000
,  // measure 59
00000000
00100000
00010000
01000000
00000000
01000000
00100000
00010000
,  // measure 60
00000000
00010000
00001000
00010000
00000000
00010000
00000100
00000010
,  // measure 61
00000001
00000100
00000010
00000100
00000000
00000100
00000001
00001000
,  // measure 62
00000000
00001000
00000001
00000010
00000000
00000010
00001000
00010000
,  // measure 63
00000000
00010000
00001000
00100000
00000000
00100000
01000000
10000000
,  // measure 64
00000000
10000000
00010000
01000000
00000000
01000000
00100000
00000000
,  // measure 65
10000000
00000000
01000000
00100000
00000000
00100000
00010000
01000000
,  // measure 66
00000000
01000000
00001000
00010000
00000000
00010000
00000100
00001000
,  // measure 67
00000000
00001000
00000001
00000000
00000010
00000001
00000100
00000010
,  // measure 68
00001000
00000100
00000010
00000000
00000000
00000000
00000001
00001000
,  // measure 69
00000100
00000010
00000001
00000000
00000000
00000000
00000001
00000000
,  // measure 70
00000000
00000100
00000000
00000100
,  // measure 71
00000000
00001000
00000000
00001000
,  // measure 72
00000000
00010000
00000000
00010000
,  // measure 73
00000000
01000000
00000000
01000000
,  // measure 74
00000000
10000000
00000000
10000000
,  // measure 75
00000000
00100000
00000000
00100000
,  // measure 76
00000000
00010000
00000000
00010000
,  // measure 77
00000000
00000010
00001000
00000001
,  // measure 78
00000100
00000010
00000100
00001000
,  // measure 79
00010000
00100000
10000000
01000000
,  // measure 80
00100000
00000000
00010000
01000000
10000000
01000000
00010000
01000000
,  // measure 81
10000000
01000000
00100000
00000000
10000000
00000000
01000000
00000000
,  // measure 82
00010000
00011000
00001010
00000011
,  // measure 83
00000101
00000110
00001001
00000110
,  // measure 84
00001001
00000000
00000010
00010000
00001000
00100000
00010000
01000000
,  // measure 85
00100000
10000000
00010000
01000000
00010000
00000000
10000000
00000000
,  // measure 86
10010000
00000000
00100000
00010000
00100000
00000000
01000000
00000000
,  // measure 87
11000000
00000000
00010000
01000000
00010000
00000000
10000000
00000000
,  // measure 88
01100000
00000000
00100000
00001000
00100000
00000000
00001000
00000000
,  // measure 89
00011000
00000000
00000100
00001000
00000010
00000000
00000100
00000001
,  // measure 90
00001000
00000000
00000100
00010000
00001000
00000000
00100000
00010000
,  // measure 91
01000000
00000000
00100000
01000000
00100000
10000000
01000000
00100000
,  // measure 92
00010000
00001000
00000100
00000010
00000001
00001000
00000010
00000100
,  // measure 93
00000001
00000000
00000000
00000000
00000010
00000000
00000000
00000000
00000000
00000000
00000000
00000000
00000000
00000000
00000000
00000000
00002002
00003003
00000000
00000000
00000000
00000000
00000000
00000000
00000000
00000000
00000000
00000000
00000000
00000000
00000000
00000000
,  // measure 94
00000001
00000100
00000010
00010000
,  // measure 95
00001000
00100000
00010000
10000000
,  // measure 96
01000000
00000000
00000000
01000000
00010000
00000000
00000000
00010000
,  // measure 97
00001000
00000000
00000000
00001000
00000010
00000000
00000000
00000010
,  // measure 98
00001000
00000000
00000000
00001000
00100000
00000000
00000000
00100000
,  // measure 99
01000000
00000000
00000000
01000000
10000000
00000000
00000000
00000000
,  // measure 100
00010000
10000000
00000000
10000000
01000000
00000000
00100000
00001000
,  // measure 101
01000000
00010000
00000000
00010000
01000000
00000000
00001000
00010000
,  // measure 102
00000010
00001000
00000000
00001000
00000100
00000010
00000000
00000010
,  // measure 103
00000001
00000100
00000000
00000100
00000010
00001000
00010000
01000000
,  // measure 104
00010000
00000000
00000000
00010000
10000000
00000000
00000000
10000000
,  // measure 105
01000000
00000000
00000000
01000000
00100000
00000000
00000000
00100000
,  // measure 106
00001000
01000000
00010000
00100000
01000000
00000000
10000000
00010000
,  // measure 107
01000000
00000000
00000000
01000000
00100000
00000000
10000000
00000000
,  // measure 108
00010000
00000000
00000000
10000000
01000000
00010000
00000000
00001000
,  // measure 109
00000010
00000001
00000000
00000001
00001000
00000000
00000010
00000000
,  // measure 110
00000100
00000000
00000001
00001000
00000100
00000000
00000010
00000100
,  // measure 111
00010000
00001000
00100000
00010000
01000000
10000000
01000000
00100000
,  // measure 112
01000000
00000000
00000000
01000000
00010000
00000000
00000000
00010000
,  // measure 113
10000000
00000000
00000000
10000000
01000000
00000000
00000000
01000000
,  // measure 114
00010000
00000000
00000000
00010000
00000100
00000000
00000000
00000100
,  // measure 115
00000010
00000000
00000000
00000010
00000001
00000000
00000000
00000000
,  // measure 116
00001000
00000000
00000000
00001000
00000001
00000010
00000000
00000010
,  // measure 117
00000100
00000000
00000000
00010000
00001000
00000000
00100000
00010000
,  // measure 118
01000000
00000000
00000000
00100000
10000000
00010000
00000000
00010000
,  // measure 119
10000000
00000000
00000000
10000000
01000000
00100000
00001000
00010000
,  // measure 120
00000010
00001000
00000000
00000001
00000010
00000100
00000000
00001000
,  // measure 121
00000001
00000100
00000000
00001000
00010000
00001000
00000000
00100000
,  // measure 122
01000000
10000000
00000000
00100000
00010000
00001000
00000000
00100000
,  // measure 123
00001000
00010000
00000000
00000100
00010000
00001000
00000000
00010000
,  // measure 124
00000010
00001000
00000001
00000100
00000010
00001000
00000100
00000010
,  // measure 125
00000100
00010000
00001000
00100000
00010000
10000000
00100000
01000000
,  // measure 126
00020000
00000000
00000000
00000000
20030000
00000000
00000000
00000000
32000000
00000000
00000000
00000000
,  // measure 127
03020000
00000000
00000000
00000000
00032000
00000000
00000000
00000000
00003020
00000000
00000000
00000000
,  // measure 128
00000031
00000000
00001000
00000000
,  // measure 129
00002002
00003003
00000000
00000000
00000000
00000000
00000000
00000000
00000000
00000000
00000000
00000000
00000000
00000000
00000000
00000000
00000000
00000000
00000000
00000000
00000000
00000000
00000000
00000000
00000000
00000000
00000000
00000000
00000000
00000000
00000000
00000000
,  // measure 130
00000000
00000000
00000000
00000000
,  // measure 131
00000000
00000000
00000000
00000000
,  // measure 132
00000000
00000000
00000000
00000000
,  // measure 133
00000000
00000000
00000000
00000000
,  // measure 134
00000000
00001100
00000000
00000000
;
