#TITLE:PARANOiA Revolution;
#SUBTITLE:;
#ARTIST:CLIMAX of MAXX 360;
#TITLETRANSLIT:;
#SUBTITLETRANSLIT:;
#ARTISTTRANSLIT:;
#GENRE:;
#CREDIT:;
#MENUCOLOR:;
#METERTYPE:DDR;
#BANNER:PARANOiA Revolution.png;
#BACKGROUND:;
#LYRICSPATH:;
#CDTITLE:;
#MUSIC:PARANOiA Revolution.mp3;
#OFFSET:-0.030;
#SAMPLESTART:16.667;
#SAMPLELENGTH:12.000;
#SELECTABLE:YES;
#LISTSORT:;
#BPMS:0.000=360.000,260.000=180.000,324.000=360.000;
#STOPS:386.000=0.167
;
#BGCHANGES:;
#ATTACKS:;

//---------------dance-single - ----------------
#NOTES:
     dance-single:
     :
     Hard:
     10:
     0.978,1.000,0.547,0.000,0.065: // measure 1
0000
0000
0000
0000
,  // measure 2
0000
0000
0000
0000
,  // measure 3
0000
0000
0000
0000
,  // measure 4
0000
0000
0000
0000
,  // measure 5
0000
0000
0000
0000
,  // measure 6
0000
0000
0000
0000
,  // measure 7
0000
0000
0000
0000
,  // measure 8
0000
0000
0000
0000
,  // measure 9
0000
0000
0000
0000
,  // measure 10
0000
0000
0011
0000
0000
1001
0000
0000
,  // measure 11
1100
0000
0000
1001
0000
0000
0011
0000
,  // measure 12
0000
0000
1100
0000
0000
1001
0000
0000
,  // measure 13
0011
0000
0000
1001
0000
0000
1100
0000
,  // measure 14
0000
0000
0011
0000
0000
1001
0000
0000
,  // measure 15
1100
0000
0000
1001
0000
0000
0011
0000
,  // measure 16
0010
0000
0001
0100
0001
0000
1000
0010
,  // measure 17
1000
0000
0001
0100
0001
0000
1000
0100
,  // measure 18
1000
0100
1000
0010
,  // measure 19
1000
0100
1000
0010
,  // measure 20
0100
0001
0010
0001
,  // measure 21
0100
0001
0010
0001
,  // measure 22
0100
0010
1000
0001
,  // measure 23
0100
0010
1001
0000
,  // measure 24
0010
1000
0010
1000
,  // measure 25
0001
0000
0100
0000
0001
0100
0001
0000
,  // measure 26
0001
0100
0001
0000
0100
0001
0010
0100
,  // measure 27
1000
0100
1100
0000
,  // measure 28
1000
0100
1000
0000
0100
1000
0100
0010
,  // measure 29
0001
0010
0001
0010
,  // measure 30
0001
0000
1000
0100
0001
0000
0001
0100
,  // measure 31
0010
0000
0001
0100
1000
0000
1000
0100
,  // measure 32
0001
0000
0001
0100
1000
0000
1000
0100
,  // measure 33
0010
0000
0001
0010
1000
0000
0000
0000
,  // measure 34
0001
0100
0001
0100
0001
0000
1000
0100
,  // measure 35
1000
0100
1000
0000
0010
0100
0010
0100
,  // measure 36
0010
0000
1000
0001
1000
0001
1000
0000
,  // measure 37
0001
0100
0001
0010
0001
0000
0000
0000
,  // measure 38
1000
0100
1000
0010
1000
0000
0010
0100
,  // measure 39
0010
1000
0001
0000
1000
0001
1000
0010
,  // measure 40
0100
0000
0001
0010
0100
1000
0001
0000
,  // measure 41
1000
0100
1000
0010
1000
0000
0000
0000
,  // measure 42
0001
0100
0001
0100
0010
0000
0100
0010
,  // measure 43
1000
0010
0001
0000
0010
0100
0010
1000
,  // measure 44
0100
0000
0010
0001
0100
1000
0100
0000
,  // measure 45
1000
0100
0001
0100
1000
0000
0000
0000
,  // measure 46
0100
0001
0010
0100
1000
0000
1000
0010
,  // measure 47
0100
0010
1000
0000
0001
0100
1000
0100
,  // measure 48
0010
0000
1000
0100
0010
0100
0001
0100
,  // measure 49
0001
0100
0010
0100
1000
0010
0100
1000
,  // measure 50
0100
0000
1001
0010
,  // measure 51
1000
0101
1000
0100
,  // measure 52
0011
0100
0001
1010
,  // measure 53
0001
1000
0110
0001
,  // measure 54
0010
0101
1000
0010
,  // measure 55
0100
1001
0001
0010
,  // measure 56
1100
0010
1000
0101
,  // measure 57
0010
0100
1001
0100
,  // measure 58
0001
0000
0010
0000
0100
0000
1000
0100
,  // measure 59
1000
0010
0100
0000
,  // measure 60
1000
0000
0010
0000
0100
0000
0001
0010
,  // measure 61
0001
0010
0100
1000
,  // measure 62
0001
0100
0001
0000
0010
0000
0100
1000
,  // measure 63
0100
0000
1000
0000
0010
0100
0010
0000
,  // measure 64
0100
0001
1000
0000
0100
0010
0001
0100
,  // measure 65
0010
1000
0100
0010
0001
0100
0010
0000
,  // measure 66
0001
0010
1000
0000
0100
0000
0001
0000
,  // measure 67
1000
0100
0001
0000
0100
1000
0010
0000
,  // measure 68
0010
0001
1000
0100
0010
0001
0010
1000
,  // measure 69
0010
0001
0100
0001
0010
1000
0001
0010
,  // measure 70
0100
1000
0010
0001
0010
1000
0100
0001
,  // measure 71
0100
1000
0100
0010
0001
0100
0010
0000
,  // measure 72
0001
0100
1000
0010
0001
0000
1010
0000
,  // measure 73
0001
0010
1000
0010
0100
0000
1001
0000
,  // measure 74
0010
0010
0010
0010
0010
0010
0010
0010
,  // measure 75
0010
0010
0010
0010
0010
0010
0000
0000
,  // measure 76
1000
0100
1000
0100
0001
0100
0001
0100
,  // measure 77
0010
0001
1000
0100
0000
1000
0010
0100
,  // measure 78
0100
1000
0100
0010
1000
0001
0010
0100
,  // measure 79
0001
0100
1000
0010
0100
0001
1000
0100
,  // measure 80
0001
0010
1000
0100
0010
0001
0100
1000
0100
0001
0010
0100
1000
0001
0010
1000
,  // measure 81
0010
0001
0100
0001
0010
1000
0010
0001
0100
1000
0100
0001
0010
0000
0000
0000
,  // measure 82
0001
0100
1000
0100
0010
0000
0100
0001
,  // measure 83
0010
0001
0010
0001
,  // measure 84
0100
0000
0001
0010
1000
0010
0100
0000
,  // measure 85
0010
0001
0100
0000
0001
0000
0100
0000
,  // measure 86
0001
0100
1000
0100
0001
0000
1000
0001
,  // measure 87
0100
0001
1000
0010
,  // measure 88
0100
0000
0001
0100
1000
0000
0010
0000
,  // measure 89
0001
0011
0000
0110
,  // measure 90
0010
0001
0100
0010
0100
0000
0010
1000
,  // measure 91
0100
0010
0100
0000
0001
0000
0100
0010
,  // measure 92
1000
0000
0010
0100
1000
0000
0001
0100
,  // measure 93
1000
0000
0001
0010
1000
0000
0001
0000
,  // measure 94
0010
1000
0100
0010
0100
0000
0010
0001
,  // measure 95
0100
0010
0100
0000
1000
0000
0100
0010
,  // measure 96
0001
0000
0010
0100
0001
0000
1000
0100
,  // measure 97
0001
0000
1000
0010
0001
0000
1000
0000
,  // measure 98
0010
0100
0001
1000
,  // measure 99
0100
0010
0001
1000
,  // measure 100
0010
0100
0001
0010
,  // measure 101
0001
0000
0000
1000
0000
1000
0010
0000
,  // measure 102
0100
0000
0001
0100
0001
0000
0010
0000
,  // measure 103
0100
0000
1000
0100
1000
0000
0001
0000
,  // measure 104
1000
0000
0010
0100
0010
0000
0100
0000
,  // measure 105
0001
1000
0000
1000
0001
0000
0001
0000
,  // measure 106
0110
0000
1000
0000
0001
0010
0000
1000
,  // measure 107
0100
0010
0001
1000
,  // measure 108
0110
0000
0001
0000
1000
0010
0000
0001
,  // measure 109
0100
0010
1000
1010
,  // measure 110
0100
0000
0010
0001
0100
0000
0001
0000
,  // measure 111
1100
0000
1000
0000
0101
0000
0010
0100
,  // measure 112
0010
1000
0001
1000
,  // measure 113
0101
0000
0001
0000
1000
0100
1000
0000
,  // measure 114
1100
0100
0101
0001
,  // measure 115
1001
0011
1001
1010
,  // measure 116
1001
1100
1001
1000
,  // measure 117
0110
0101
0110
0001
,  // measure 118
0110
1100
0110
1000
,  // measure 119
0011
1001
0101
0010
,  // measure 120
1100
1001
1010
0100
,  // measure 121
1000
0001
0100
0010
1000
0000
0001
1000
,  // measure 122
0001
1000
0001
0010
1000
0010
0001
0010
,  // measure 123
0100
1000
0010
0001
0010
0100
0010
1000
,  // measure 124
0001
0010
0100
0000
1000
0000
0010
0000
,  // measure 125
0001
0000
0010
0000
1000
0000
0100
0001
,  // measure 126
0100
1000
0100
0010
0001
0100
0010
1000
,  // measure 127
0001
0010
0100
1000
0001
0010
0100
0001
,  // measure 128
0100
1000
0010
0100
0001
0010
1000
0010
,  // measure 129
0001
1000
0010
0100
0001
1000
0010
0000
,  // measure 130
0000
0000
1001
0000
,  // measure 131
0000
0000
0000
0000
,  // measure 132
0000
0000
0000
0000
,  // measure 133
0000
0000
0000
0000
,  // measure 134
0000
0000
0000
0000
,  // measure 135
0000
0000
0000
0000
,  // measure 136
0000
0000
0000
0000
,  // measure 137
0000
0000
0000
0000
,  // measure 138
0000
0000
0000
0000
,  // measure 139
0000
0000
0000
0000
,  // measure 140
0000
0000
0000
0000
,  // measure 141
0000
0000
0000
0000
0000
0000
0001
0010
,  // measure 142
0001
0010
1000
0010
1000
0100
1000
0100
,  // measure 143
1000
0010
0100
0001
1000
0100
0010
0000
;
