#TITLE:Go Beyond!!;
#SUBTITLE:;
#ARTIST:Ryu☆ Vs. Sota;
#TITLETRANSLIT:;
#SUBTITLETRANSLIT:;
#ARTISTTRANSLIT:Ryu* vs Sota;
#CREDIT:;
#BANNER:Go Beyond!!.png;
#BACKGROUND:Go Beyond!!-bg.png;
#LYRICSPATH:;
#CDTITLE:;
#MUSIC:Go Beyond!!.mp3;
#OFFSET:-1.600;
#SAMPLESTART:20.800;
#SAMPLELENGTH:12.000;
#SELECTABLE:YES;
#BPMS:0.000=200.000,96.000=100.000,150.000=200.001,154.000=400.001,404.000=200.003,404.500=175.003,405.000=150.003,405.500=125.003,406.000=100.003;
#STOPS:;
#BGCHANGES:;

//---------------dance-single - ----------------
#NOTES:
     dance-single:
     :
     Challenge:
     15:
     0.787,1.000,0.601,0.459,0.038: // measure 1
0000
0000
0000
0000
,  // measure 2
0000
0000
0000
0000
,  // measure 3
0000
0000
0000
0000
,  // measure 4
0000
0000
0000
0000
,  // measure 5
1000
0100
0010
0001
0100
0010
1000
0010
,  // measure 6
0010
0000
0100
0001
0000
0010
0100
0000
,  // measure 7
1000
0001
1000
0001
0010
0100
0010
0001
,  // measure 8
0001
0000
1000
0001
0000
0001
1000
0000
,  // measure 9
1100
0000
0011
0000
2000
0100
0000
3002
,  // measure 10
0100
0100
0000
0023
0000
0230
0000
0300
,  // measure 11
1010
0000
0101
0000
0100
0001
0100
0010
,  // measure 12
1000
0010
0100
0001
0010
0100
1001
0000
,  // measure 13
0110
0000
1001
0000
0200
0010
0000
0302
,  // measure 14
1000
1000
0000
0203
0000
0302
0000
0003
,  // measure 15
1010
0000
0110
1000
0100
0001
0100
0010
,  // measure 16
1000
0100
0001
1000
0010
0001
1001
0000
,  // measure 17
0110
0000
0110
0000
1100
1100
0000
0001
,  // measure 18
1000
1001
0000
0011
0000
1100
0100
0010
,  // measure 19
0011
0000
1001
0000
0100
0020
0000
0032
,  // measure 20
0000
2003
0000
3200
0000
0301
0100
1000
,  // measure 21
1010
0000
0101
0000
0110
0110
0000
1010
,  // measure 22
0100
0001
0000
1010
0000
1000
0010
0001
,  // measure 23
0100
0000
0110
0000
1100
1100
0000
0022
,  // measure 24
0033
0202
0303
2020
3030
1000
0001
1000
,  // measure 25
0002
2003
3200
0320
,  // measure 26
0032
0203
0300
0210
,  // measure 27
2300
3002
0023
2030
,  // measure 28
3200
0000
0300
1001
,  // measure 29
0120
0000
0000
0000
2000
0000
0000
3000
0200
0000
0000
0300
0002
0000
0000
0003
,  // measure 30
0200
0330
0000
2100
,  // measure 31
3002
0203
0320
2030
,  // measure 32
3200
0300
0000
0011
,  // measure 33
2200
0000
3300
0110
,  // measure 34
2002
0000
3003
0110
,  // measure 35
0101
1010
0110
0011
,  // measure 36
1001
0100
0010
0001
1000
0100
0010
0001
,  // measure 37
1000
0010
0100
0001
0101
2020
3030
0202
,  // measure 38
0303
0000
0110
1001
0102
0000
1000
0000
,  // measure 39
0010
0000
0103
0000
1000
0100
0010
0001
,  // measure 40
1000
0100
0010
0001
1000
0010
0100
0001
,  // measure 41
1000
0010
0100
0001
1000
0010
0100
0010
,  // measure 42
1000
0001
0010
0100
0010
0001
1000
0100
,  // measure 43
0010
0100
1000
0010
0100
0001
1000
0100
,  // measure 44
0010
0100
1000
0001
0100
0010
1000
0001
,  // measure 45
0100
0010
1000
0100
0010
0001
0010
0100
,  // measure 46
0010
0001
1000
0010
0100
0010
1000
0100
,  // measure 47
0010
0001
0100
0010
1000
0100
0010
0100
,  // measure 48
0010
0001
0010
0100
1000
0001
0100
0010
,  // measure 49
1000
0001
0010
0100
0010
0001
1000
0100
,  // measure 50
1000
0010
0100
0001
0010
0100
1000
0100
,  // measure 51
0010
0001
1000
0100
1000
0001
0010
0001
,  // measure 52
1000
0010
1000
0001
0100
0001
0100
0010
,  // measure 53
1000
0010
1000
0100
0010
0100
0010
0001
,  // measure 54
1000
0001
1000
0001
0100
0010
0100
0001
,  // measure 55
0100
0010
0100
0001
0100
0010
1000
0100
,  // measure 56
0010
0001
0100
0010
1000
0100
0001
0100
,  // measure 57
1000
0010
0100
0001
0010
0100
1000
0100
,  // measure 58
0010
0001
0100
0010
1000
0010
1000
0100
,  // measure 59
0010
0001
0100
0001
0100
0010
1000
0100
,  // measure 60
0010
0100
0010
0001
0010
0100
1000
0100
,  // measure 61
0010
0001
0010
0001
1000
0100
0010
0001
,  // measure 62
1000
0100
1000
0100
0010
0001
0010
0001
,  // measure 63
0010
0100
0010
0100
1000
0100
0010
0100
,  // measure 64
0001
0100
1000
0010
0100
0010
1000
0100
,  // measure 65
0010
0001
0010
0100
1000
0001
1000
0001
,  // measure 66
1000
0001
1000
0001
0100
0010
0100
0010
,  // measure 67
0100
0010
0100
0010
1000
0100
0010
0001
,  // measure 68
0100
0010
1000
0100
0010
0001
0100
0010
,  // measure 69
1000
0010
0100
0001
0010
0001
0100
0001
,  // measure 70
1000
0100
0010
0001
0010
0100
1000
0100
,  // measure 71
0010
0100
1000
0010
0100
0000
1000
0000
,  // measure 72
0001
0010
0011
0010
,  // measure 73
0100
1000
1100
0100
,  // measure 74
0010
0100
0110
0010
,  // measure 75
0100
1000
1002
0000
,  // measure 76
0100
0000
0010
0000
,  // measure 77
1000
0000
0203
0000
,  // measure 78
0010
0000
1000
0000
,  // measure 79
0301
0010
0100
0000
,  // measure 80
1100
0000
0101
0000
,  // measure 81
1100
0000
0101
0000
,  // measure 82
0011
0000
1010
0000
,  // measure 83
0011
0000
1010
0000
,  // measure 84
0101
0000
1010
0000
,  // measure 85
0101
0000
1100
0000
,  // measure 86
0011
0000
1100
0000
,  // measure 87
0011
0000
1100
0010
,  // measure 88
0001
0100
1000
0100
,  // measure 89
0001
0010
0100
1000
,  // measure 90
0100
0010
0100
0001
,  // measure 91
0100
0100
1000
0100
,  // measure 92
0001
0100
1000
0010
,  // measure 93
0001
0010
1000
0100
,  // measure 94
0010
0001
0010
0100
,  // measure 95
1000
1000
1000
0100
,  // measure 96
0010
0100
0010
0001
,  // measure 97
0010
0100
0010
0100
,  // measure 98
1000
0100
0010
0100
,  // measure 99
1000
0010
0100
0100
,  // measure 100
1000
0100
1000
0000
0100
0000
0100
0000
,  // measure 101
0010
0100
0010
0000
0002
0000
0000
0000
,  // measure 102
0000
0000
0000
0000
0100
0000
0000
0000
0000
0100
0000
0000
0000
0000
0000
0000
,  // measure 103
0000
0000
0000
0000
0000
0010
0000
0000
0000
1000
0000
0000
0000
0000
0000
0000
,  // measure 104
0000
0000
0000
0000
0000
0010
0000
0000
0000
1000
0000
0000
0000
0100
0000
0000
,  // measure 105
0000
0013
0000
0000
0000
0001
0000
0000
0000
2002
0000
0000
0000
0000
0000
0000
,  // measure 106
0000
0000
0000
0000
,  // measure 107
0000
0000
0000
0000
0000
0000
0000
0000
0000
3003
0000
0000
0000
0000
0000
0000
;
