#TITLE:Crystal Crossing;
#SUBTITLE:;
#ARTIST:飯吉新;
#TITLETRANSLIT:;
#SUBTITLETRANSLIT:;
#ARTISTTRANSLIT:Arata Iiyoshi;
#GENRE:;
#CREDIT:;
#MENUCOLOR:;
#METERTYPE:DDR X;
#BANNER:Crystal Crossing.png;
#BACKGROUND:Crystal Crossing-bg.png;
#LYRICSPATH:;
#CDTITLE:;
#MUSIC:Crystal Crossing.mp3;
#OFFSET:2.442;
#SAMPLESTART:31.250;
#SAMPLELENGTH:11.980;
#SELECTABLE:YES;
#LISTSORT:;
#BPMS:0.000=96.000;
#STOPS:;
#BGCHANGES:;
#ATTACKS:;

//---------------dance-single - ----------------
#NOTES:
     dance-single:
     :
     Challenge:
     9:
     0.685,0.708,0.739,1.000,0.013: // measure 1
0000
0000
0000
0000
,  // measure 2
1010
1010
0100
0001
0010
0001
0100
1000
,  // measure 3
0011
0011
1000
0001
0010
1000
0010
0100
,  // measure 4
1100
1100
0001
1000
0001
1000
0010
0100
,  // measure 5
0110
0110
1000
0100
0001
0100
1000
0010
,  // measure 6
0101
0101
0020
1030
0200
0310
0002
0103
,  // measure 7
0220
0330
1001
0000
0020
0000
0230
0000
0301
0000
1000
0000
0100
0000
0010
0000
,  // measure 8
0011
0011
0200
1300
0020
1030
0002
0103
,  // measure 9
0220
0330
1010
0000
0200
0000
0320
0000
0031
0000
0100
0000
1000
0000
0100
0000
,  // measure 10
0101
0011
0020
0130
2000
3010
0200
0301
,  // measure 11
0022
0033
1001
0000
2000
0000
3002
0000
0103
0000
0010
0000
2000
0000
3010
0000
,  // measure 12
0220
0330
0101
0000
0002
0000
0013
0000
0200
0000
0310
0000
0001
0000
2000
3000
,  // measure 13
0220
0330
1001
0000
0100
0000
0010
0000
0001
0000
0100
0000
0010
1000
0100
0010
,  // measure 14
0001
0100
1100
0100
0001
0010
0110
1000
,  // measure 15
0100
0010
0110
0001
0100
1000
0110
0001
,  // measure 16
0010
1000
0101
1000
0100
0010
1100
0001
,  // measure 17
0100
0010
0101
0100
0010
1000
0011
0100
,  // measure 18
0001
0000
0100
0000
0220
0300
1030
0000
0200
0000
0310
0000
0202
0300
0013
0000
,  // measure 19
0200
0000
1300
0000
0220
0030
0302
0000
0103
0000
0020
0030
2200
0300
3002
0000
,  // measure 20
0023
0130
0011
0200
2300
3010
1100
0020
,  // measure 21
0032
0000
0103
0000
1010
0000
0200
0300
0022
0033
1010
0000
1100
0000
0101
0000
,  // measure 22
2000
0010
3002
0100
,  // measure 23
0023
0000
0000
0000
1000
0000
0000
0000
0230
0000
0000
0000
0001
0000
0000
0300
,  // measure 24
2010
0000
0000
0000
0100
0000
0000
3000
0012
0000
0000
0000
0100
0000
0000
0003
,  // measure 25
1020
0000
0000
0000
0100
0000
0000
0030
0201
0000
0000
0000
0010
0000
0000
0300
,  // measure 26
2200
0000
0000
3300
0010
0000
0100
0000
1000
0000
0100
0000
0010
0000
0000
0000
,  // measure 27
0202
0000
0000
0303
0010
0000
1000
0000
0100
0000
0010
0000
0100
0000
0000
0000
,  // measure 28
0022
0000
0000
0033
0100
0000
0010
0000
0100
0000
1000
0000
0001
0000
0000
0000
,  // measure 29
2020
0000
0000
3030
0100
0000
0010
0000
1000
0000
0010
0000
0100
0000
0000
0000
,  // measure 30
1100
0000
1100
0000
0020
0000
0032
0000
2003
0000
3200
0000
0320
0000
0032
0003
,  // measure 31
0110
0000
0110
0000
0020
0000
2030
0000
3200
0000
0320
0000
0032
0000
0023
0030
,  // measure 32
1010
0000
1100
0000
0020
0000
2030
0000
3200
0000
0302
0000
0203
0000
2300
3000
,  // measure 33
0110
0011
0200
0320
2030
3200
0302
0203
,  // measure 34
0000
0300
0000
0000
;
