#TITLE:Craggy Coast;
#SUBTITLE:;
#ARTIST:飯吉新;
#TITLETRANSLIT:;
#SUBTITLETRANSLIT:;
#ARTISTTRANSLIT:Arata Iiyoshi;
#GENRE:;
#CREDIT:;
#MENUCOLOR:;
#METERTYPE:DDR X;
#BANNER:Craggy Coast.png;
#BACKGROUND:Craggy Coast-bg.png;
#LYRICSPATH:;
#CDTITLE:;
#MUSIC:Craggy Coast.mp3;
#OFFSET:1.018;
#SAMPLESTART:15.278;
#SAMPLELENGTH:12.000;
#SELECTABLE:YES;
#LISTSORT:;
#BPMS:0.000=162.000;
#STOPS:;
#BGCHANGES:;
#ATTACKS:;

//---------------dance-single - ----------------
#NOTES:
     dance-single:
     :
     Challenge:
     12:
     0.778,0.775,1.000,0.507,0.029: // measure 1
0000
0000
0000
0000
,  // measure 2
1001
1001
0000
0010
0100
1000
0010
0100
,  // measure 3
1000
0000
0110
0110
0000
0100
0010
0000
,  // measure 4
1001
1001
0000
0000
0110
0110
0000
1000
,  // measure 5
0100
0010
0001
1000
0100
0000
1010
1010
,  // measure 6
0000
0010
0100
0000
0110
0110
0000
0000
,  // measure 7
0101
0101
0000
0100
0001
0100
1000
0100
,  // measure 8
0001
0000
1100
1100
0000
1000
0100
0000
,  // measure 9
0011
0011
0000
0000
1010
1010
0000
0100
,  // measure 10
0010
0000
0101
0101
0000
0000
0011
0011
,  // measure 11
0000
0000
0010
0000
0100
0000
0000
0000
1001
0000
1001
0000
1000
0100
0010
0100
,  // measure 12
1000
0100
0020
0000
1000
0000
0130
0000
,  // measure 13
1100
0000
0000
0000
0100
0000
0010
0000
0002
0000
0000
0003
1100
0000
0000
0000
,  // measure 14
0101
0100
0001
0100
1000
0100
0001
0000
,  // measure 15
1100
0100
1000
0000
0101
0000
0010
0000
,  // measure 16
0100
1000
0100
0001
0010
0100
1000
0000
,  // measure 17
0011
0000
0100
0000
0010
1000
1010
0000
,  // measure 18
0110
0000
1001
0000
0100
0000
0010
0001
,  // measure 19
2200
3300
0001
0000
0011
0010
0100
0000
,  // measure 20
2200
3300
0022
0033
1000
0100
1100
0000
,  // measure 21
0010
0000
0000
0000
0000
0000
0202
0000
0000
0303
0000
0000
1001
0000
0100
0000
0010
0000
0001
0000
1000
0000
0100
0000
,  // measure 22
0022
0033
0001
0200
0300
0100
0002
0003
,  // measure 23
0001
0020
0030
0010
0200
0300
0100
0002
,  // measure 24
0003
0001
0200
0300
1100
0000
0101
0000
,  // measure 25
0021
0000
0130
0001
0000
0001
0100
0000
,  // measure 26
1001
0000
0110
0000
1000
0100
0010
0100
,  // measure 27
0001
0010
0100
0010
0001
0100
1000
0100
,  // measure 28
2200
3300
0100
0002
0003
0001
0020
0030
,  // measure 29
0010
2000
3000
1000
0002
0003
0001
0200
,  // measure 30
0300
0100
2000
3000
1100
0000
0110
0000
,  // measure 31
0202
0303
0001
2000
3000
1000
0020
0030
,  // measure 32
1010
0000
0110
0000
0100
0010
0001
1000
,  // measure 33
0100
0010
1000
0001
0100
0010
0001
1000
,  // measure 34
1001
0000
0100
0010
0000
0001
1000
0000
,  // measure 35
1001
0000
1001
0000
0200
0000
1300
0002
,  // measure 36
0000
0000
0103
0000
0020
0000
0000
0030
2002
0000
0000
0000
3003
0000
0000
0000
,  // measure 37
0100
0000
1000
0100
0000
0001
0100
0000
,  // measure 38
1000
1000
0001
0001
1000
0000
0010
0001
,  // measure 39
0000
0010
1000
0000
0110
0000
0001
0010
,  // measure 40
2200
3300
0000
0202
0303
0000
0110
0000
,  // measure 41
0101
0000
0022
0033
0000
0220
0330
0000
,  // measure 42
1100
0000
0101
0000
0220
0330
0000
0022
,  // measure 43
0033
0000
1010
0000
0011
0000
0220
0330
,  // measure 44
0000
0202
0303
0000
0011
0000
0010
0000
,  // measure 45
0110
0000
1000
0010
0000
1000
0110
0000
,  // measure 46
0000
0000
0110
0001
0000
0100
0010
0000
,  // measure 47
1010
0000
0110
0000
0011
0001
0010
0001
,  // measure 48
0010
0100
1000
0100
0001
1000
0010
0001
,  // measure 49
0010
1000
0001
0100
1000
0001
0010
1000
,  // measure 50
0110
0000
0100
0010
0000
0010
1100
0000
,  // measure 51
0000
0000
0011
1000
0000
0100
0010
0000
,  // measure 52
0110
0000
0101
0000
1010
0010
1000
0100
,  // measure 53
0010
0001
0100
0010
1000
0100
0010
0100
,  // measure 54
0001
0100
1000
0010
0001
1000
0100
0001
,  // measure 55
1001
0000
1000
0001
0000
1000
0110
0000
,  // measure 56
0000
0000
1001
0100
0000
0010
0001
0000
,  // measure 57
1001
0000
0110
0000
1100
1000
0100
1000
,  // measure 58
0100
0001
0100
0001
0010
1000
0010
1000
,  // measure 59
0001
0100
1000
0100
0010
0001
0010
1000
,  // measure 60
1010
0000
1000
0010
0000
0010
0011
0000
,  // measure 61
0000
0000
0101
0100
0000
0001
1000
0000
,  // measure 62
1001
0000
1010
0000
0101
0001
0010
0100
,  // measure 63
1000
0010
1000
0001
0100
1000
0100
0010
,  // measure 64
1000
0001
0010
0100
0001
0100
1000
0010
,  // measure 65
0110
0110
1000
0100
0001
0100
1000
0100
,  // measure 66
0001
0001
1001
0101
0010
0100
0001
0010
,  // measure 67
1010
0011
0001
0100
0101
0110
0100
0001
,  // measure 68
0100
0010
0010
1000
0100
0100
0110
0110
,  // measure 69
0100
0010
0001
1000
1001
1001
0001
0100
,  // measure 70
0101
1001
0000
0000
0000
0000
0000
0000
;
