#TITLE:Brine Cave;
#SUBTITLE:;
#ARTIST:飯吉新;
#TITLETRANSLIT:;
#SUBTITLETRANSLIT:;
#ARTISTTRANSLIT:Arata Iiyoshi;
#GENRE:;
#CREDIT:;
#MENUCOLOR:;
#METERTYPE:DDR;
#BANNER:Brine Cave.png;
#BACKGROUND:Brine Cave-bg.png;
#LYRICSPATH:;
#CDTITLE:;
#MUSIC:Brine Cave.mp3;
#OFFSET:2.122;
#SAMPLESTART:0.080;
#SAMPLELENGTH:12.000;
#SELECTABLE:YES;
#LISTSORT:;
#BPMS:0.000=108.000;
#STOPS:41.250=1.389
;
#BGCHANGES:;
#ATTACKS:;

//---------------dance-single - ----------------
#NOTES:
     dance-single:
     :
     Challenge:
     12:
     0.596,0.559,0.478,0.159,0.356: // measure 1
0000
0000
0000
0000
,  // measure 2
1100
0101
0000
0100
0010
0001
0011
1100
,  // measure 3
0000
0100
1000
0010
0001
0010
1000
0000
,  // measure 4
0110
1001
0000
0001
1000
0100
1100
0110
,  // measure 5
0000
0000
0100
0000
0010
0000
0001
0000
0100
0000
0010
0000
0001
0000
0010
1000
,  // measure 6
0100
0010
0000
0000
0010
0001
0000
0000
0001
0100
0000
0000
0100
0010
0000
0110
,  // measure 7
0000
0010
0100
0000
0001
1000
0100
0010
0001
1000
0000
0000
1000
0001
0000
0000
,  // measure 8
0001
0000
0010
0000
0000
0000
0000
0000
0010
0000
0100
0000
0000
0000
1100
0000
0000
0000
0100
0000
0010
0000
0001
0000
1000
0001
1000
0000
0100
0000
0010
0000
,  // measure 9
0001
1000
0000
0000
0100
0010
0000
0000
0001
0100
0000
0000
1000
0100
0000
0110
,  // measure 10
0000
0001
1000
0001
1000
0000
1000
0100
0010
0001
0000
0000
1000
0100
0000
0000
,  // measure 11
0001
0000
1000
0000
0000
0000
0000
0000
0010
0000
0002
0003
1100
0000
0000
0000
0010
0000
0000
0000
0001
0000
0000
0000
0010
0000
0000
0000
0100
0000
0000
0000
,  // measure 12
0001
0000
0000
0010
0000
0000
0100
0000
0000
1000
0000
0000
0100
0010
0001
1000
0000
0000
0100
0000
0000
0001
0000
0000
,  // measure 13
0100
0000
0000
1000
0000
0000
0001
0000
0000
0011
0000
0000
0010
0001
0100
1000
0000
0000
0100
0000
0000
0001
0000
0000
,  // measure 14
0100
0000
0000
1000
0000
0000
0100
0000
0000
0010
0000
0000
1000
0010
0001
0010
0000
0000
1000
0000
0000
0100
0000
0000
,  // measure 15
0010
0001
0000
0011
1000
0100
0010
1000
,  // measure 16
0010
0000
0000
0001
0000
0000
0100
0000
0000
0010
0000
0000
1000
0100
1000
0100
0000
0000
0010
0000
0000
0001
0000
0000
,  // measure 17
0100
0000
0000
0001
0000
0000
1000
0000
0000
1001
0000
0000
0001
0010
0100
1000
0000
0000
0100
0000
0000
0010
0000
0000
,  // measure 18
0001
0000
0000
1000
0000
0000
0010
0000
0000
0100
0000
0000
0001
0100
0010
1000
0000
0000
0100
0000
0000
0010
0000
0000
,  // measure 19
0001
1000
0000
1001
1000
0100
1100
0010
,  // measure 20
0100
0000
0000
0110
0000
0000
0001
0000
0000
0100
0000
0000
0010
1000
0001
0100
0000
0000
0010
0000
0000
0001
0000
0000
,  // measure 21
0010
0100
0010
1010
1000
0010
0011
0001
,  // measure 22
0100
0000
0000
0110
0000
0000
0010
0000
0000
1000
0000
0000
0100
0010
0100
1000
0000
0000
0100
0000
0000
1000
0000
0000
,  // measure 23
0001
0000
0010
0000
0001
0000
0101
0000
0000
0001
0100
0000
0101
0000
0000
0000
,  // measure 24
0001
0100
0010
2000
0000
3010
0200
0000
,  // measure 25
0301
0000
0010
0100
1000
0000
0110
0000
0000
0100
0010
0000
0110
0000
0000
0000
,  // measure 26
0010
0000
0100
0000
0001
0000
0100
0000
0000
1000
0100
0000
0100
0000
0000
0010
,  // measure 27
0001
0000
0001
0010
0100
0000
1010
0000
0000
0100
0001
0000
0101
0000
0000
0000
,  // measure 28
1000
0100
0010
0200
0000
1300
0002
0000
,  // measure 29
0103
0000
0010
0100
0001
0000
1100
0000
0000
0100
0010
0000
0011
0000
0000
0000
,  // measure 30
0001
0000
0100
0000
1000
0000
2000
0000
0000
3200
0000
0000
0302
0000
0000
0023
,  // measure 31
0000
0000
0130
0000
1000
0000
1100
0000
0000
0100
0010
0000
0110
0000
0000
0000
,  // measure 32
0001
1000
0001
0020
0000
0130
2000
0000
,  // measure 33
3100
0000
1000
0001
0010
0000
1001
0000
0000
1000
0100
0000
0011
0000
0000
0000
,  // measure 34
0001
0000
0100
0000
0010
0000
1000
0000
0000
0010
1000
0000
0100
0000
0000
0010
,  // measure 35
0001
0000
0100
0001
1000
0000
0011
0000
0000
1000
0010
0000
0101
0000
0000
0000
,  // measure 36
0010
0100
0001
2000
0000
3010
0200
0000
,  // measure 37
0301
0000
0010
0100
1000
0000
1010
0000
0000
1000
0001
0000
0110
0000
0000
0000
,  // measure 38
0010
1000
0010
0200
0000
1300
0200
0000
,  // measure 39
0301
1000
0010
0110
1001
0000
0001
0010
,  // measure 40
0100
1001
0110
0000
0010
0100
1000
0100
,  // measure 41
0001
0010
0000
1100
0011
0000
0001
0100
,  // measure 42
0010
1100
0101
0000
0001
0010
1000
0001
,  // measure 43
0100
1000
0000
0000
0000
0000
0000
0000
;
