#TITLE:endless memory;
#SUBTITLE:;
#ARTIST:fripSide;
#TITLETRANSLIT:;
#SUBTITLETRANSLIT:;
#ARTISTTRANSLIT:;
#GENRE:;
#CREDIT:;
#BANNER:endl.png;
#BACKGROUND:a_endl.png;
#LYRICSPATH:;
#CDTITLE:;
#MUSIC:endless memory.mp3;
#OFFSET:1.567000;
#SAMPLESTART:90.306999;
#SAMPLELENGTH:16.031000;
#LASTBEATHINT:1.023182;
#SELECTABLE:YES;
#BPMS:0.000000=112.000000
,39.000000=100.000000
,42.000000=95.000000
,44.000000=98.000000
,48.000000=120.000000
;
#STOPS:
;
#BGCHANGES:2.750=endless memory.mp4=1.000=0=0=0=StretchNoLoop====,
99999=-nosongbg-=1.000=0=0=0 // don't automatically add -songbackground-
;
#KEYSOUNDS:;
#ATTACKS:;

//---------------dance-single - xAlchemii----------------
#NOTES:
     dance-single:
     :
     Beginner:
     1:
     0.076808,0.142576,0.092170,0.153617,0.000000,70.000000,58.000000,12.000000,20.000000,0.000000,0.000000,0.076808,0.142576,0.092170,0.153617,0.000000,70.000000,58.000000,12.000000,20.000000,0.000000,0.000000:
0000
0000
0000
0000
,
0000
0000
0000
0000
,
0000
0000
0000
0000
,
1000
0000
0000
0000
,
1000
0000
0000
0000
,
0100
0000
0000
0000
,
0100
0000
0000
0000
,
0010
0000
0000
0000
,
0010
0000
0000
0000
,
0001
0000
0000
0000
,
0001
0000
1001
0000
,
0000
0000
0000
0000
,
1000
0000
0000
0000
,
0001
0000
0000
0000
,
0100
0000
0000
0000
,
0100
0000
0000
0000
,
1000
0000
0000
0000
,
0001
0000
0000
0000
,
0010
0000
0000
0000
,
0100
0000
0000
0000
,
0100
0000
0000
0000
,
0010
0000
0000
0000
,
0100
0000
0000
0000
,
0110
0000
0000
0000
,
1000
0000
0000
0000
,
1000
0000
0000
0000
,
0001
0000
0000
0000
,
1000
0000
0000
0000
,
2000
3000
0000
0000
,
0002
0003
0000
0000
,
2000
3000
0000
0000
,
2002
3003
0000
0000
,
0200
0300
0000
0000
,
0020
0030
0000
0000
,
0200
0300
0000
0000
,
0220
0330
0000
0000
,
2000
0000
3000
0000
,
0002
0000
0003
0000
,
0200
0000
0300
0000
,
0020
0000
0030
0000
,
2000
0000
3000
0000
,
0002
0000
0003
0000
,
0200
0000
0300
0000
,
0020
0000
0030
0000
,
0100
0000
0000
0000
,
1000
0000
0000
0000
,
0100
0000
0000
0000
,
0010
0000
0000
0000
,
0001
0000
0000
0000
,
0001
0000
0000
0000
,
0010
0000
0000
0000
,
0100
0000
0000
0000
,
1000
0000
0000
0000
,
1001
0000
0000
0000
,
1001
0000
0000
0000
,
0110
0000
0000
0000
,
0110
0000
0000
0000
,
1010
0000
0000
0000
,
1010
0000
0000
0000
,
0101
0000
0000
0000
,
2002
0000
0000
0000
,
0000
0000
0000
0000
0000
0000
0000
3003
;

//---------------dance-single - xAlchemii----------------
#NOTES:
     dance-single:
     :
     Easy:
     2:
     0.143742,0.213432,0.092170,0.161298,0.000000,131.000000,119.000000,12.000000,21.000000,0.000000,0.000000,0.143742,0.213432,0.092170,0.161298,0.000000,131.000000,119.000000,12.000000,21.000000,0.000000,0.000000:
0000
0000
0000
0000
,
0000
0000
0000
0000
,
0000
0000
0000
0000
,
2000
0000
3000
0000
,
0002
0000
0003
0000
,
2000
0000
3000
0000
,
0002
0000
0003
0000
,
0200
0000
0300
0000
,
0020
0000
0030
0000
,
0200
0000
0300
0000
,
2002
0000
0000
0000
,
0000
0000
0000
3003
,
1000
0000
1000
0000
,
0100
0000
0100
0000
,
0010
0000
0010
0000
,
0001
0000
0001
0000
,
0001
0000
0001
0000
,
0010
0000
0010
0000
,
0100
0000
0100
0000
,
1000
0000
1000
0000
,
1000
0000
1000
0000
,
0001
0000
0001
0000
,
1000
0000
0001
0000
,
1000
0000
0001
0000
,
0100
0000
0010
0000
,
0100
0000
0010
0000
,
0100
0000
0100
0000
,
0010
0000
0010
0000
,
1000
0000
0010
0000
,
1000
0000
0010
0000
,
1000
0000
0010
0000
,
1000
0000
0010
0000
,
0001
0000
0100
0000
,
0001
0000
0100
0000
,
0001
0000
0100
0000
,
0001
0000
0000
0000
,
2002
0000
3003
1001
,
2002
0000
3003
0000
,
1000
0000
1000
0000
,
0001
0000
0001
0000
,
0220
0000
0330
0110
,
0220
0000
0330
0000
,
0100
0000
0010
0000
,
1000
1000
0001
0001
,
0100
0010
0100
0010
,
1000
1000
1000
0000
,
0001
0001
0001
0000
,
0010
0010
0010
0000
,
0100
0100
0100
0000
,
1000
0010
1000
0000
,
0001
0100
0001
0000
,
1001
0000
1001
0000
,
2002
0000
3003
0000
,
1000
0010
1000
0000
,
1000
0010
1000
0000
,
0001
0100
0001
0000
,
0001
0100
0001
0000
,
0100
0010
0100
0000
,
0100
0010
0100
0000
,
1000
0001
1000
0000
,
1001
0000
2002
0000
,
0000
0000
0000
3003
;

//---------------dance-single - xAlchemii----------------
#NOTES:
     dance-single:
     :
     Medium:
     3:
     0.195313,0.283999,0.099851,0.076808,0.000000,178.000000,165.000000,13.000000,10.000000,0.000000,0.000000,0.195313,0.283999,0.099851,0.076808,0.000000,178.000000,165.000000,13.000000,10.000000,0.000000,0.000000:
0000
0000
0000
0000
,
0000
0000
0000
0000
,
0000
0000
0000
0000
,
1000
0000
1000
0000
,
0001
0000
0001
0000
,
1000
0000
1000
0000
,
0001
0000
0001
0000
,
0100
0000
0100
0000
,
0010
0000
0010
0000
,
1000
0000
0001
0000
,
0100
0000
0020
0000
,
0000
0000
0000
0030
,
1000
1000
1000
0000
,
0010
0010
0010
0000
,
0100
0100
0100
0000
,
0001
0001
0001
0000
,
1000
0001
1000
0000
,
1000
0001
1000
0000
,
1010
0000
0101
0000
,
1000
1010
0001
0101
,
1000
1000
1000
0000
,
0010
0010
0010
0000
,
0100
0100
0100
0000
,
0001
0001
0001
0000
,
1000
0010
1000
0000
,
0001
0100
0001
0000
,
1000
0001
1000
0000
,
0010
0100
0010
0000
,
1000
0001
1000
0000
,
1000
0001
1000
0000
,
1000
0000
0001
0000
,
1000
0001
0100
0010
,
0100
0000
0100
0000
,
0010
0000
0010
0000
,
0100
0010
1000
0001
,
0100
0010
1000
0001
,
2000
0000
3010
0000
,
0002
0000
0103
0000
,
1000
0010
1000
0010
,
0001
0100
0001
0100
,
0002
0000
0103
0000
,
2000
0000
3010
0000
,
1000
0001
1000
0001
,
1001
0000
1001
0000
,
1001
1001
1001
0000
,
1000
0001
0100
0010
,
1000
0001
0100
0010
,
1000
0000
1000
0000
,
0001
0000
0001
0000
,
0100
0010
1000
0001
,
0100
0010
1000
0001
,
0100
0000
0010
0000
,
0100
0010
0100
0110
,
1000
0010
0001
0010
,
1000
0010
0001
0010
,
0200
0300
0020
0030
,
0100
0010
0110
0000
,
0001
0100
1000
0100
,
0001
0100
1000
0100
,
0002
0003
1000
0001
,
1001
0000
2002
0000
,
0000
0000
0000
0000
0000
3003
0000
0000
;

//---------------dance-single - xAlchemii----------------
#NOTES:
     dance-single:
     :
     Hard:
     7:
     0.446586,0.426863,0.145936,0.138255,0.011521,407.000000,388.000000,19.000000,18.000000,2.000000,0.000000,0.446586,0.426863,0.145936,0.138255,0.011521,407.000000,388.000000,19.000000,18.000000,2.000000,0.000000:
// measure 0
0000
0000
0000
0000
,  // measure 1
0000
0000
0000
0000
,  // measure 2
0000
0000
0000
0000
,  // measure 3
0001
0010
0001
0100
0001
0010
0100
0010
,  // measure 4
0001
0010
0001
1000
0010
0100
0010
1000
,  // measure 5
0010
0100
0001
0010
0001
0010
0100
1000
,  // measure 6
0100
0010
0001
0010
0001
1000
0001
1000
,  // measure 7
0100
0010
0001
0100
0001
0010
0001
1000
,  // measure 8
0100
1000
0010
1000
0010
0100
0001
0100
,  // measure 9
0010
0100
0010
1000
0001
0100
0010
0100
,  // measure 10
0002
0003
0202
0000
,  // measure 11
0000
0000
0000
0303
,  // measure 12
0100
0010
1000
0010
1000
0100
1000
0001
,  // measure 13
0010
0001
0010
0001
0100
0010
0100
0010
,  // measure 14
1000
0001
0100
0010
1000
0100
0010
0001
,  // measure 15
0010
0001
1000
0100
0010
0100
0010
0100
,  // measure 16
0010
0001
0100
0010
1000
0001
0100
0010
,  // measure 17
1000
0100
0010
0001
1000
0100
1000
0100
,  // measure 18
0010
0001
0100
0001
0010
0100
1000
0100
,  // measure 19
0010
0001
0100
0010
1000
0100
0101
0000
,  // measure 20
1001
0000
1000
0000
1000
0001
1000
0000
,  // measure 21
1001
0000
0001
0000
0001
1000
0001
0000
,  // measure 22
1000
0010
0100
0000
0001
0100
0010
0000
,  // measure 23
1000
0100
0010
0100
1000
0000
1001
0000
,  // measure 24
1001
0000
0001
0000
0001
1000
0001
0000
,  // measure 25
1001
0000
1000
0000
1000
0001
1000
0000
,  // measure 26
0001
0100
0010
0000
1000
0010
0100
0000
,  // measure 27
0001
0010
0100
0010
0001
0000
1001
0000
,  // measure 28
1000
0000
1100
0000
1000
0100
0010
0000
,  // measure 29
0001
0000
0011
0000
0001
0010
0100
0000
,  // measure 30
0100
0001
1000
0000
0010
1000
0001
0000
,  // measure 31
0100
0010
1000
0001
0100
0010
1000
0001
,  // measure 32
1000
1000
0010
0000
0001
0001
0100
0000
,  // measure 33
0010
0010
1000
0000
0100
0100
0001
0000
,  // measure 34
0100
1000
0001
0010
0001
1000
0010
0100
,  // measure 35
0010
1000
0001
0010
0100
0010
0110
0000
,  // measure 36
2000
0000
0100
0100
3100
0000
0101
0000
,  // measure 37
0002
0000
0100
0100
0103
0000
1001
0000
,  // measure 38
0010
0100
0001
1000
0010
0100
0001
0010
,  // measure 39
0100
0010
0001
1000
0001
1000
1001
0000
,  // measure 40
0002
0000
0010
0010
0013
0000
1010
0000
,  // measure 41
2000
0000
0010
0010
3010
0000
1001
0000
,  // measure 42
0100
0010
1000
0001
0100
0010
1000
0100
,  // measure 43
0010
0000
0100
0000
0000
2000
3000
0000
0200
0300
0000
0020
0030
0000
0200
0300
,  // measure 44
2000
3000
0000
0002
0003
0000
2000
3000
0200
0300
0000
0000
1MM1
0000
0000
0000
,  // measure 45
0100
0010
1000
0001
0100
0010
1000
0010
,  // measure 46
0100
0001
0010
0100
0010
0001
1000
0100
,  // measure 47
0010
0001
1000
0010
0100
0010
0100
0001
,  // measure 48
1000
0100
0010
0100
1000
0010
1010
0000
,  // measure 49
0100
0010
1000
0001
0010
0100
1000
0100
,  // measure 50
1000
0001
0100
0001
0010
0100
1000
0000
,  // measure 51
1000
0010
1000
0000
0001
0100
0001
0000
,  // measure 52
1000
0001
0100
0010
1000
0001
0100
0000
,  // measure 53
0100
0001
0100
0010
1000
0100
0010
0001
,  // measure 54
1000
0010
1000
0001
0100
0001
0010
0100
,  // measure 55
0010
0001
0100
0001
1000
0100
0010
0100
,  // measure 56
1000
0010
0100
0010
1000
0100
0110
0000
,  // measure 57
0100
0010
1000
0001
0100
0010
1000
0100
,  // measure 58
0010
0100
0010
0001
0100
0010
1000
0010
,  // measure 59
1000
0001
0100
0010
1000
0100
0010
0001
,  // measure 60
2000
0000
3000
0010
0200
0000
0000
0000
,  // measure 61
0020
0000
0000
0330
;
