#VERSION:0.83;
#TITLE:MOON -月光- ATTACK;
#SUBTITLE:;
#ARTIST:月影ゆり/キュアムーンライト(久川綾);
#TITLETRANSLIT:;
#SUBTITLETRANSLIT:;
#ARTISTTRANSLIT:;
#GENRE:;
#ORIGIN:;
#CREDIT:xAlchemii;
#BANNER:MOON -Gekkou- ATTACK (Cure Moonlight Theme)-bn.png;
#BACKGROUND:MOON -Gekkou- ATTACK (Cure Moonlight Theme)-bg.png;
#PREVIEWVID:;
#JACKET:MOON -Gekkou- ATTACK (Cure Moonlight Theme)-jacket.png;
#CDIMAGE:;
#DISCIMAGE:;
#LYRICSPATH:;
#CDTITLE:;
#MUSIC:MOON -Gekkou- ATTACK (Cure Moonlight Theme).mp3;
#OFFSET:-0.163000;
#SAMPLESTART:61.818001;
#SAMPLELENGTH:13.034000;
#SELECTABLE:YES;
#BPMS:0.000=145.000;
#STOPS:;
#DELAYS:;
#WARPS:;
#TIMESIGNATURES:0.000=4=4;
#TICKCOUNTS:0.000=4;
#COMBOS:0.000=1;
#SPEEDS:0.000=1.000=0.000=0;
#SCROLLS:0.000=1.000;
#FAKES:;
#LABELS:0.000=Song Start;
#BGCHANGES:0.000=MOON -Gekkou- ATTACK (Cure Moonlight Theme).mp4=1.000=0=0=1=====,
99999=-nosongbg-=1.000=0=0=0 // don't automatically add -songbackground-
;
#KEYSOUNDS:;
#ATTACKS:
;

//---------------dance-single - ----------------
#NOTEDATA:;
#CHARTNAME:;
#STEPSTYPE:dance-single;
#DESCRIPTION:;
#CHARTSTYLE:;
#DIFFICULTY:Beginner;
#METER:1;
#RADARVALUES:0.079858,0.146531,0.108464,0.000000,0.000000,67.000000,54.000000,13.000000,0.000000,0.000000,0.000000,0.000000,0.000000,0.000000,0.079858,0.146531,0.108464,0.000000,0.000000,67.000000,54.000000,13.000000,0.000000,0.000000,0.000000,0.000000,0.000000,0.000000;
#CREDIT:;
#NOTES:
// measure 0
0000
0000
0000
0000
,  // measure 1
0000
0000
0000
0000
,  // measure 2
0000
0000
0000
0000
,  // measure 3
0000
0000
0000
0000
,  // measure 4
0000
0000
0000
0000
,  // measure 5
0000
0000
0000
0000
,  // measure 6
0000
0000
0000
0000
,  // measure 7
0000
0000
0000
0000
,  // measure 8
0000
1000
0000
0000
,  // measure 9
0000
0000
0000
0000
,  // measure 10
0000
0001
0000
0000
,  // measure 11
0000
0000
0000
0000
,  // measure 12
0000
0100
0000
0000
,  // measure 13
0000
0000
0000
0000
,  // measure 14
0000
0001
0000
0000
,  // measure 15
0000
0000
0000
0000
,  // measure 16
0000
1001
0000
0000
,  // measure 17
0000
0000
0000
0000
,  // measure 18
0000
1000
0000
0000
,  // measure 19
0000
0010
0000
0000
,  // measure 20
0000
0100
0000
0000
,  // measure 21
0000
0001
0000
0000
,  // measure 22
0000
0001
0000
0000
,  // measure 23
0000
0010
0000
0000
,  // measure 24
0000
0100
0000
0000
,  // measure 25
0000
1000
0000
0000
,  // measure 26
0000
1001
0000
0000
,  // measure 27
0000
0100
0000
0000
,  // measure 28
0000
0100
0000
0000
,  // measure 29
0000
0010
0000
0000
,  // measure 30
0000
0110
0000
0000
,  // measure 31
0000
1000
0000
0000
,  // measure 32
0000
0001
0000
0000
,  // measure 33
0000
1000
0000
0000
,  // measure 34
0000
0001
0000
0000
,  // measure 35
0000
1001
0000
0000
,  // measure 36
0000
1001
0000
0000
,  // measure 37
0000
1000
0000
0000
,  // measure 38
0000
0100
0000
0000
,  // measure 39
0000
0010
0000
0000
,  // measure 40
0000
0001
0000
0000
,  // measure 41
0000
1000
0000
0000
,  // measure 42
0000
0001
0000
0000
,  // measure 43
0000
0100
0000
0000
,  // measure 44
0000
0010
0000
0000
,  // measure 45
0000
1001
0000
0000
,  // measure 46
0000
0100
0000
0000
,  // measure 47
0000
0010
0000
0000
,  // measure 48
0000
1000
0000
0000
,  // measure 49
0000
0001
0000
0000
,  // measure 50
0000
0100
0000
0000
,  // measure 51
0000
0010
0000
0000
,  // measure 52
0000
1001
0000
0000
,  // measure 53
0000
1001
0000
0000
,  // measure 54
0000
0000
0000
0000
,  // measure 55
0000
1001
0000
0000
,  // measure 56
0000
0000
0000
0000
,  // measure 57
0000
1001
0000
0000
,  // measure 58
0000
0000
0000
0000
,  // measure 59
0000
1001
0000
0000
,  // measure 60
0000
0000
0000
0000
,  // measure 61
0000
1000
0000
0000
,  // measure 62
0000
0001
0000
0000
,  // measure 63
0000
0100
0000
0000
,  // measure 64
0000
0010
0000
0000
,  // measure 65
0000
1000
0000
0000
,  // measure 66
0000
1000
0000
0000
,  // measure 67
0000
0001
0000
0000
,  // measure 68
0000
0001
0000
0000
,  // measure 69
0000
0110
0000
0000
,  // measure 70
0000
1001
0000
0000
;

//---------------dance-single - ----------------
#NOTEDATA:;
#CHARTNAME:;
#STEPSTYPE:dance-single;
#DESCRIPTION:;
#CHARTSTYLE:;
#DIFFICULTY:Easy;
#METER:2;
#RADARVALUES:0.153757,0.264695,0.208585,0.033374,0.000000,129.000000,104.000000,25.000000,4.000000,0.000000,0.000000,0.000000,0.000000,0.000000,0.153757,0.264695,0.208585,0.033374,0.000000,129.000000,104.000000,25.000000,4.000000,0.000000,0.000000,0.000000,0.000000,0.000000;
#CREDIT:;
#NOTES:
0000
0000
0000
0000
,
0000
0000
0000
0000
,
0000
0000
0000
0000
,
0000
0000
0000
0000
,
1001
0000
0000
0000
,
0000
0000
0000
0000
,
0000
1001
0000
0000
,
0000
1001
0000
0000
,
0000
1000
0000
0000
,
0000
1000
0000
0000
,
0000
0001
0000
0000
,
0000
0001
0000
0000
,
0000
0100
0000
0000
,
0000
0100
0000
0000
,
0000
0010
0000
0000
,
0000
0010
0000
0000
,
0000
1001
0000
0000
,
0000
1001
0000
0000
,
0000
1000
0000
1000
,
0000
0001
0000
0001
,
0000
0100
0000
0100
,
0000
0010
0000
0010
,
0000
0100
0000
0100
,
0000
0010
0000
0010
,
0000
1000
0000
1000
,
0000
0001
0000
1001
,
0000
1000
0000
1000
,
0000
0001
0000
0001
,
0000
0100
0000
0100
,
0000
1010
0000
0101
,
0000
1000
0000
1000
,
0000
0001
0000
0001
,
0000
0100
0000
0100
,
0000
0010
0000
0010
,
0000
1001
0000
0000
,
0000
1001
0000
0000
,
0000
1001
0000
0000
,
0000
1000
0000
0001
,
0000
0100
0000
0010
,
0000
1000
0000
0001
,
0000
1000
0000
1001
,
0000
0100
0000
0010
,
0000
1000
0000
0001
,
0000
0100
0000
0100
,
0000
0010
0000
0110
,
0000
1000
0000
0001
,
0000
0100
0000
0010
,
0000
1000
0000
0001
,
0000
0100
0000
1001
,
0000
0010
0000
0100
,
0000
0001
0000
1000
,
0000
0001
0000
1000
,
0000
0001
0000
1001
,
0000
2001
0000
0000
,
0000
0000
0000
3000
,
0000
1002
0000
0000
,
0000
0000
0000
0003
,
0000
0210
0000
0000
,
0000
0000
0000
0300
,
0000
0120
0000
0000
,
0000
0000
0000
0030
,
0000
1000
0000
0001
,
0000
1000
0000
0001
,
0000
0100
0000
0010
,
0000
0100
0000
0010
,
0000
1001
0000
1000
,
0000
0110
0000
0010
,
0000
1000
0000
0001
,
0000
0100
0000
0010
,
0000
1001
1001
0000
,
0000
1001
1001
0000
;

//---------------dance-single - ----------------
#NOTEDATA:;
#CHARTNAME:;
#STEPSTYPE:dance-single;
#DESCRIPTION:;
#CHARTSTYLE:;
#DIFFICULTY:Medium;
#METER:6;
#RADARVALUES:0.307514,0.448980,0.375454,0.083434,0.000000,258.000000,213.000000,45.000000,10.000000,0.000000,0.000000,0.000000,0.000000,0.000000,0.307514,0.448980,0.375454,0.083434,0.000000,258.000000,213.000000,45.000000,10.000000,0.000000,0.000000,0.000000,0.000000,0.000000;
#CREDIT:;
#NOTES:
0000
0000
0000
0000
,
0000
0000
0000
0000
,
0000
0000
0000
0000
,
0000
0000
0000
0000
,
0000
0000
0000
0000
,
0000
0000
0000
0000
,
0000
1001
0000
1001
,
0000
1001
1001
1001
,
0000
1000
0000
1000
,
0000
0001
0000
0001
,
0000
0100
0000
0100
,
0000
0010
0000
0010
,
0000
1000
0000
0100
,
0000
0010
0000
0001
,
0000
0010
0000
0100
,
0000
0010
0000
0100
,
0000
0110
0110
0000
,
0000
1001
1001
0000
,
0000
1000
0001
1000
,
0001
0100
0010
0100
,
0010
0110
0000
1001
,
0000
1000
1001
0001
,
1001
1000
0001
1000
,
0001
0100
0010
0100
,
0010
0110
0000
1001
,
0000
1000
0001
0100
,
0010
1001
0000
1000
,
0010
0100
0001
1000
,
0001
1001
0000
0101
,
0100
0000
1000
0000
0000
1000
0001
0000
,
0000
1000
0010
0100
,
0001
1001
0000
0110
,
0000
1000
0100
1000
,
0000
0001
0010
0001
,
0000
0100
0010
0100
,
0000
1001
0000
0000
,
0000
1001
1001
0000
,
0000
1000
0001
0100
,
0010
1000
0001
0100
,
0010
1000
0010
0100
,
0001
1000
0010
0100
,
0101
0001
1000
0010
,
0100
0001
1000
0010
,
0100
0100
0110
0001
,
1001
0000
2000
3000
0002
0003
0200
0300
,
0020
0030
0100
0000
0010
0000
1000
0000
,
0001
0100
0010
1000
,
0001
1000
1001
0001
,
1001
0100
0110
0010
,
0110
1000
0001
0100
,
0010
0100
0010
1000
,
0001
1000
1010
0001
,
0101
1000
0001
0100
,
0010
1002
0000
1000
,
0000
1000
0000
1003
,
0000
1000
0002
0000
0000
0000
1000
0000
,
0000
1000
0000
1003
,
0000
0100
0020
0000
0000
0000
0100
0000
,
0000
0100
0000
0130
,
0000
0010
0200
0000
0000
0000
0010
0000
,
0000
0010
0000
0310
,
0000
1000
1010
0001
,
0101
1000
1010
0001
,
0101
0001
1000
0000
1100
0000
0001
0000
,
0011
1000
1100
0001
,
0011
0000
1000
0000
0001
0000
1000
0001
,
1000
0000
0100
0000
0010
0000
0100
0010
,
0100
0000
1000
0100
1000
0000
0001
0010
,
0001
0000
0100
0010
0100
0000
0010
0100
,
0010
0000
1001
0000
1001
0000
0100
0010
,
0100
1001
2002
0000
,
0000
0000
0000
3003
;

//---------------dance-single - ----------------
#NOTEDATA:;
#CHARTNAME:;
#STEPSTYPE:dance-single;
#DESCRIPTION:;
#CHARTSTYLE:;
#DIFFICULTY:Hard;
#METER:8;
#RADARVALUES:0.455312,0.529390,0.292020,0.333737,0.000000,382.000000,347.000000,35.000000,40.000000,0.000000,0.000000,0.000000,0.000000,0.000000,0.455312,0.529390,0.292020,0.333737,0.000000,382.000000,347.000000,35.000000,40.000000,0.000000,0.000000,0.000000,0.000000,0.000000;
#CREDIT:;
#NOTES:
0000
0000
0000
0000
,
0000
0000
0000
0000
,
0000
0000
0000
0000
,
0000
0000
0000
0000
,
0000
1001
0000
0000
,
0000
0000
0000
0000
,
0000
1001
0000
0101
,
0000
0000
1001
0001
0101
0001
1001
0001
,
0101
0000
1000
0100
0010
0000
0001
0010
,
0100
0000
1000
0100
0010
0001
0010
0000
,
1001
0000
0001
0010
0100
0000
1000
0100
,
0010
0000
0001
0010
0100
1000
0100
0000
,
1001
0000
1000
0010
0100
0000
0001
0100
,
0010
0000
1000
0001
0100
0010
1000
0000
,
0101
0000
0100
0001
0100
0000
0001
0100
,
0001
0000
1000
0010
1000
0000
0010
1000
,
0010
0000
1000
0000
2001
0000
0000
0001
,
3001
0000
1002
0000
1000
0000
0000
1000
,
1003
0000
1000
0001
0100
0010
1000
0100
,
0010
0001
2000
0000
3002
0000
0203
0000
,
0310
0000
0100
0010
0100
0000
0001
1000
,
0002
2003
3200
0302
,
1003
0000
0100
0010
0100
1000
0001
1000
,
0100
0010
0200
0000
0320
0000
2030
0000
,
3002
0000
0103
0000
0100
0001
1000
0000
,
0010
1000
0002
0000
2003
0000
3200
0000
,
0320
0000
1030
0100
1000
0100
0010
0100
,
0010
0100
2000
0000
3200
0000
0320
0000
,
0032
0000
1003
0001
1000
0001
0100
0010
,
0100
0010
0200
0000
0010
0000
0310
0000
,
0000
0000
1001
0000
0000
1000
0001
0100
,
0010
0100
0110
0000
0000
1000
1010
0000
,
0000
2000
3002
0203
,
0302
0000
0023
0000
0030
0001
0100
0010
,
1000
0001
0200
0000
0000
0000
0000
0000
,
0300
0000
1000
0100
0010
0000
0001
0010
,
0100
0000
1000
0001
1000
0001
0000
0010
,
1001
0000
0001
0100
0010
1000
0010
0100
,
0001
1000
0010
1000
0010
1000
0100
1000
,
0001
0010
0110
0100
0010
0000
0010
0100
,
0110
0000
0100
1000
0001
0010
0001
0000
,
1001
0000
0100
0010
0100
0010
0001
0100
,
0001
1000
0001
0100
0010
1000
0002
0000
,
0013
0000
1000
0100
1000
0000
0001
1000
,
0001
1002
0100
1000
,
0103
0000
0100
0010
0100
1000
0100
1000
,
0001
0100
0010
1000
0001
0010
0100
0000
,
1001
0000
0010
0100
0010
1000
0001
0100
,
0010
0000
0010
0001
1000
0010
2000
0000
,
3001
0000
1000
0100
1000
0001
0100
0010
,
1000
0100
0010
0100
1000
0010
0100
0001
,
1000
0000
1000
0100
0010
0001
0010
0100
,
1000
0000
2000
3000
0200
0300
0002
0003
,
0020
0030
2002
0000
0000
0000
0000
0000
,
0000
0000
0000
0000
,
3003
2002
0000
0000
,
0000
3003
0000
0000
,
0000
1001
2001
0000
0000
0000
0000
0000
,
3000
0000
0000
0000
,
0000
1001
0000
1001
,
0000
1010
0101
1010
,
0101
0000
0010
0001
0010
0001
1000
0100
,
1000
0001
1000
0010
0100
0001
1000
0100
,
1000
0010
1000
0100
0010
0100
1000
0100
,
0010
0001
0100
0010
1000
0001
1000
0001
,
0010
0100
0010
0001
0100
0010
0100
0001
,
0100
0001
0010
0001
1000
0010
1000
0100
,
0010
0100
1000
0100
0010
0001
0100
0001
,
1000
0010
0100
0001
1000
0010
0100
0001
,
1000
1001
1001
0000
,
0000
1001
1001
0000
;

//---------------dance-single - ----------------
#NOTEDATA:;
#CHARTNAME:;
#STEPSTYPE:dance-single;
#DESCRIPTION:;
#CHARTSTYLE:;
#DIFFICULTY:Challenge;
#METER:11;
#RADARVALUES:0.579271,0.652768,0.492261,0.659130,0.116808,486.000000,427.000000,59.000000,79.000000,218.000000,1.000000,0.000000,0.000000,0.000000,0.579271,0.652768,0.492261,0.659130,0.116808,486.000000,427.000000,59.000000,79.000000,218.000000,1.000000,0.000000,0.000000,0.000000;
#CREDIT:;
#NOTES:
0000
0000
0000
0000
,
0000
0000
0000
0000
,
0000
0000
0000
0000
,
0000
0000
0000
0000
,
0000
1000
1001
0000
0000
0000
0000
0000
,
0000
0000
0000
0000
,
0000
1000
1100
0000
0000
1000
1001
0000
,
0000
1000
1001
1000
1100
1000
1001
1000
,
1001
0000
1000
0001
1000
0000
0100
0000
1000
0000
0100
0000
0001
0000
0010
0000
,
0001
0010
1000
0010
0100
0001
1000
0001
,
0100
0000
0010
0100
0001
0000
0010
0000
0001
0000
0010
0000
1000
0000
0100
0000
,
1000
0100
0001
0100
0010
1000
0001
1000
,
0010
0000
0100
0010
0100
0000
0010
0000
1000
0000
0001
0000
0100
0000
1000
0001
,
1000
0000
0000
0000
0100
0000
0010
0000
1000
0000
0001
0000
0100
0000
1000
0001
,
1000
0000
1000
0100
0010
0001
0010
0000
,
0011
0000
0001
0010
0100
1000
0100
0000
,
1100
0000
0000
0000
1000
0010
0100
0000
1000
0010
0100
0000
0000
0000
1MM1
0000
,
1MM1
0000
0000
0000
0001
0100
0010
0000
0001
0100
0010
0000
0000
0000
100M
0000
,
1MM1
0000
1000
0001
0100
0010
1000
0001
,
0100
0010
2000
3M10
0002
01M3
2000
3M10
,
0002
01M3
0001
1000
0010
0100
0001
1000
,
0010
0100
0002
01M3
2000
3M10
0002
01M3
,
1000
0000
1000
0010
1000
0000
M00M
0000
2002
0000
3003
0000
1000
0000
0010
0000
,
0100
0001
2M10
3000
01M2
0003
0120
0M30
,
0110
0000
0100
0010
0100
0000
0000
0000
1000
0000
1000
0100
1000
0000
M00M
0000
,
1001
0000
0000
0000
1MM1
0000
1000
0001
1MM0
0000
0001
1000
0MM1
0000
0100
0010
,
M10M
0000
0010
0100
M01M
0000
0000
0000
0010
0000
0100
0000
1000
0000
0010
0000
,
0100
0001
1000
0100
0010
0001
1000
0101
,
0101
0000
2M00
0000
301M
0000
0100
0010
,
0100
0010
200M
0000
30M1
0000
2MM2
3003
,
1MM1
0000
1000
0100
0010
0100
1000
0100
,
1MM1
0000
0001
0010
0100
0010
0001
0010
,
1MM1
0000
200M
3001
M002
1003
200M
0000
,
30M1
0000
M002
1003
200M
3001
M002
0000
,
1003
2MM2
0000
0000
,
3MM3
0000
1000
0100
0010
0001
0010
0100
,
1000
0000
0000
0000
1MM0
0001
1000
0000
1MM0
0001
1000
0000
0000
0000
1000
0100
,
MM1M
0000
1M00
0010
100M
0010
M100
0010
,
011M
0000
M001
0100
00M1
0100
M010
0100
,
10M1
0000
100M
0001
M100
0010
100M
0010
,
101M
0000
M100
0100
001M
0010
M200
0310
,
M11M
0000
100M
0001
M100
0010
100M
0001
,
M100
0010
0M01
1000
001M
0100
0M01
1000
,
0M10
0000
101M
1M00
101M
0000
1M01
00M1
,
1M01
11MM
MM11
M11M
,
1MM1
0000
200M
32M0
032M
M032
0M23
M230
,
032M
M230
230M
32M0
230M
32M0
03M2
0003
,
1MM1
0000
2M00
32M0
032M
0030
00M2
0M23
,
M230
0300
200M
31M0
0M02
M013
2M02
30M3
,
2MM2
3003
2M00
32M0
230M
32M0
03M2
0M23
,
M032
0M23
0230
M302
20M3
3M20
M13M
0000
,
1MM1
0000
2000
3M20
203M
3M20
023M
03M2
,
M203
03M2
2103
3MM0
0012
0MM3
0120
M03M
,
1002
0003
2MM2
0000
0000
0000
0000
0000
,
0000
0000
0000
0000
0000
0000
0000
3003
,
0000
1001
2MM2
0000
0000
0000
0000
0000
,
0000
0000
0000
3003
,
0000
0001
1MM1
0000
0000
0000
0000
0000
,
0000
0000
0000
0000
,
0000
0001
MM11
0000
0000
0001
1MM1
0000
,
0000
0001
1MM1
0001
MM11
0001
1MM1
0001
,
1MM1
0000
0001
1000
00M1
0000
M100
0000
0010
0000
010M
0000
M010
0000
0100
0000
,
1MM0
0001
M010
0100
100M
0001
M010
0100
,
M010
0000
0100
0010
010M
0000
0100
0000
1000
0000
0100
0000
M001
0000
0010
0000
,
0M01
0010
100M
0010
M100
0001
10M0
0001
,
M100
0000
0010
0100
001M
0000
0100
0000
00M1
0000
1000
0000
0M10
0000
0001
1000
,
0M01
0000
0000
0000
M01M
0000
0100
0000
00M1
0000
1000
0000
0M10
0000
0001
1000
,
0M01
0000
0M1M
1000
M010
0100
00M1
0100
,
M001
1000
0100
0010
0M01
1000
001M
0100
,
1MM1
0000
0000
0000
M001
0100
0010
0000
M001
0100
0010
0000
0MM0
0000
1001
0000
,
1MM1
0000
0000
0000
1MM0
0001
1000
0000
0010
0100
0020
0000
0000
0000
0000
0000
,
0000
0030
0000
0000
0000
0000
0000
0000
;
