#TITLE:Beethoven Virus;
#SUBTITLE:;
#ARTIST:Diana Boncheva feat. Banya;
#TITLETRANSLIT:;
#SUBTITLETRANSLIT:;
#ARTISTTRANSLIT:;
#GENRE:;
#CREDIT:xAlchemii;
#MUSIC:Beethoven Virus - Diana feat Banya.mp3;
#BANNER:Beethoven Virus - Diana feat Banya_banner.png;
#BACKGROUND:Beethoven Virus - Diana feat Banya_background.png;
#CDTITLE:;
#SAMPLESTART:5.600;
#SAMPLELENGTH:12.893;
#SELECTABLE:YES;
#OFFSET:-0.031;
#BPMS:0.000=156.000;
#STOPS:;
#BGCHANGES:;
#FGCHANGES:;

//--------------- dance-single - xAlchemii LVL 11 ----------------
#NOTES:
     dance-single:
     xAlchemii LVL 11:
     Hard:
     11:
     0,0,0,0,0:
0000
0000
0000
0000
,
0000
0000
0000
0000
,
0000
0000
0000
0000
,
0000
0000
0000
0000
,
1000
0100
1000
0100
1000
0000
0000
1000
,
0001
0000
0000
0000
0000
0000
0000
0000
1000
0000
0001
0000
1000
0010
0100
0001
,
1000
1010
0001
0101
,
0110
0000
0000
0000
0000
0000
0001
0100
,
0010
0000
0000
0000
1010
0000
1000
0010
,
0100
0000
0000
0000
0101
0000
1000
0010
,
0100
0001
1000
0010
0100
0001
1000
0001
,
1001
0000
0000
0000
0000
0000
0100
1001
,
1001
0000
0000
1000
0001
0000
0000
1000
,
0001
0000
0000
0000
0000
0000
0000
0000
1000
0000
0001
0000
1000
0010
0100
0001
,
1000
1010
0001
0101
,
1001
0000
0000
0000
0000
0000
0110
0010
,
0110
0000
0000
0000
0110
0000
1001
0100
,
1001
0000
0000
0000
1001
0000
0100
0010
,
1001
1000
1001
0000
1010
1000
1010
0000
,
1001
0000
0000
0000
0000
0100
1000
0001
,
1001
1000
1001
0000
0110
0100
0110
0000
,
1010
0010
1010
0000
0101
0100
0101
0000
,
1000
0010
1000
0000
0001
0100
0001
0000
,
0100
0010
0100
0000
0001
1000
0001
0000
,
1000
0001
0010
0100
1000
0000
1001
0000
,
1000
0100
0010
0000
0001
0010
0100
0000
,
1000
0100
0010
0001
0001
0010
0100
1000
,
0002
0000
0203
0000
0302
0000
2003
3000
,
2002
0000
3003
0000
0000
0000
1000
0001
1000
0000
0100
0000
0010
0000
0001
0000
,
0100
0010
1000
0001
0100
0010
1000
0001
,
1001
0000
0000
0000
0000
0000
0001
1000
0001
0000
0010
0000
0100
0000
1000
0000
,
0010
0100
0001
1000
0010
0100
0001
1000
,
1001
0000
0000
0000
0000
0000
1000
0010
1000
0000
0001
0100
0001
0000
1000
0010
,
2000
0000
3200
0000
2300
0000
3200
0000
0320
0000
0032
0000
0023
0000
0032
0003
,
2002
0000
3003
0000
0000
0000
0100
0001
0100
0000
0001
0000
0100
0000
0010
0000
,
1000
0001
1000
0001
1000
0001
1000
0001
1000
0010
1000
0010
1000
0010
1000
0010
,
1000
0000
1001
0000
1000
0010
1000
0010
,
0100
0000
0101
0000
0100
0001
0100
0001
,
0010
0000
0011
0000
0001
1000
0001
0000
,
1001
0000
0110
0000
1000
0100
0010
0001
,
0001
0000
1001
0000
0001
0100
0001
0100
,
0010
0000
1010
0000
0010
1000
0010
1000
,
0100
0000
1100
0000
1000
0001
1000
0000
,
1001
0000
0000
0000
1000
0001
1000
0001
1000
0000
0000
0000
0000
0000
0000
0000
,
1001
0110
1001
0110
,
1001
2002
3003
2002
,
3003
0000
2002
3003
2002
3003
0000
0000
,
1010
0101
0110
1001
,
2200
0000
0000
0000
3300
0000
1000
0001
,
0100
0000
0000
0000
0101
0000
0001
1000
,
0010
0000
0000
0000
1010
0000
1000
0100
,
0001
0010
1000
0010
0001
0010
0100
1000
,
1001
0000
0000
0000
0100
0010
1000
0001
,
1000
2010
3000
0102
,
0003
0000
0210
0300
0120
0030
0000
0000
,
0011
1100
0110
1001
,
0202
0000
0000
0000
0303
0000
0001
1000
,
0100
0000
0000
0000
1100
0000
1000
0001
,
0010
0000
0000
0000
0011
0000
0001
0100
,
1000
0010
0001
0010
1000
0010
0100
0001
,
1000
0000
0000
0000
0000
0000
0000
0000
1000
0000
0001
0000
1000
0001
1000
0001
,
1000
0000
0100
0000
0010
0000
0001
0000
1001
0000
0000
0000
0001
1000
0001
1000
,
0001
0010
0100
1000
1001
0000
1000
0001
,
1000
0010
1000
0010
0100
0001
0100
0001
,
1000
0000
0000
0000
1000
0000
0000
0000
1000
0000
0001
0000
1000
0001
1000
0001
,
0200
0000
0000
0000
,
0000
0300
0000
0000
;
