#TITLE:Witchcraft;
#SUBTITLE:Pegboard Nerds Remix;
#ARTIST:Pendulum;
#TITLETRANSLIT:;
#SUBTITLETRANSLIT:;
#ARTISTTRANSLIT:;
#GENRE:;
#CREDIT:;
#BANNER:Witchcraft (Pegboard Nerds Remix).png;
#BACKGROUND:Witchcraft (Pegboard Nerds Remix)-bg.png;
#LYRICSPATH:;
#CDTITLE:;
#MUSIC:Witchcraft (Pegboard Nerds Remix).mp3;
#OFFSET:-0.030000;
#SAMPLESTART:66.237000;
#SAMPLELENGTH:11.034000;
#SELECTABLE:YES;
#BPMS:0.000000=174.000000
;
#STOPS:
;
#BGCHANGES:;
#KEYSOUNDS:;
#ATTACKS:;

//---------------dance-single - Shortysnmn2010----------------
#NOTES:
     dance-single:
     Shortysnmn2010:
     Beginner:
     1:
     0.116218,0.244819,0.022809,0.053221,0.000000,107.000000,104.000000,3.000000,7.000000,0.000000,0.000000,0.116218,0.244819,0.022809,0.053221,0.000000,107.000000,104.000000,3.000000,7.000000,0.000000,0.000000:
0000
0000
0000
0000
,
0000
0000
0000
0000
,
0000
0000
0000
0000
,
0000
0000
0000
0000
,
0001
0000
0000
0000
,
0000
0000
0000
0000
,
0100
0000
0000
0000
,
0000
0000
0000
0000
,
0001
0000
0000
0000
,
0000
0000
0000
0000
,
0100
0000
0000
0000
,
0000
0000
0000
0000
,
0010
0000
0000
0000
,
0000
0000
0000
0000
,
1000
0000
0000
0000
,
0000
0000
0000
0000
,
0002
0000
0000
0000
,
1000
0000
0003
0000
,
2000
0000
0000
0000
,
0001
0000
3000
0000
,
0002
0000
0000
0000
,
0010
0000
0003
0000
,
0020
0000
0000
0000
,
0001
0000
0030
0000
,
0200
0000
0000
0000
,
1000
0000
0300
0000
,
2000
0000
0000
0000
,
0100
0000
3000
0000
,
0020
0000
0000
0000
,
0100
0000
0030
0000
,
0100
0000
0000
0000
,
0110
0000
0000
0000
,
1000
0000
0000
0000
,
0001
0000
0000
0000
,
0010
0000
0000
0000
,
0001
0000
0000
0000
,
1000
0000
0000
0000
,
0010
0000
0000
0000
,
0100
0000
0000
0000
,
0001
0000
0000
0000
,
1000
0000
1000
0000
,
1000
0000
0001
0000
,
1000
0000
0001
0000
,
0001
0000
0000
0000
,
1000
0000
1000
0000
,
0001
0000
1000
0000
,
0001
0000
0001
0000
,
1001
0000
0000
0000
,
1000
0000
0000
0000
,
0010
0000
0000
0000
,
0100
0000
0000
0000
,
0001
0000
0000
0000
,
1000
0000
0000
0000
,
0100
0000
0000
0000
,
0001
0000
0000
0000
,
0100
0000
0100
0000
,
0100
0000
0000
0000
,
1000
0000
0000
0000
,
0010
0000
0000
0000
,
0001
0000
0000
0000
,
0010
0000
0000
0000
,
0100
0000
0000
0000
,
0001
0000
0000
0000
,
0010
0000
0010
0000
,
0100
0000
0000
0000
,
1000
0000
0000
0000
,
0001
0000
1000
0000
,
0001
0000
0000
0000
,
0010
0000
0000
0000
,
0100
0000
0000
0000
,
1000
0000
0100
0000
,
1000
0000
0000
0000
,
0010
0000
0000
0100
,
0000
0000
0001
0001
,
0001
0000
0000
0010
,
0000
0000
0100
0100
,
0100
0000
1000
0000
,
0100
0000
0000
0000
,
0010
0000
0100
0000
,
0010
0000
0000
0000
,
0001
0000
0000
0000
,
1000
0000
0000
0000
,
0001
0000
0100
0000
,
0001
0000
0000
0000
,
1000
0000
0000
0000
,
0010
0000
0000
0000
,
0100
0010
0100
0000
,
0000
0000
0000
0000
,
0001
0000
0000
0000
,
0010
0000
0000
0000
,
0100
0000
0100
0000
,
1000
0100
1000
0000
,
1001
0000
0000
0000
;

//---------------dance-single - Shortysnmn2010----------------
#NOTES:
     dance-single:
     Shortysnmn2010:
     Easy:
     2:
     0.142286,0.212125,0.053221,0.015206,0.000000,131.000000,124.000000,7.000000,2.000000,0.000000,0.000000,0.142286,0.212125,0.053221,0.015206,0.000000,131.000000,124.000000,7.000000,2.000000,0.000000,0.000000:
0000
0000
0000
0000
,
0000
0000
0000
0000
,
0000
0000
0000
0000
,
0000
0000
0000
0000
,
1000
0000
0000
0000
,
0000
0000
0000
0000
,
0100
0000
0000
0000
,
0010
0000
0000
0000
,
0001
0000
0000
0000
,
0000
0000
0000
0000
,
0100
0000
0000
0000
,
0010
0000
0000
0000
,
1000
0000
0000
0000
,
0000
0000
0000
0000
,
0001
0000
0000
0000
,
1000
0000
0000
0000
,
0001
0000
0001
0000
,
0001
0000
0001
0000
,
1001
0000
0000
0000
,
1000
0000
0000
0000
,
0010
0000
0010
0000
,
0010
0000
0100
0000
,
0110
0000
0000
0000
,
0000
0000
0000
0000
,
0100
0000
0100
0000
,
0100
0000
0001
0000
,
0101
0000
0000
0000
,
0000
0000
0000
0000
,
1000
0000
1000
0000
,
0100
0000
0100
0000
,
1100
0000
0000
0000
,
1000
0000
0000
0000
,
0010
0000
0000
0000
,
1000
0000
0100
0000
,
1000
0000
0000
0000
,
0010
0000
0100
0000
,
0001
0000
0000
0000
,
0010
0000
0010
0000
,
0001
0000
0000
0000
,
1000
0000
0000
0000
,
0010
0000
0010
0000
,
1000
0000
1000
0000
,
0100
0000
0100
0000
,
1000
0000
1000
0000
,
0010
0000
0010
0000
,
1000
0000
1000
0000
,
0100
0000
0100
0000
,
0110
0000
0000
0000
,
0001
0000
0000
0000
,
0010
0000
0000
0000
,
0001
0000
0000
0000
,
0100
0000
0010
0000
,
0100
0000
0000
0000
,
0010
0000
0000
0000
,
1000
0000
0000
0000
,
0100
0000
0010
0000
,
0100
0000
0000
0000
,
1000
0000
0000
0000
,
0010
0000
0000
0000
,
0100
0000
0001
0000
,
0010
0000
0000
0000
,
1000
0000
0000
0000
,
0010
0000
0001
0000
,
0100
0000
0000
0000
,
0001
0000
0001
0000
,
1000
0000
1000
0000
,
0001
0000
1000
0000
,
0001
0000
0000
0000
,
0010
0000
0010
0000
,
0100
0000
0010
0000
,
0100
0000
0100
0000
,
0010
0000
0000
0000
,
0100
0000
0000
0100
,
0000
0000
1000
0100
,
1000
0000
0000
0001
,
0000
0000
0010
0001
,
0100
0000
0000
0000
,
0001
0000
0000
0000
,
0010
0000
0100
0000
,
0010
0000
0000
0000
,
0001
0000
0000
0000
,
0100
0000
0000
0000
,
0010
0000
1000
0000
,
0010
0000
0000
0000
,
1000
0000
1000
0000
,
0001
0000
0001
0000
,
1000
0000
0001
0000
,
1001
0000
0000
0000
,
0001
0000
0001
0000
,
1000
0000
0001
0000
,
1000
0000
1000
0000
,
0001
0000
0000
0000
,
2002
0000
0000
0000
,
3003
0000
0000
0000
;

//---------------dance-single - Shortysnmn2010----------------
#NOTES:
     dance-single:
     Shortysnmn2010:
     Medium:
     6:
     0.397531,0.454663,0.159664,0.410565,0.000000,366.000000,345.000000,21.000000,54.000000,0.000000,0.000000,0.397531,0.454663,0.159664,0.410565,0.000000,366.000000,345.000000,21.000000,54.000000,0.000000,0.000000:
0000
0000
0000
0000
,
0000
0000
0000
0000
,
0000
0000
0000
0000
,
0000
0000
0000
0000
,
2002
0000
0000
0000
,
3003
0000
1000
0100
,
0000
1000
0010
0100
,
0000
0001
0010
0001
,
2002
3003
0000
0001
,
0100
1000
0100
0001
,
0010
0100
0010
0220
,
0000
0330
0000
0100
,
1000
0010
0100
0010
,
0000
1000
0000
0000
,
0000
0001
0010
0000
,
0100
0000
1000
0000
,
0001
0000
0100
0000
0010
0000
0100
0002
,
0000
0000
0013
0000
0001
0000
0100
0020
,
0000
0000
0130
0000
0001
0000
0010
0200
,
0000
0000
1300
0000
0001
1000
0001
0000
,
0100
0000
0010
0000
1000
0000
0100
0020
,
0000
0000
1030
0000
0010
0000
0001
0020
,
0000
0000
0130
0000
0010
0000
0001
0200
,
0000
0000
0310
0000
1000
0001
1000
0000
,
0100
0000
0001
0000
0100
0000
1000
0200
,
0000
0000
0310
0000
0001
0000
0010
0200
,
0000
0000
1300
0000
0001
0000
0100
0020
,
0000
0000
0130
0000
0001
1000
0001
0000
,
0010
0000
0100
0000
1000
0000
0010
2000
,
0000
0000
3100
0000
0010
0000
0001
0020
,
0000
0000
0130
0000
1000
0000
0001
0200
,
0000
0000
0300
0000
,
0001
0000
0010
0001
0010
0000
0200
0000
,
0000
1000
0001
1300
,
0001
0000
0100
0010
0100
0000
0001
0000
,
1000
0000
0100
0000
1000
0100
1000
0100
,
1000
0000
0010
0100
0010
0000
2000
0000
,
0000
0100
0010
3100
,
0010
0000
0001
0010
0001
0000
0100
0000
,
0010
1000
0002
0003
,
1000
1100
2000
0100
,
0010
3100
1001
1001
,
0100
0101
0002
0010
,
0100
0013
1001
1001
,
0010
0110
0200
1000
,
0001
1300
0110
0110
,
0001
1000
0010
0100
,
2002
3003
0000
0000
,
1000
0000
0100
0000
0001
0000
0100
2000
,
0000
0000
3010
0000
0100
0000
0001
0200
,
0000
0000
1300
0000
0100
0000
0001
0020
,
0000
0030
0100
0010
0000
0100
0010
0000
,
0001
0000
1000
0000
0100
0000
0001
0200
,
0000
0000
1300
0000
0001
0000
0100
2000
,
0000
0000
3100
0000
0001
0000
1000
0200
,
0000
0300
0010
0100
0000
0010
0100
0000
,
1000
0000
0010
0000
1000
0000
0100
0020
,
0000
0000
0031
0000
1000
0000
0010
0200
,
0000
0000
0301
0000
1000
0000
0100
2000
,
0000
3000
0010
0100
0000
0010
0100
0000
,
0001
0000
0010
0000
0100
0000
0001
0200
,
0000
0000
0310
0000
0001
0000
0100
0020
,
0000
0000
0130
0000
0001
0000
1000
0200
,
0000
0300
1000
0001
0000
1000
0001
0000
,
2000
0100
0001
0100
,
3002
0010
1000
0010
,
2003
0010
0001
0010
,
3002
0100
1000
0103
,
2000
0100
3002
0100
,
2003
0010
3002
0100
,
0023
0100
0032
0100
,
0013
0000
0100
0010
0000
0010
0100
0000
,
1000
0100
0000
0000
1000
0100
1000
0100
,
0000
1000
0000
0010
1000
0000
0100
0000
,
0010
0000
0010
0000
0001
0000
0001
0010
,
0000
0100
0010
0000
0100
0000
1100
0000
,
1000
0000
0001
0100
0001
0000
2000
0000
,
0000
0100
0001
3100
,
0010
0000
0001
1000
0001
0000
0100
0000
,
0010
0000
1000
0000
0001
1000
0001
1000
,
0001
0000
0010
0100
0010
0000
0002
0000
,
0000
0100
1000
0103
,
0010
0000
1000
0001
1000
0000
0100
0000
,
0010
0001
2000
3000
,
0001
0101
0002
0010
,
0100
0013
1001
1100
,
0010
0001
0100
0010
,
2000
0100
3001
0000
,
1000
1010
2000
0100
,
0010
3100
1001
0011
,
0100
1000
0010
0100
,
0001
0000
1000
0100
0000
0100
1000
0000
,
1001
0000
0000
0000
;

//---------------dance-single - Shortysnmn2010----------------
#NOTES:
     dance-single:
     Shortysnmn2010:
     Hard:
     7:
     0.476820,0.559585,0.425771,0.448581,0.000000,439.000000,383.000000,56.000000,59.000000,0.000000,0.000000,0.476820,0.559585,0.425771,0.448581,0.000000,439.000000,383.000000,56.000000,59.000000,0.000000,0.000000:
0000
0000
0000
0000
,
0000
0000
0000
0000
,
0000
0000
0000
0000
,
0000
0000
0000
0000
,
0220
0000
0000
0000
,
0330
0000
1000
0001
,
1000
0100
0010
0002
,
0003
1000
0001
0100
,
0220
0330
0000
0100
,
0001
0010
0001
1000
,
0100
0010
0001
2000
,
0000
3000
0000
0001
,
0100
1000
0100
0001
,
2000
0002
0000
3003
,
0000
0001
0100
0000
,
0010
0000
0100
0000
,
0010
0000
1000
0000
0100
0000
1000
0020
,
0100
0000
1030
0000
0001
0000
0100
0020
,
1000
0000
0130
0000
0001
0000
1000
0200
,
0020
0000
0330
0000
0001
1000
0001
0000
,
1000
0000
0001
0000
0100
0000
0001
2000
,
0100
0000
3001
0000
1000
0000
0001
2000
,
0010
0000
3001
0000
1000
0000
0010
0200
,
0020
0000
0330
0000
1000
0001
1000
0000
,
0001
0000
0100
0000
1000
0000
0100
0002
,
0010
0000
1003
0000
0001
0000
0100
0002
,
0010
0000
1003
0000
0001
0000
0020
0200
,
0000
0000
0330
0000
0001
1000
0100
0000
,
1000
0000
0010
0000
0001
0000
0010
0200
,
1000
0000
0310
0000
0100
0000
0001
0200
,
0010
0000
1300
0000
0100
0000
0001
0020
,
0200
0000
0330
0000
,
1000
0000
0001
0100
0001
0000
0022
0000
,
0003
0000
0100
0000
0001
0000
0130
1000
,
0100
0000
1000
0010
0100
0000
0001
0000
,
0010
0100
1000
0000
0001
0100
0001
0100
,
0001
0000
1000
0010
1000
0000
2200
0000
,
0300
0000
0001
0000
0100
0000
3001
0010
,
0000
0010
0001
0010
0001
0000
2002
0000
,
3003
0000
0000
0010
,
1001
0102
0010
0103
,
2001
0000
0100
0000
3010
0000
0100
0001
,
0000
0001
0010
0001
0100
0000
0110
0000
,
1000
0000
1100
0000
0010
0001
0010
0001
,
0100
1001
2010
0100
,
3010
0000
0102
0000
0010
0000
1003
0100
,
0000
0100
0010
0100
1000
0000
1001
0000
,
1001
0000
0001
1000
0000
1000
0001
0000
,
0010
0000
0011
0000
1001
0000
1000
0100
,
0010
0000
0001
0000
0101
0000
0001
0010
,
0100
0000
1000
0000
1010
0000
1000
0001
,
0200
0020
0030
0310
,
1000
0000
1010
0000
1001
0000
1000
0001
,
0010
0000
0100
0000
1100
0000
1000
0010
,
0001
0000
0010
0000
0110
0000
0100
0001
,
0020
0200
0300
0130
,
1000
0000
1100
0000
1010
0000
1000
0001
,
0100
0000
0001
0000
1001
0000
1000
0100
,
0010
0000
0001
0000
1001
0000
1000
0010
,
0002
0020
0030
0013
,
1000
0000
1010
0000
1100
0000
0010
0001
,
0100
0000
0001
0000
1001
0000
0010
0100
,
1000
0000
0010
0000
0110
0000
1000
0001
,
2000
0200
0300
3100
,
0012
0100
0010
0103
,
2010
0100
0010
3100
,
0021
0100
0001
0130
,
1100
0000
1001
0000
1000
0010
0100
0001
,
2000
0100
0001
3100
,
0012
1000
0010
1003
,
0201
0010
0001
0310
,
1000
0000
0001
1000
0000
1000
0001
0000
,
1000
2000
0000
3000
0100
1000
0100
0010
,
0000
0110
0000
0100
1000
0100
0010
0001
,
1000
0001
0001
0000
0100
0010
0100
0001
,
0000
0010
0002
0000
0100
0000
1003
0000
,
1001
0000
0100
0001
1000
0000
2002
0000
,
0003
0000
0010
0000
0001
0000
3010
0100
,
0010
1000
0001
0100
,
0010
0100
0010
0000
0100
0001
0100
0001
,
0010
0000
0100
1000
0100
0000
0022
0000
,
0030
0000
1000
0000
0010
0000
1003
0010
,
1000
0100
0010
0001
,
2000
0000
3000
0000
0001
0010
0000
0010
,
0001
2001
0100
3001
,
0012
0100
1003
0110
,
1001
0000
1000
0100
0001
0000
1001
0000
,
0011
0000
1001
0000
1000
0100
0010
0100
,
1000
2010
0100
3001
,
0012
0100
0013
0110
,
1100
0000
0001
0100
1000
0000
1100
0000
,
0110
0000
1000
0001
0000
0001
1000
0000
,
0110
0000
0000
0000
;

//---------------dance-single - Shortysnmn2010----------------
#NOTES:
     dance-single:
     Shortysnmn2010:
     Challenge:
     9:
     0.582177,0.699481,0.418168,0.235695,0.000000,536.000000,481.000000,55.000000,31.000000,0.000000,0.000000,0.582177,0.699481,0.418168,0.235695,0.000000,536.000000,481.000000,55.000000,31.000000,0.000000,0.000000:
// measure 0
0000
0000
0000
0000
,  // measure 1
0000
0000
0000
0000
,  // measure 2
0000
0000
0000
0000
,  // measure 3
0000
0000
0000
0000
,  // measure 4
2002
0000
0000
0000
,  // measure 5
3003
0000
0010
0001
,  // measure 6
0101
0001
0010
0200
,  // measure 7
0300
1000
0001
1000
,  // measure 8
0220
0000
0330
1000
,  // measure 9
0001
0010
1000
0010
,  // measure 10
0011
0001
0100
2000
,  // measure 11
0000
3000
0000
0100
,  // measure 12
0101
0001
0010
0100
,  // measure 13
1100
2000
0000
0000
,  // measure 14
0000
0001
0001
0000
,  // measure 15
0010
0000
3010
0000
,  // measure 16
0010
0000
1000
0000
1100
0000
0010
0002
,  // measure 17
0100
0000
0013
0000
0011
0000
0100
2000
,  // measure 18
0010
0000
3100
0000
0110
0000
0010
0002
,  // measure 19
0000
0000
0003
0000
1000
0100
1000
0000
,  // measure 20
0001
0000
0100
0000
0101
0000
0010
2000
,  // measure 21
0100
0000
3010
0000
1010
0000
0100
0002
,  // measure 22
0010
0000
0103
0000
0101
0000
0010
2000
,  // measure 23
0000
0000
3000
0000
0100
0010
0100
0000
,  // measure 24
1000
0000
0001
0000
0110
0000
1000
0002
,  // measure 25
0010
0000
1003
0000
1100
0000
1000
0002
,  // measure 26
0100
0000
1003
0000
1010
0000
1000
0002
,  // measure 27
0000
0000
0003
0000
0010
0100
0010
0000
,  // measure 28
0001
0000
0100
0000
0110
0000
0010
2000
,  // measure 29
0001
0000
3100
0000
1100
0000
0100
2000
,  // measure 30
0010
0000
3001
0000
1001
0000
0001
2000
,  // measure 31
0000
0100
0100
3100
,  // measure 32
1001
0000
0100
0001
0010
0000
1001
0000
,  // measure 33
1000
0010
1000
0001
1000
0100
0010
0001
,  // measure 34
0100
0001
0010
0100
1000
0000
1010
0000
,  // measure 35
0001
1000
0100
0000
0010
0100
0010
0100
,  // measure 36
1000
0010
1000
0010
0100
0000
0101
0000
,  // measure 37
0001
0010
0100
0000
1000
0010
0100
0001
,  // measure 38
0000
0001
0010
0001
0100
0000
1001
0000
,  // measure 39
0010
0000
1000
0000
0100
0010
0000
0010
,  // measure 40
0100
1000
1001
0001
0100
0010
0100
0001
,  // measure 41
1000
0100
0001
0100
0010
0001
0100
0010
,  // measure 42
1000
0001
0101
0100
1000
0100
0001
0010
,  // measure 43
0100
1000
0010
0000
0100
0001
0010
0001
,  // measure 44
0100
1000
0100
1000
0100
0010
1000
0100
,  // measure 45
0010
0100
0010
0001
0010
0100
1000
0010
,  // measure 46
0000
0010
1000
0100
0010
0000
0001
0000
,  // measure 47
1001
0000
0110
0110
0000
1001
1001
0000
,  // measure 48
1000
0000
0100
0000
0110
0000
0010
0001
,  // measure 49
0100
0001
0010
0000
0110
0000
0100
1000
,  // measure 50
0001
1000
0100
0000
0110
0000
0010
0002
,  // measure 51
0000
0000
0100
0100
0000
0100
0103
0000
,  // measure 52
0010
0000
1000
0000
1100
0000
0010
0001
,  // measure 53
0100
1000
0100
0000
0101
0000
0001
0010
,  // measure 54
0100
1000
0010
0000
1010
0000
1000
0200
,  // measure 55
0000
0000
0010
0010
0000
0010
0310
0000
,  // measure 56
0001
0000
1000
0000
1010
0000
0100
0001
,  // measure 57
0010
0100
1000
0000
0101
0000
0010
1000
,  // measure 58
0100
0010
0001
0000
1100
0000
0001
0020
,  // measure 59
0000
0000
0100
0100
0000
0100
0130
0000
,  // measure 60
1000
0000
0001
0000
0110
0000
1000
0001
,  // measure 61
0100
1000
0100
0000
1001
0000
0010
1000
,  // measure 62
0100
0010
0100
0000
1001
0000
0001
0200
,  // measure 63
0000
0000
0010
0010
0000
0010
0310
0000
,  // measure 64
1000
0001
1000
0001
1000
0001
0100
1000
,  // measure 65
0100
0001
1000
0001
1000
0001
1000
0100
,  // measure 66
0001
0100
0001
0100
1000
0001
1000
0001
,  // measure 67
0100
1000
0200
0000
0302
0000
2003
0000
,  // measure 68
3001
0010
0001
0010
1000
0010
1000
0010
,  // measure 69
0001
1000
0010
0001
0010
0001
0010
1000
,  // measure 70
0010
1000
0001
0010
1000
0010
0001
1000
,  // measure 71
0001
0000
0100
0010
0000
0010
0100
0000
,  // measure 72
0001
0002
0000
0003
1000
0100
0010
0001
,  // measure 73
0000
1001
0000
2000
0010
3020
0100
0130
,  // measure 74
0001
0010
0011
0000
0001
1000
0100
0010
,  // measure 75
0000
0020
0001
0032
1000
1003
0100
0010
,  // measure 76
0001
0000
0100
0010
1000
0000
1001
0000
,  // measure 77
0001
0100
0001
0010
0100
1000
0010
1000
,  // measure 78
0100
0010
0001
0000
1001
0000
1100
0000
,  // measure 79
0010
0001
0100
0000
0100
0001
1000
0001
,  // measure 80
0100
0010
0100
0001
0010
0000
0110
0000
,  // measure 81
0100
1000
0010
0000
0010
1000
0100
1000
,  // measure 82
0000
1000
0001
0000
0010
0000
0100
0000
,  // measure 83
1000
0000
0001
0000
1001
1001
0000
1001
,  // measure 84
1001
1000
0100
0001
0100
1000
0100
0001
,  // measure 85
1000
0001
0100
1000
0100
0001
0100
1000
,  // measure 86
0001
0100
1000
0100
0001
0000
1001
0000
,  // measure 87
1000
0001
1000
0000
0001
1000
0001
0000
,  // measure 88
1000
0010
0001
0010
1000
0010
0001
1000
,  // measure 89
0001
0010
1000
0001
0010
1000
0010
0001
,  // measure 90
0010
1000
0001
1000
0010
0001
1000
0000
,  // measure 91
1001
0000
0010
0010
0000
0100
0100
0000
,  // measure 92
1001
0000
0000
0000
;
