#TITLE:Vancouver Beatdown;
#SUBTITLE:;
#ARTIST:Zomboy;
#TITLETRANSLIT:;
#SUBTITLETRANSLIT:;
#ARTISTTRANSLIT:;
#GENRE:;
#CREDIT:;
#MUSIC:Vancouver Beatdown.mp3;
#BANNER:;
#BACKGROUND:;
#CDTITLE:;
#SAMPLESTART:45.994;
#SAMPLELENGTH:15.000;
#SELECTABLE:YES;
#OFFSET:-0.994;
#BPMS:0.000=128.000;
#STOPS:;
#BGCHANGES:;
#FGCHANGES:;

//--------------- dance-single - ----------------
#NOTES:
     dance-single:
     Shortysnmn2010:
     Beginner:
     1:
     0.103447,0.158048,0,0.081363,0,89,89,0,10,0,0,0.103447,0.158048,0,0.081363,0,89,89,0,10,0,0:
0000
0000
0000
0000
,
0000
0000
0000
0000
,
0000
0000
0000
0000
,
0000
0000
0000
0000
,
0002
0000
0003
0100
,
0100
0000
0000
0001
,
0001
0000
0000
0000
,
0010
0000
0000
0000
,
0200
0000
0300
1000
,
1000
0000
0010
0000
,
1000
0000
0000
0000
,
0001
0000
0010
0000
,
0001
0000
0000
0000
,
0100
0000
0010
0000
,
0100
0000
0000
0000
,
0001
0000
1000
1000
,
2000
0000
3000
0100
,
0100
0000
0010
0000
,
0100
0000
0000
0000
,
0010
0000
0001
0000
,
0010
0000
0000
0000
,
0100
0000
1000
0000
,
0100
0000
0000
0000
,
1000
0000
0001
0000
,
1000
0000
0000
0000
,
0001
0000
0010
0000
,
0001
0000
0000
0000
,
0100
0000
0001
0000
,
0100
0000
0000
0000
,
0010
0000
0000
0000
,
2000
0000
0000
3000
,
0002
0000
0000
0003
,
1000
0000
0000
0000
,
0010
0000
0010
0000
,
0010
0000
0000
0000
,
0100
0000
0100
0000
,
0100
0000
0000
0000
,
0001
0000
0001
0000
,
0001
0000
0000
0000
,
1000
0000
0000
0000
,
0200
0000
0000
0300
,
1000
0000
0001
0000
,
2000
0000
0000
3000
,
0010
0000
0100
0000
,
0020
0000
0000
0030
,
1000
0000
0001
0000
,
1000
0000
1000
0000
,
0000
0000
0001
0001
,
0002
0000
0000
0003
,
0010
0000
0001
0000
,
1000
0000
0000
0000
,
0100
0000
0000
0000
,
1000
0000
0000
0000
,
0010
0000
0100
0000
,
0001
0000
0000
0000
,
1000
0000
0000
0000
,
0001
0000
0000
0000
,
0010
0000
0100
0000
,
1000
0000
0000
0000
,
0010
0000
0000
0100
,
0100
0000
0000
0000
,
0001
0000
0000
0010
,
0010
0000
0000
0000
,
0100
0000
0200
0000
,
0000
0000
0000
0300
;

//--------------- dance-single - ----------------
#NOTES:
     dance-single:
     Shortysnmn2010:
     Easy:
     3:
     0.18481,0.263413,0.06509,0.081363,0,159,151,8,10,0,0,0.18481,0.263413,0.06509,0.081363,0,159,151,8,10,0,0:
0000
0000
0000
0000
,
0000
0000
0000
0000
,
0000
0000
0000
0000
,
0000
0000
0000
0000
,
2000
0000
3000
0001
,
0001
0000
0010
0000
,
0001
0000
1000
0000
,
0010
0000
0000
0000
,
0100
0001
0100
0001
,
1000
0000
0001
0000
,
0010
0100
1000
0100
,
0010
0000
0100
0000
,
0010
0001
1000
0010
,
1000
0000
0010
0000
,
0010
0100
0001
0100
,
0010
0000
1001
1001
,
1000
0001
1000
0001
,
0100
0000
0010
0000
,
0100
0010
0100
0010
,
0100
0000
0001
0000
,
1000
0100
0010
0100
,
1000
0000
0010
0000
,
0100
0001
1000
0001
,
0020
0030
0110
0110
,
0100
0010
0010
0100
,
0010
0000
0100
0000
,
2000
3000
0002
0003
,
0100
0010
0100
0000
,
0001
0010
0010
0000
,
0001
0100
0100
0000
,
0010
0000
0000
0010
0000
0000
0000
0020
,
0000
0000
0030
0000
,
1000
0000
0100
0000
,
0010
0000
0001
1001
,
1000
0000
0001
0000
,
0010
0000
0001
0000
,
1000
0000
0001
0000
,
0100
0000
1000
1100
,
0100
0000
0001
0000
,
0000
1000
0100
1000
,
0001
0000
0010
0000
,
0001
0000
1000
1100
,
0100
0000
0010
0000
,
0100
0000
1000
0000
,
0010
0000
0100
0000
,
0001
0000
1000
1001
,
0001
0000
1000
0000
,
0100
0000
0010
0100
,
1000
0000
0010
0000
,
0100
0000
0001
0010
,
0001
0000
0100
0000
,
0010
0000
1000
0100
,
1000
0000
0001
0000
,
1000
0000
0010
0100
,
0010
0000
1000
0000
,
0100
0000
0001
0100
,
2000
0000
3000
0001
,
1000
0000
0010
0000
,
0200
0000
0300
0010
,
0100
0000
0001
0000
,
0020
0000
0030
0001
,
0010
0000
0001
0000
,
0200
0000
0300
0010
,
0100
0000
0020
0000
,
0000
0000
0000
0030
;

//--------------- dance-single - ----------------
#NOTES:
     dance-single:
     Shortysnmn2010:
     Medium:
     5:
     0.306855,0.342436,0.333588,0.227816,0,264,223,41,28,2,0,0.306855,0.342436,0.333588,0.227816,0,264,223,41,28,2,0:
0000
0000
0000
0000
,
0000
0000
0000
0000
,
0000
0000
0000
0000
,
0000
0000
0000
0000
,
0020
0000
0000
0000
0030
0000
0001
1000
,
0001
0100
0110
0000
,
1000
1100
0001
0011
,
1000
0000
0100
1000
0002
0000
0003
0000
,
0200
1000
0010
0301
,
1000
0100
0000
0100
1000
0000
0010
0000
,
0200
0001
0010
1300
,
0100
0001
0100
0000
0001
0100
0001
0000
,
2000
0100
3002
0010
,
2003
0010
3100
0110
,
0002
0100
2003
0100
,
3001
0010
0110
1001
,
2000
0100
0010
3001
,
1000
0100
0000
0100
1000
0000
0100
0000
,
0020
1000
0100
0031
,
1000
0010
1000
0000
0010
1000
0010
0000
,
0200
0001
0320
1000
,
0230
1000
0301
0011
,
0020
0100
0032
0100
,
0013
0100
1100
1010
,
1000
0002
1000
0000
1003
0000
0010
0000
,
1000
0100
0010
0000
0001
0000
1001
0000
,
0001
0100
0001
0000
0010
0001
0010
0000
,
0200
0010
1300
1100
,
0001
2000
0001
0000
3001
0000
0010
0200
,
1000
0001
1300
0001
,
1001
0000
0000
0110
0000
0000
0000
1001
,
0000
0000
0000
0000
,
1000
0100
0010
0001
,
1000
0010
1000
0100
,
0020
0001
1000
0031
,
0200
1000
0001
1300
,
0100
0001
0010
0100
,
1000
0010
1000
1100
,
0110
0001
0101
0000
,
0000
1001
1100
1001
,
0001
0100
0010
1000
,
0001
0010
0100
1000
,
0020
1000
0001
1030
,
0200
0001
1000
0301
,
0100
1000
0010
0100
,
0001
1000
0001
0101
,
1001
0010
1010
0000
,
0000
0000
1100
1001
,
0101
0000
0010
0000
,
1000
0100
0010
0011
,
1001
0000
0010
0000
,
0001
0100
0010
1010
,
1100
0000
1000
0000
,
0010
1000
0100
0110
,
0011
0000
0001
0000
,
1000
0010
0001
0011
,
2020
3030
0100
0000
,
0001
0010
0100
0110
,
1100
0000
1000
0000
,
0010
1000
0001
0101
,
1100
0000
0100
0000
,
0001
0010
1000
1010
,
0011
0000
0001
0000
,
1000
0010
0220
0000
,
0000
0000
0330
0MM0
;

//--------------- dance-single - ----------------
#NOTES:
     dance-single:
     Shortysnmn2010:
     Hard:
     7:
     0.435873,0.474143,0.341725,0.260362,0.305111,375,333,42,32,16,0,0.435873,0.474143,0.341725,0.260362,0.305111,375,333,42,32,16,0:
0000
0000
0000
0000
,
0000
0000
0000
0000
,
0000
0000
0000
0000
,
0000
0000
0000
0000
,
2200
0000
0000
0000
0300
0000
3100
0010
,
0001
0000
1000
0020
0000
0000
0130
0000
,
0001
0000
0100
0001
0100
0000
0010
1000
,
0100
0001
0100
2000
0000
0000
3000
0000
,
2010
0000
0100
0000
3010
0000
0100
0001
,
0010
0000
0001
0000
0000
0000
1000
0000
0001
0000
0100
0000
1000
0000
0000
0100
,
0001
2000
0010
0000
0100
0000
3010
0100
,
0001
0000
0010
0000
0100
0000
0000
0000
0010
0000
0001
0000
0100
0000
0000
0010
,
0100
0001
0100
0001
1000
0000
1100
0000
,
1002
0000
0000
0000
0013
0000
0000
0000
0110
0000
0000
0000
0100
1000
0000
0000
,
1001
0000
0001
0010
0001
0100
0001
0000
,
1000
0100
2200
0000
00MM
0000
33MM
0000
,
0012
0000
0100
0000
0013
0000
0100
1000
,
0010
0000
1000
0000
0000
0000
0001
0000
0010
0000
0001
0000
0100
0000
0000
0010
,
0100
0002
0010
0000
0100
0000
0013
0100
,
1000
0010
1000
0000
0100
0010
0100
0000
,
1000
0001
1000
0001
0100
0000
0110
0000
,
1000
0000
0000
0000
1100
0000
0000
0000
0011
0000
0000
0000
0001
0100
0000
0000
,
0110
0000
0100
0001
0100
0001
1000
0200
,
0020
0000
M00M
M33M
,
0100
2000
0001
0000
0001
0000
3001
0010
,
0001
0100
0020
0000
0001
0000
0130
0000
,
0010
2000
0100
3000
0100
2000
0010
3000
,
1001
0000
0010
0001
0100
0000
0110
0000
,
0100
0002
0100
0000
0103
0000
0001
0020
,
0001
0001
0130
0110
,
1200
0000
0010
0020
0000
0030
0000
2000
,
0000
3300
0000
0000
MMMM
0000
MMMM
0000
,
1001
0000
0000
0001
0000
0001
0010
0000
0010
0001
0000
0001
,
1000
0000
1000
0100
0000
0100
1000
0000
1000
0020
0000
0000
,
0130
0000
0000
1010
0000
0000
1100
0000
0000
0010
0000
0010
,
0001
0000
0001
0100
0000
0100
1000
0000
1000
0100
0000
0100
,
0001
0000
0000
1001
0000
1000
0100
0000
0100
0001
0000
0001
,
1000
0000
1000
0010
0000
0010
0001
0000
0001
1000
0000
0000
,
0101
1000
0101
0010
,
0100
1100
1100
1001
,
0010
0000
0010
0001
0000
0001
0100
0000
0100
1000
0000
1000
,
0100
0000
0100
0010
0000
0010
1000
0000
1000
0200
0000
0000
,
0310
0000
0010
0100
0000
0100
1000
0000
1000
0010
0000
0010
,
0001
0000
0001
0010
0000
0010
0100
0000
0100
0001
0000
0000
,
1001
0000
1000
0100
0000
1000
0001
0000
0100
0001
0000
0001
,
0100
0000
0010
1000
0000
0100
1000
0000
0010
0100
0000
0000
,
1010
0000
0000
0001
0000
0000
1010
0000
0000
0100
0000
0100
,
0001
0000
0001
0010
0000
0010
0200
0000
0300
0200
0000
0300
,
1000
0000
0000
0000
0010
0000
0100
0000
0000
0001
0000
0000
0011
0000
0000
0000
,
0100
0000
0000
1000
0000
0000
0010
0000
0000
0110
0000
0000
1001
0000
0000
0001
,
1000
0000
0000
0100
0000
0000
0010
0000
0000
0001
0000
0000
0101
0000
0000
0000
,
0010
0000
0000
1000
0000
0000
0100
0000
0000
1100
0000
0000
0110
0000
0000
0100
,
1000
0000
0000
0001
0000
0000
0100
0000
0000
0010
0000
0000
1010
0000
0000
0000
,
1000
0000
0000
0100
0000
0000
0010
0000
0000
0011
0000
0000
1001
0000
0000
0001
,
0100
0000
0000
0010
0000
0000
1000
0000
0000
0100
0000
0000
1100
0000
0000
0000
,
0010
0000
0000
0001
0000
0000
1000
0000
0000
2002
0000
0000
3003
0000
0000
0000
,
0020
0000
0000
0000
0000
0000
0030
0000
0001
0000
0010
0001
0000
0000
0010
0000
,
0000
0000
0100
0000
0000
0100
0000
0000
1000
0000
0010
1000
0000
0000
0100
0000
,
1000
0000
0000
0000
0010
0000
0100
0000
0010
0000
0100
0010
0000
0000
1000
0000
,
0000
0000
0100
0000
0000
0010
0000
0000
0001
0000
1000
0010
0000
0000
1000
0000
,
0200
0000
0000
0000
0000
0000
0300
0000
0010
0000
0100
0010
0000
0000
0001
0000
,
0000
0000
1000
0000
0000
0010
0000
0000
0001
0000
0010
0001
0000
0000
0010
0000
,
0100
0000
0000
0000
0001
0000
0100
0000
0001
0000
0010
0001
0000
0000
1000
0000
,
0000
0000
1100
0000
0000
1001
0000
0000
0202
0000
0000
0000
0000
0000
0000
0000
,
0000
0000
0000
0303
;

//--------------- dance-single - ----------------
#NOTES:
     dance-single:
     Shortysnmn2010:
     Challenge:
     9:
     0.381244,0.446785,0.292907,0.325452,0.333588,328,292,36,40,16,0,0.381244,0.446785,0.292907,0.325452,0.333588,328,292,36,40,16,0:
0000
0000
0000
0000
,
0000
0000
0000
0000
,
0000
0000
0000
0000
,
0000
0000
0000
0000
,
0220
0000
0000
0000
0330
0000
1000
0001
,
0100
0000
0000
0000
0000
0000
0000
0001
0100
0000
0000
0000
0010
0000
0000
0000
1000
0000
0000
0000
0000
0000
0000
0000
0110
0000
0000
0000
0000
0000
0000
0000
,
1000
0001
1000
0001
0100
0000
0001
1000
0001
1000
0100
0000
0000
0000
0020
0000
,
0001
0130
1000
1001
0000
0000
0000
0000
,
0102
0000
2003
0000
3200
0000
0010
0310
,
0001
0000
1000
0000
0110
0000
0001
0000
1000
0000
0100
0000
0010
0000
0000
0100
,
1000
0020
0100
0000
2030
0000
0100
3100
,
0010
0000
0001
0000
0100
0001
0100
0000
0010
0000
1000
0000
1001
0000
0000
0001
,
0020
0000
0001
0030
0002
0000
0100
0003
0200
0000
1000
0300
2000
0000
0000
0000
,
3100
0000
0001
0000
0011
0000
0000
0000
1100
0000
0000
0000
0010
0001
0000
0000
,
1002
0000
0100
0103
0010
2000
0100
0000
,
3001
0000
0010
0100
1000
0000
0000
0000
MMMM
0000
0000
0000
MMMM
0000
0000
0000
,
0012
0000
2003
0000
3020
0000
0100
0130
,
0001
0000
1000
0000
0110
0000
0001
0000
1000
0000
0100
0000
0010
0000
0000
0001
,
0010
0002
0100
0000
2003
0000
0100
3100
,
0010
0000
0001
0000
1000
0001
1000
0000
0001
0000
0100
0000
0010
0000
0000
0100
,
0002
0000
0010
0003
0020
0000
1000
0030
2000
0000
0010
3000
0020
0000
0000
0000
,
0031
0000
0000
0000
1001
0000
0000
0000
1010
0000
0000
0000
0100
0001
0000
0000
,
2010
0000
0100
3100
0010
0001
0100
0000
,
2002
3003
MMMM
MMMM
,
0010
0002
0100
0000
0203
0000
0010
0301
,
1000
0100
0001
0100
1000
0000
1010
0000
,
1000
0001
0200
0000
0301
1000
0200
0000
,
0310
0001
0010
0001
0010
0000
0100
0000
1000
0000
0000
0000
1001
0000
0000
0000
,
0010
2000
0100
0000
3200
0000
0010
1300
,
0002
1000
0103
0110
,
1001
0000
1001
0220
0000
0330
0000
2002
,
0000
0000
3003
0000
,
1001
0000
0000
1000
0100
1000
0001
0100
0001
1000
0010
1000
,
0001
0010
0001
1000
0100
1000
0010
0100
0010
1000
0000
0000
,
2001
0000
0000
0100
0000
0000
3100
0000
0000
0010
0001
0010
,
0100
1000
0100
1000
0010
1000
0001
0100
0001
1000
0100
0010
,
0002
0000
0000
1003
0100
0010
0001
1000
0001
0010
0100
1000
,
0001
1000
0010
0100
0001
1000
0001
0100
0010
1000
0000
0000
,
1001
0010
1001
0100
,
0100
0011
0011
1100
,
1001
0000
0000
0001
0100
0001
0010
0100
0010
0001
0100
0001
,
0010
1000
0010
0001
0100
0001
0010
0100
0010
0001
0000
0000
,
2001
0000
0000
0010
0000
0000
3010
0000
0000
1000
0100
1000
,
0010
0001
0010
1000
0100
1000
0010
0100
0010
1000
0000
0000
,
1001
0000
0000
1000
0100
0001
0100
0010
0100
1000
0010
0001
,
0010
0100
0010
1000
0001
1000
0100
0010
0100
1000
0000
0000
,
1001
0100
1010
0100
,
0100
0001
1001
1001
,
1000
0000
0000
0000
0001
0000
0010
0000
0000
0100
0000
0000
1000
0010
0000
0000
,
0100
0000
0000
0001
0000
0000
0011
0000
0000
0010
0000
0000
0100
0000
0000
1000
,
0010
0000
0000
0100
0000
0000
0001
0000
0000
0011
0000
0000
0100
1000
0000
0000
,
0010
0000
0000
0100
0000
0000
0001
0000
0000
1000
0000
0000
1100
0000
0000
0010
,
0001
0000
0000
0100
0000
0000
1000
0000
0000
0100
0000
0000
0001
0010
0000
0000
,
0100
0000
0000
1000
0000
0000
1010
0000
0000
0101
0000
0000
0001
0000
0000
0010
,
0001
0000
0000
1000
0000
0000
0010
0000
0000
1010
0000
0000
0001
1000
0000
0000
,
0010
0000
0000
0100
0000
0000
0001
0000
0020
0000
0000
0000
0030
0000
0000
0000
,
0100
0000
0000
0000
1000
0000
0000
0000
1010
0000
1000
0001
0000
0000
0101
0000
,
0000
0000
0010
0000
1000
0010
0000
0000
1000
0000
0100
1000
0000
0000
0010
0000
,
1000
0000
0000
0000
0100
0000
0010
0000
0001
0000
0100
0001
0000
0000
0011
0000
,
0000
0000
0100
0000
1000
0100
0000
0000
1000
0000
0010
1000
0000
0000
0001
0000
,
0010
0000
0000
0000
0100
0000
0000
0000
1100
0000
1000
0010
0000
0000
0110
0000
,
0000
0000
0001
0000
0010
0001
0000
0000
0100
0000
0001
0100
0000
0000
1000
0000
,
0100
0000
0000
0000
0001
0000
0010
0000
0100
0000
0010
1000
0000
0000
1010
0000
,
0000
0000
0010
0000
0001
0010
0000
0000
0002
0000
0000
0000
0000
0000
0000
0000
,
0000
0000
0000
0003
;
