#TITLE:The Darkness;
#SUBTITLE:;
#ARTIST:Primal Fear;
#TITLETRANSLIT:;
#SUBTITLETRANSLIT:;
#ARTISTTRANSLIT:;
#GENRE:;
#CREDIT:;
#BANNER:;
#BACKGROUND:;
#LYRICSPATH:;
#CDTITLE:;
#MUSIC:The Darkness.mp3;
#OFFSET:-0.039000;
#SAMPLESTART:59.132000;
#SAMPLELENGTH:10.667000;
#SELECTABLE:YES;
#BPMS:0.000000=124.999992
,112.000000=180.009995
,304.000000=90.000000
;
#STOPS:
;
#BGCHANGES:;
#KEYSOUNDS:;
#ATTACKS:;

//---------------dance-single - Shortysnmn2010----------------
#NOTES:
     dance-single:
     Shortysnmn2010:
     Beginner:
     1:
     0.106713,0.187953,0.056225,0.072290,0.000000,93.000000,86.000000,7.000000,9.000000,0.000000,0.000000,0.106713,0.187953,0.056225,0.072290,0.000000,93.000000,86.000000,7.000000,9.000000,0.000000,0.000000:
0000
0000
0000
0000
,
0000
0000
0000
0000
,
0000
0000
0000
0000
,
0000
0000
0000
0000
,
1001
0000
0000
0000
,
0110
0000
0000
0000
,
1001
0000
0000
0000
0000
0000
0000
1001
,
0000
0000
0000
0000
,
1000
0000
0001
0000
,
1000
0000
0000
0000
,
0220
0000
0330
0000
,
0001
0000
0000
1000
,
1000
0000
0000
0001
,
0001
0000
0000
0020
,
0000
0030
0000
0000
,
0100
0000
0000
1000
,
1000
0000
0000
0010
,
0010
0000
0000
0200
,
0000
0300
0000
0000
,
0001
0000
0000
0000
,
0001
0000
1000
0000
,
0100
0000
0000
0000
,
0100
0000
1000
0000
,
0001
0000
0000
0100
,
0100
0000
0000
0010
,
0010
0000
0000
2000
,
0000
3000
0000
0000
,
0001
0000
0010
0000
,
0100
0000
0000
0000
,
1000
0000
0000
0000
,
0200
0000
0000
0000
,
0000
0000
0300
0000
,
0010
0000
0000
0000
,
0001
0000
0000
0000
,
0100
0000
0000
0000
,
0010
0000
0000
0000
,
0100
0000
0000
0000
,
0001
0000
0000
0000
,
1000
0000
0000
0000
,
0100
0000
0000
0000
,
0110
0000
0000
0000
,
0001
0000
0000
0000
,
1000
0000
0000
0000
,
0001
0000
0000
0000
,
0010
0000
0000
0000
,
0100
0000
0000
0000
,
0010
0000
0000
0000
,
0001
0000
0000
0000
,
1001
0000
0000
0000
,
0000
0000
0000
0000
,
0010
0000
0000
0000
,
0001
0000
0000
0000
,
0100
0000
0000
0000
,
0010
0000
0000
0000
,
0100
0000
0000
0000
,
0010
0000
0000
0000
,
1000
0000
0000
0000
,
0100
0000
0000
0000
,
0010
0000
0000
0000
,
0001
0000
0000
0000
,
1000
0000
0000
0001
,
0000
0000
0010
0000
,
0010
0000
0000
0001
,
0000
0000
1000
0000
,
1000
0000
0000
0001
,
0000
0000
1000
0000
,
2000
0000
0000
0000
,
0000
0000
3000
0000
,
0100
0000
0000
0010
,
0000
0000
0010
0000
,
0010
0000
0000
0001
,
0000
0000
0100
0000
,
0100
0000
0000
0001
,
0000
0000
0001
0000
,
0020
0000
0000
0000
,
0000
0000
0030
0000
,
0100
0000
0000
0000
,
2000
0000
0000
0000
,
3000
0000
0000
0000
;

//---------------dance-single - Shortysnmn2010----------------
#NOTES:
     dance-single:
     Shortysnmn2010:
     Easy:
     3:
     0.164086,0.249801,0.112451,0.120483,0.000000,143.000000,129.000000,14.000000,15.000000,0.000000,0.000000,0.164086,0.249801,0.112451,0.120483,0.000000,143.000000,129.000000,14.000000,15.000000,0.000000,0.000000:
0000
0000
0000
0000
,
0000
0000
0000
0000
,
0000
0000
0000
0000
,
0000
0000
0000
0000
,
0110
0000
0000
0001
,
1001
0000
0000
0010
,
0110
0000
0000
0000
0000
0000
0100
2000
,
0000
0000
3000
0010
,
1000
0001
0010
0100
,
2000
0000
3000
0000
,
2002
0000
3003
0000
,
0110
0000
0000
1000
,
1100
0000
0000
0001
,
0011
0000
0000
0000
0000
0000
0100
0010
,
0000
0100
0001
0010
,
0001
0000
0000
0010
,
1001
0000
0000
1000
,
0110
0000
0000
0000
0000
0000
0001
1000
,
0000
0100
1000
0100
,
0020
0000
0030
0000
,
0002
0003
2000
3000
,
0020
0000
0030
0000
,
2000
3000
0002
0003
,
1000
0000
0010
1000
,
0100
0000
0100
1000
,
0010
0000
0000
0000
0100
0000
0001
0020
,
0000
0000
0000
0000
0000
0030
0000
0000
,
0001
0000
1000
0000
,
0001
0000
0000
0000
,
1000
0000
0000
0000
0000
0000
0000
2002
,
0000
0000
0000
0000
,
0000
3003
0000
0000
,
1000
0000
0000
0000
,
0001
0000
0000
0000
0000
0000
0000
0010
,
0100
0000
0000
0000
,
1000
0000
0000
0000
0000
0000
0000
0010
,
1000
0000
0000
0000
,
0001
0000
0000
0000
0000
0000
0000
0010
,
0001
0000
0000
0000
,
0100
0000
0000
0000
0000
0000
0000
0010
,
0100
0000
0000
0000
,
0001
0000
0000
0000
0000
0000
0000
1000
,
0100
0000
0000
0000
,
1000
0000
0000
0000
0000
0000
0000
0010
,
1000
0000
0000
0000
,
0100
0000
0000
0000
0000
0000
0000
0010
,
0100
0000
0000
0000
,
0010
0000
0000
0000
0000
0000
0000
0001
,
0010
0000
0001
0000
,
0010
0000
0001
0000
,
1000
0000
0100
0000
,
1000
0000
0100
0000
,
1000
0000
0000
0000
,
0010
0000
0000
0000
0000
0000
0000
0100
,
0001
0000
0000
0000
,
0010
0000
0000
0000
0000
1001
0000
1001
,
0000
0000
0000
0000
,
1000
0000
0000
0000
0000
0000
0000
0001
,
1000
0000
0000
0000
,
0100
0000
0000
0000
0000
0110
0000
0110
,
0000
0000
0000
0001
,
0000
0000
1000
0000
,
0010
0000
0000
1000
,
0000
0000
0100
0000
,
0010
0000
0000
0100
,
0000
0000
0010
0000
,
0001
0000
0010
0000
,
0100
0000
1000
0000
,
0001
0000
0000
0100
,
0000
0000
0010
0000
,
0100
0000
0000
0001
,
0000
0000
0010
0000
,
0100
0000
0000
0010
,
0000
0000
0001
0000
,
1000
0000
0010
0000
,
0100
0000
0001
0000
,
2000
3000
0100
1000
,
0002
0000
0000
0003
;

//---------------dance-single - Shortysnmn2010----------------
#NOTES:
     dance-single:
     Shortysnmn2010:
     Medium:
     5:
     0.348827,0.404622,0.385545,0.216869,0.000000,304.000000,256.000000,48.000000,27.000000,0.000000,0.000000,0.348827,0.404622,0.385545,0.216869,0.000000,304.000000,256.000000,48.000000,27.000000,0.000000,0.000000:
0000
0000
0000
0000
,
0000
0000
0000
0000
,
0000
0000
0000
0000
,
0000
0000
0000
0000
,
0110
0000
0000
0100
0001
0000
0010
0000
,
0110
0000
0000
0100
1000
0000
0010
0000
,
0110
0000
0000
0100
0001
0000
0010
0200
,
0000
1000
0010
1300
,
0001
0100
0010
0100
,
0220
0000
0330
0000
,
2002
0000
3003
0000
,
1001
0000
0000
1000
0100
0000
0010
0000
,
1001
0000
0000
0001
0100
0000
0010
0000
,
1001
0000
0000
1000
0010
0000
0100
0002
,
0000
0010
1000
0013
,
0110
0000
0000
0100
1000
0000
0010
0000
,
0110
0000
0000
0010
1000
0000
0100
0000
,
0110
0000
0000
0010
0001
0000
0100
0002
,
0000
0100
1000
0103
,
0020
0030
1001
0000
,
0200
0300
1010
0000
,
0002
0003
0110
0000
,
2000
0001
0001
3001
,
1001
0000
0000
0010
0001
0000
0100
0000
,
1001
0000
0000
0100
1000
0000
0010
0000
,
1001
0000
0000
0100
0001
0000
1000
0200
,
0000
0010
1000
0310
,
0001
1000
0001
0100
,
0220
0000
0000
0000
,
0000
0000
0000
0000
0330
0000
0000
2002
,
0000
0000
0000
0000
,
0000
3003
0000
0000
,
1000
0001
1000
0000
0100
0000
0010
0000
,
0100
0000
1000
0001
0000
0100
0000
0001
,
0000
1000
0010
0100
,
0001
0000
1000
0100
0000
0010
0000
0100
,
0000
1000
0100
0010
,
0100
0000
1000
0010
0000
0100
0000
0001
,
0000
0010
0001
0100
,
1000
0000
0100
0010
0000
1000
0000
1100
,
0000
1000
0001
0100
,
0010
0000
0100
0001
0000
0010
0000
0011
,
0000
0001
1000
0100
,
0010
0000
0100
1000
0000
0010
0000
1010
,
0000
1000
0100
0001
,
0100
0000
1000
0001
0000
0100
0000
0101
,
0000
0001
1000
0100
,
0001
0000
0100
1000
0000
0010
0000
1000
,
0010
1000
0100
0001
,
0101
0000
0200
1000
0000
0010
0000
1300
,
0000
0001
0100
0010
,
0110
0000
0100
0001
0000
0011
0000
0101
,
0000
0010
0010
1001
,
0010
0000
0200
0010
0000
1000
0000
0310
,
0000
0001
0001
0110
,
1000
0000
0001
0100
0000
0110
0000
1001
,
0000
2000
0100
3001
,
1001
0000
0002
0010
0000
1000
0000
0013
,
0000
0002
0100
1003
,
1001
0000
1000
0010
0000
0110
0000
0101
,
0000
1000
0000
0010
,
1010
0000
0100
0001
,
0010
0011
0000
1000
,
1100
0000
0010
0001
,
0100
0110
0000
0001
,
1001
0000
1000
1100
,
2000
0010
0001
0100
,
3002
0010
1000
0100
,
1003
1010
0000
0100
,
0101
0000
0010
1000
,
0100
0110
0000
0001
,
1100
0000
0010
0001
,
0100
1010
0000
1000
,
0101
0000
0010
1000
,
0200
0001
0010
1000
,
0320
1000
0100
0001
,
0130
0000
1000
0001
,
0220
0000
0330
0000
;

//---------------dance-single - Shortysnmn2010----------------
#NOTES:
     dance-single:
     Shortysnmn2010:
     Hard:
     8:
     0.467015,0.529121,0.345384,0.240966,0.016064,407.000000,364.000000,43.000000,30.000000,44.000000,0.000000,0.467015,0.529121,0.345384,0.240966,0.016064,407.000000,364.000000,43.000000,30.000000,44.000000,0.000000:
// measure 0
0000
0000
0000
0000
,  // measure 1
0000
0000
0000
0000
,  // measure 2
0000
0000
0000
0000
,  // measure 3
0000
0000
0000
0000
,  // measure 4
1001
0000
0000
0001
1000
0100
0010
0000
,  // measure 5
0110
0110
0000
0100
1000
0001
0100
0000
,  // measure 6
0010
0100
0010
0000
0000
0000
1000
0000
0001
0000
0010
0000
0100
0000
2000
0000
,  // measure 7
0000
0100
3001
0012
,  // measure 8
1000
0103
0110
1000
,  // measure 9
0002
0000
0003
0000
1000
0100
0010
0001
,  // measure 10
0020
0000
0030
0000
,  // measure 11
0110
0110
0000
0100
1000
0001
0100
0000
,  // measure 12
0101
0101
0000
0001
0010
0100
1000
0000
,  // measure 13
0010
1000
0010
0000
0000
0000
1000
0000
0001
0000
0100
0000
1000
0000
0200
0000
,  // measure 14
0000
0010
0001
0310
,  // measure 15
0110
0110
0000
0010
1000
0100
0010
0000
,  // measure 16
0110
0110
0000
0010
0001
0100
0010
0000
,  // measure 17
0100
0010
0100
0000
0000
0000
0001
0000
0010
0000
0100
0000
1000
0000
0002
0000
,  // measure 18
0000
0100
1000
0103
,  // measure 19
1010
0000
0010
1000
0100
0000
0100
1000
,  // measure 20
0010
0000
0010
0100
0001
0000
0011
0000
,  // measure 21
1100
0000
1000
0100
0010
0000
0010
0100
,  // measure 22
2000
0001
0002
3003
,  // measure 23
1001
1001
0000
0100
0010
0100
0010
0000
,  // measure 24
1001
1001
0000
0010
0100
0010
0100
0000
,  // measure 25
1000
0001
1000
0000
0000
0000
0001
0000
0010
0000
0001
0000
0010
0000
0002
0000
,  // measure 26
0000
0100
0010
1000
,  // measure 27
0103
0010
1000
0001
,  // measure 28
2002
00M0
0000
0M00
,  // measure 29
0000
0000
0MM0
0000
3003
0000
M000
0220
,  // measure 30
0000
000M
0330
0MM0
,  // measure 31
2002
0000
3003
0000
,  // measure 32
1000
0100
1000
0000
0010
0000
0100
0000
,  // measure 33
0001
0000
0010
0001
0000
0101
0000
1001
,  // measure 34
0000
1000
0010
0000
0100
0000
0001
0000
,  // measure 35
1000
0000
0100
0010
0000
0001
0010
0001
,  // measure 36
0000
1000
0010
0000
0100
0000
0001
0000
,  // measure 37
0010
0000
0001
0100
0000
0110
0000
1010
,  // measure 38
0000
1000
0100
0000
0010
0000
0100
0000
,  // measure 39
1000
0000
0010
0100
0000
0101
0000
1001
,  // measure 40
0000
1000
0010
0000
0001
0000
0010
0000
,  // measure 41
0100
0000
0001
0010
0000
0110
0000
1100
,  // measure 42
0000
1000
0001
0000
0100
0000
1000
0000
,  // measure 43
0100
0000
0001
0010
0000
0011
0000
0011
,  // measure 44
0000
0001
0010
0000
0100
0000
1000
0000
,  // measure 45
0010
0000
1000
0100
0000
0110
0000
0011
,  // measure 46
0000
0001
0010
0000
0100
0000
1000
0000
,  // measure 47
0001
0000
0100
0010
0000
1010
0000
1000
,  // measure 48
0001
0010
0100
0000
1000
0100
0001
0000
,  // measure 49
0100
0010
0001
0000
1000
0010
0100
0000
,  // measure 50
0001
1000
0001
1000
0010
0100
0010
0100
,  // measure 51
0001
0010
0001
0010
0100
1100
0000
1001
,  // measure 52
0000
0001
0100
0000
0010
0000
0100
0000
,  // measure 53
0001
0000
0010
0001
0000
0011
0000
1100
,  // measure 54
0000
0100
1000
0000
0010
0000
0100
0000
,  // measure 55
0001
0000
1000
0010
0000
1010
0000
1000
,  // measure 56
0001
0100
0010
0000
1000
0001
0010
0000
,  // measure 57
0100
0010
0001
0000
1000
0010
0100
0000
,  // measure 58
0001
1000
0001
1000
0100
0010
0100
0010
,  // measure 59
0001
0010
0001
0010
0100
1100
0000
1000
,  // measure 60
0010
1000
0200
0000
M3MM
0000
0010
0001
,  // measure 61
0200
0000
M0MM
0300
0001
0010
0001
0000
,  // measure 62
0010
0001
2000
0000
3MMM
0000
0100
0010
,  // measure 63
0200
0000
M3MM
0000
1000
0010
1000
0000
,  // measure 64
0010
1000
0020
0000
MM3M
0000
0100
0001
,  // measure 65
0200
0000
M3MM
0000
0010
1000
0010
0000
,  // measure 66
1000
0001
1000
0001
0010
0100
1000
0001
,  // measure 67
0100
0010
0100
0010
1000
0001
0010
0100
,  // measure 68
1000
0010
2000
0000
3MMM
0000
0100
1000
,  // measure 69
0200
0000
M3MM
0000
1000
0010
1000
0000
,  // measure 70
0100
0010
0200
0000
M3MM
0000
0010
0001
,  // measure 71
0020
0000
MM3M
0000
0001
0100
0001
0000
,  // measure 72
0010
0100
0020
0000
MM3M
0000
0100
1000
,  // measure 73
0200
0000
M3MM
0000
1000
0001
1000
0000
,  // measure 74
0001
0100
0010
1000
0001
0010
1000
0010
,  // measure 75
0001
1000
0010
0100
0001
0010
0100
1000
,  // measure 76
0020
0000
0100
0130
,  // measure 77
2002
0000
3003
0000
;

//---------------dance-single - Shortysnmn2010----------------
#NOTES:
     dance-single:
     Shortysnmn2010:
     Challenge:
     10:
     0.659787,0.964867,0.337352,0.112451,0.381529,575.000000,533.000000,42.000000,14.000000,48.000000,0.000000,0.659787,0.964867,0.337352,0.112451,0.381529,575.000000,533.000000,42.000000,14.000000,48.000000,0.000000:
0000
0000
0000
0000
,
0000
0000
0000
0000
,
0000
0000
0000
0000
,
0000
0000
0000
0000
,
1000
0001
1000
0000
0000
0000
0100
0000
0010
0000
0100
0000
1000
0000
0000
0000
,
0110
0110
0000
0001
0010
0001
0100
0000
,
0010
0100
0010
0000
0000
0000
1000
0000
0001
0000
0100
0000
0001
0000
0010
0000
,
0000
0000
0000
0000
0100
0000
1000
0000
0100
0000
1000
0000
0100
0000
0000
0010
0000
0000
0001
0000
0000
0000
0000
0000
1000
0000
0000
0000
0000
0000
0010
0000
0000
0000
0000
0000
0100
0000
0000
0000
0001
0000
0000
0000
0100
0000
0000
0000
,
0010
1000
0100
0010
0001
1000
0100
0010
0001
1000
0010
0100
,
0002
0000
0003
0000
0010
0110
1100
1001
,
0022
0000
0033
0000
,
1001
1001
0000
1000
0001
0100
0001
0000
,
0110
0110
0000
1000
0100
0010
0001
0000
,
1000
0010
1000
0000
0000
0000
0001
0000
0010
0000
0001
0000
0100
0000
0010
0000
,
0000
0000
0100
0000
0001
0000
1000
0100
1000
0000
0010
0000
0100
0000
0010
0000
,
1010
1001
0000
0010
0001
1000
0100
0000
,
0110
1100
0000
0001
0100
0010
1000
0000
,
0001
0010
0100
0000
0000
0000
1000
0000
0010
0000
1000
0000
0100
0000
1000
0000
,
0000
0000
0010
0000
0100
0000
0010
0000
1000
0000
0100
0000
0010
0001
1000
0000
,
0200
0000
0310
0001
0201
0000
0310
1000
,
1200
0000
0310
0001
2001
0000
3100
0010
,
0012
0000
0103
0010
2010
0000
3001
0100
,
0001
1000
0001
1000
0100
1000
0001
1000
0001
0100
0001
1000
0001
1000
0010
1000
,
0001
0011
0000
0100
1000
0010
1000
0000
,
0011
1100
0000
1000
0010
0100
0001
0000
,
0010
1000
0100
0000
0000
0000
0010
0000
0001
0000
0100
0000
0001
0000
2000
0000
,
0000
0010
3010
0100
0001
1000
1000
0100
,
1000
0100
1000
0001
0100
0001
1000
0010
1000
0001
0010
0001
,
1000
0001
0100
0001
1000
0001
0100
0001
,
1000
0010
0100
0010
1000
0010
0100
0004
,
0000
0000
0000
0000
,
4000
0000
0000
3003
,
1000
0100
1000
0010
0100
0010
1000
0100
,
0010
0000
0100
0000
1000
0000
0010
0000
0000
0000
0110
0000
0000
0000
0001
0100
,
0001
0010
0100
0010
0001
0100
0010
0100
,
0001
0000
0000
0000
1000
0000
0100
0000
0000
0000
0110
0000
0000
0000
1000
0100
,
1000
0001
0100
0001
1000
0100
1000
0001
,
0010
0000
0100
0000
1000
0000
0010
0000
0000
0000
0110
0000
0000
0000
0001
0100
,
0001
1000
0100
0001
0100
1000
0100
0010
,
0001
0000
0100
0010
0000
1010
0000
0001
,
1000
0000
0010
0000
1000
0000
0100
0000
0010
0000
0100
0000
1000
0000
0010
1000
,
0010
0100
0001
0010
0000
0011
0000
0100
,
1000
0000
0010
0000
1000
0000
0001
0000
0100
0000
0001
0000
0010
0000
0100
1000
,
0100
0010
0001
0100
0000
1001
0000
0010
,
1000
0000
0001
0000
0100
0000
0001
0000
0010
0000
0100
0000
0001
0000
0100
1000
,
0100
0000
0010
0000
0001
0000
0100
0000
0000
0000
1010
0000
0000
0000
0100
0001
,
0100
0010
1000
0001
0010
0001
1000
0100
,
1000
0000
0010
1000
0010
0000
1000
0000
0100
0000
1000
0100
1000
0000
0100
1000
,
0200
0010
1000
1300
,
0001
0000
0000
0000
0100
0000
0010
0000
0000
0000
1010
0000
0000
0000
1000
0001
,
1000
0001
1000
0001
0010
0100
0010
0100
0010
0100
1000
0100
1000
0100
1000
0100
,
1000
0001
1000
0001
1000
0001
0100
0001
0100
0001
0100
0000
0000
0000
0100
0000
,
0001
0000
1000
0000
0100
0000
0010
0000
0100
0000
1000
0000
0001
0000
0100
0010
,
0100
0000
0001
0000
0010
0000
0100
0000
0000
0000
0110
0000
0000
0000
1000
0100
,
1000
0000
0010
0000
0100
0000
0010
0000
1000
0000
0100
0000
0010
0000
0100
0010
,
0100
1000
0010
0100
0000
0101
0000
1000
,
0002
0010
1000
1003
,
0100
0000
0000
0000
0010
0000
0001
0000
0000
0000
1001
0000
0000
0000
0001
0010
,
0001
0010
0001
0010
0100
1000
0100
1000
0100
1000
0010
0100
0010
0100
0010
0100
,
0001
1000
0001
1000
0001
1000
0100
0010
0100
0010
0100
0000
0000
0000
1000
0000
,
0010
1000
1100
0000
MMMM
0000
0001
0010
,
0011
0000
MMMM
0000
0100
0010
0110
0000
,
1000
0001
0101
0000
MMMM
0000
0010
1000
,
1010
0000
MMMM
0000
0001
0010
0011
0000
,
1000
0100
1100
0000
MMMM
0000
0010
0100
,
0110
0000
MMMM
0000
1000
0001
1001
0000
,
0001
0100
0001
0100
0010
1000
0100
1000
,
0010
0100
0010
0100
0001
0010
0100
1000
,
0001
1000
0001
0000
1000
0000
0000
0000
MMMM
0000
0000
0000
0010
0001
0010
0000
,
0100
0000
0000
0000
MMMM
0000
0000
0000
1000
0100
1000
0000
0010
0000
0000
0000
,
0100
0001
0100
0000
0010
0000
0000
0000
MMMM
0000
0000
0000
0100
0001
1000
0000
,
0100
0000
0000
0000
MMMM
0000
0000
0000
0010
0001
1000
0000
0010
0000
0000
0000
,
1000
0001
0010
0000
0100
0000
0000
0000
MMMM
0000
0000
0000
0010
0001
1000
0000
,
0010
0000
0000
0000
MMMM
0000
0000
0000
0100
0001
1000
0000
0100
0000
0000
0000
,
0010
0001
1000
0010
0100
0001
1000
0100
,
1000
0001
1000
0001
1000
0001
1000
0001
0100
0010
0100
0010
0100
0010
0100
0010
,
2000
0000
0100
0001
,
0020
0000
3030
0000
;
