#TITLE:Stronger Than You;
#SUBTITLE:;
#ARTIST:Rebecca Sugar;
#TITLETRANSLIT:;
#SUBTITLETRANSLIT:;
#ARTISTTRANSLIT:;
#GENRE:;
#CREDIT:;
#BANNER:;
#BACKGROUND:;
#LYRICSPATH:;
#CDTITLE:;
#MUSIC:Stronger Than You.mp3;
#OFFSET:-0.030000;
#SAMPLESTART:39.242001;
#SAMPLELENGTH:19.572001;
#SELECTABLE:YES;
#BPMS:0.000000=98.000000
;
#STOPS:
;
#BGCHANGES:;
#KEYSOUNDS:;
#ATTACKS:;

//---------------dance-single - Shortysnmn2010----------------
#NOTES:
     dance-single:
     Shortysnmn2010:
     Beginner:
     1:
     0.082020,0.099893,0.007759,0.038793,0.000000,74.000000,73.000000,1.000000,5.000000,0.000000,0.000000,0.082020,0.099893,0.007759,0.038793,0.000000,74.000000,73.000000,1.000000,5.000000,0.000000,0.000000:
0000
0000
0000
0000
,
0000
0000
0000
0000
,
0000
0000
0000
0000
,
0000
0000
0000
0000
,
1000
0000
0001
0000
,
1000
0000
0100
0000
,
1000
0000
0001
0000
,
0010
0000
0000
0000
,
0100
0000
0100
0000
,
0100
0000
1000
0000
,
0001
0000
0001
0000
,
0010
0000
0000
0000
,
0100
0000
1000
0000
,
0001
0000
0000
0000
,
0010
0000
0001
0000
,
0100
0000
0000
0000
,
0010
0000
2000
0000
,
3000
0000
0001
0000
,
0010
0000
0002
0000
,
0003
0000
0100
0000
,
0010
0000
1000
0000
,
0010
0000
0100
0000
,
1000
0000
0100
0000
,
0001
0000
0000
0000
,
1000
0000
0001
0000
,
0010
0000
0000
0000
,
0100
0000
1000
0000
,
0100
0000
0000
0000
,
0010
0000
0010
0000
,
0010
0000
0000
0000
,
0100
0000
0200
0000
,
0300
0000
0000
0000
,
1000
0000
0000
0000
,
0001
0000
0000
0000
,
0010
0000
0000
0000
,
0100
0000
0000
0000
,
1000
0000
1000
0000
,
1000
0000
0001
0000
,
1000
0000
0001
0000
,
0001
0000
0000
0000
,
1000
0000
0010
0000
,
0100
0000
0010
0000
,
1000
0000
0001
0000
,
0010
0000
0000
0000
,
0100
0000
1000
0000
,
0001
0000
0010
0000
,
0100
0000
0000
0000
,
1001
0000
0000
0000
,
0100
0000
0200
0000
,
0300
0000
0010
0000
,
1000
0000
0002
0000
,
0000
0000
0003
0000
;

//---------------dance-single - Shortysnmn2010----------------
#NOTES:
     dance-single:
     Shortysnmn2010:
     Easy:
     3:
     0.133006,0.159441,0.015517,0.100863,0.000000,120.000000,118.000000,2.000000,13.000000,0.000000,0.000000,0.133006,0.159441,0.015517,0.100863,0.000000,120.000000,118.000000,2.000000,13.000000,0.000000,0.000000:
0000
0000
0000
0000
,
0000
0000
0000
0000
,
0000
0000
0000
0000
,
0000
0000
0000
0000
,
1000
0000
0001
0000
,
0010
0000
0100
0100
,
0100
0000
0010
0000
,
0001
0000
0000
0000
,
1000
0000
0010
0000
,
1000
0100
1000
0000
,
0001
0000
0100
0000
,
0002
0003
0002
0003
,
0010
0000
0100
0000
,
0010
0000
0001
0000
,
0100
0000
0010
0000
,
0100
0100
0100
0100
,
0010
0000
0000
0000
1000
0000
0000
1000
,
0000
0000
1000
0000
0100
0000
0000
0100
,
0000
0000
0100
0000
0010
0000
0000
0010
,
0000
0001
0000
0001
,
1000
0000
0000
0000
0010
0000
0000
0010
,
0000
0000
0010
0000
1000
0000
0000
1000
,
0000
0000
1000
0000
0001
0000
0000
0001
,
0000
0010
0000
0100
,
0100
0000
1000
0010
,
1000
0000
0001
0100
,
0001
0000
0000
0000
1000
0000
0000
0001
,
0000
0000
0010
0000
,
0100
0000
0000
0000
1000
0000
0000
0100
,
0000
0000
1000
0000
0010
0000
0000
0100
,
0000
0000
0001
0000
1000
0000
0000
2002
,
0000
0000
0000
3003
0000
0000
0000
0000
,
1000
0000
0000
2000
0000
3000
0000
0000
,
0001
0000
0022
0033
,
0100
1000
0010
0000
,
0100
0001
0010
0000
,
0001
0000
1000
0001
,
1000
0000
0001
0010
,
0001
0000
1000
0100
,
1000
0000
0000
0000
,
0020
0030
2000
3000
,
0100
0010
0200
0300
,
0020
0030
0002
0003
,
1000
0001
1000
0001
,
0100
0000
0010
0100
,
0001
0000
0001
0100
,
0010
0000
0010
1000
,
0100
0000
0000
0000
,
1000
0000
0000
0000
0010
0000
0000
0010
,
0000
0000
0100
0000
0001
0000
0000
0001
,
0000
0000
1000
0000
0100
0000
0000
0200
,
0000
0000
0000
0300
0000
0000
0000
0000
;

//---------------dance-single - Shortysnmn2010----------------
#NOTES:
     dance-single:
     Shortysnmn2010:
     Medium:
     5:
     0.234977,0.279021,0.139656,0.124139,0.000000,212.000000,194.000000,18.000000,16.000000,0.000000,0.000000,0.234977,0.279021,0.139656,0.124139,0.000000,212.000000,194.000000,18.000000,16.000000,0.000000,0.000000:
0000
0000
0000
0000
,
0000
0000
0000
0000
,
0000
0000
0000
0000
,
0000
0000
0000
0000
,
2000
3100
0002
0103
,
2000
3010
0110
1001
,
0110
1000
0110
0001
,
0220
0000
0330
0000
,
0001
1000
0010
1000
0001
0000
0000
0000
,
0100
0010
0001
0010
0100
0000
0000
0000
,
0001
1000
0100
1000
0010
0000
0000
1000
,
0001
0010
1000
0010
,
0001
0000
0010
0000
0001
0100
0001
0000
,
0010
0000
0100
0000
1000
0100
1000
0000
,
0010
0000
1000
0000
0001
1000
0001
0000
,
1000
1000
1000
0000
,
0001
0000
0010
0001
0100
0000
0000
0110
,
0000
0000
1000
0001
0010
0000
0000
0110
,
0000
0000
0001
1000
0100
0000
0000
0110
,
0000
0000
0001
1000
,
0010
0000
1000
0100
1000
0000
0000
0101
,
0000
0000
0001
0010
0001
0000
0000
1100
,
0000
0000
1000
0010
1000
0000
0000
0101
,
0000
0000
0010
1000
,
0200
0000
1300
0001
1000
0000
0000
0001
,
0010
0000
0001
0100
0001
0000
0000
0100
,
0010
0000
0100
0010
0100
0000
0000
0010
,
1000
0000
0100
0000
0010
0001
0100
0000
,
0010
0000
1000
0001
1000
0000
0001
0200
,
0000
0000
0310
0000
0001
0000
0000
1001
,
0000
0000
0000
0000
0010
0000
0000
0220
,
0000
0000
0330
0000
,
1000
0000
1000
0001
0000
0001
1000
0000
,
0001
0000
0001
1000
0000
1000
0001
0000
,
0010
0000
0100
0010
0000
0010
0100
0000
,
2000
3000
0002
0003
,
1000
0000
0100
1000
0100
0000
1000
0100
,
1000
0000
0010
0100
0010
0000
0100
0010
,
0100
0001
0100
0010
,
2000
3000
0200
0300
,
0010
0001
0010
0001
0010
0000
0000
0000
,
0001
1000
0001
1000
0001
0000
0000
0000
,
1000
0100
1000
0100
1000
0000
0000
0000
,
0010
0010
1000
1000
,
0100
0000
0010
0000
0001
1000
0100
0000
,
1000
0000
0001
0000
1000
0010
0100
0000
,
0001
1001
1000
1001
,
0002
0000
0003
0000
,
1000
0000
0100
0010
1000
0000
0000
0110
,
0000
0000
0001
0100
0010
0000
0000
1001
,
0000
0000
1000
0100
0010
0000
0000
2200
,
0000
0000
0000
3300
0000
0000
0000
0000
;

//---------------dance-single - Shortysnmn2010----------------
#NOTES:
     dance-single:
     Shortysnmn2010:
     Hard:
     7:
     0.372416,0.444863,0.279312,0.131897,0.197846,336.000000,300.000000,36.000000,17.000000,0.000000,0.000000,0.372416,0.444863,0.279312,0.131897,0.197846,336.000000,300.000000,36.000000,17.000000,0.000000,0.000000:
// measure 0
0000
0000
0000
0000
,  // measure 1
0000
0000
0000
0000
,  // measure 2
0000
0000
0000
0000
,  // measure 3
0000
0000
0000
0000
,  // measure 4
2002
3003
2200
3300
,  // measure 5
0022
0033
0110
1001
,  // measure 6
0220
0330
0202
0303
,  // measure 7
2002
0000
0000
0000
3003
0000
0000
0001
,  // measure 8
1000
0001
0100
0010
0100
0110
0000
0001
,  // measure 9
0010
0001
0100
0010
1000
1100
0000
0100
,  // measure 10
0010
0100
1000
0010
0100
0110
0000
0001
,  // measure 11
0010
0000
0000
0010
0001
0000
0000
0001
0100
0000
0010
0000
1000
0000
0001
0000
,  // measure 12
1000
0100
1000
0001
0010
0001
0110
0000
,  // measure 13
0001
1000
0100
1000
0010
0100
1001
0000
,  // measure 14
1000
0100
0010
0100
1000
0010
0100
0000
,  // measure 15
0001
0000
0000
0000
0000
0000
1000
0000
0000
0001
0000
0000
0000
0000
0000
1000
0000
0000
0000
0000
0000
0001
0000
0000
0000
0000
0000
1000
0000
0000
0000
0000
0000
0000
0000
0000
0001
0000
0000
0000
1000
0000
0000
0000
0001
0000
0000
0000
,  // measure 16
1000
0000
0000
0000
0010
0000
0100
0000
0001
0000
0000
0010
0000
0000
1001
0000
,  // measure 17
0000
0000
0000
0000
0100
0000
0001
0000
0010
0000
0000
0100
0000
0000
1001
0000
,  // measure 18
0000
0000
0000
0000
1000
0000
0010
0000
1000
0000
0000
0001
0000
0000
0110
0000
,  // measure 19
0000
0000
0000
0000
1000
0000
0001
0100
0001
0000
1000
0000
0001
0100
0001
0000
,  // measure 20
1000
0000
0000
0000
0100
0000
0010
0000
0001
0000
0000
0101
0000
0000
1001
0000
,  // measure 21
0000
0000
0000
0000
0010
0000
1000
0000
0100
0000
0000
1100
0000
0000
1001
0000
,  // measure 22
0000
0000
0000
0000
0010
0000
0001
0000
1000
0000
0000
1010
0000
0000
0110
0000
,  // measure 23
0000
0000
0000
0000
0001
0000
0000
1000
0100
0000
1000
0000
0100
1000
0100
0000
,  // measure 24
1000
0000
0000
0000
0001
0000
0010
0000
0001
0000
0010
0100
0000
0100
0010
0000
,  // measure 25
0000
0000
0000
0000
0100
0000
1000
0000
0010
0000
0000
0110
0000
0000
0110
0000
,  // measure 26
0000
0000
0000
0000
0100
0000
0001
0000
1000
0000
0000
1001
0000
0000
1001
0000
,  // measure 27
0000
0000
0000
0000
0001
0000
1000
0100
1000
0100
1000
0100
1000
0000
0010
0000
,  // measure 28
0100
0000
0000
0000
0001
0100
0000
0001
0100
0001
0100
0001
0100
0001
0100
0000
,  // measure 29
0000
0000
0000
0000
0020
0000
0000
0000
1030
0000
0001
1000
0000
1000
0001
0000
,  // measure 30
0000
0000
0000
0000
2000
0000
0000
0000
3100
0000
0010
0001
0000
0000
0011
0000
,  // measure 31
0000
0000
0000
0000
0001
0000
0000
1000
0000
0000
0001
0000
0000
0000
0000
0000
,  // measure 32
1000
0010
0100
0001
0000
0001
0011
0000
,  // measure 33
0100
0000
1000
0000
0010
0000
1000
0100
0000
0100
1000
0000
0010
0000
0100
0000
,  // measure 34
0001
1000
0100
1000
0010
0100
0001
0010
,  // measure 35
0001
0000
1000
0000
0001
0000
1000
0000
0100
1000
0000
1000
0100
0000
0100
0010
,  // measure 36
0001
0000
0100
0000
0001
0000
0010
0000
0100
0000
1000
0001
1000
0000
0000
0000
,  // measure 37
0001
0000
1000
0000
0100
0000
1000
0001
1000
0000
0001
0000
0010
0000
0001
0000
,  // measure 38
0100
0001
0010
1000
0010
0100
1000
0010
,  // measure 39
0200
0000
0000
0300
0000
0000
0000
0010
,  // measure 40
0001
1000
0010
0100
0001
1001
0000
1000
,  // measure 41
0010
0001
0010
1000
0001
1001
0000
1000
,  // measure 42
0100
1000
0001
0010
0100
0110
0000
1000
,  // measure 43
0010
0000
0000
0010
1000
0000
0000
1000
0010
0000
0100
0000
0001
0000
0010
0000
,  // measure 44
0001
1000
0100
0001
0100
0010
1001
0000
,  // measure 45
1000
0000
0000
0010
0000
0000
0001
0000
0000
0010
0000
0000
1000
0000
0000
0001
0000
0000
0100
0000
0000
0000
0010
0000
,  // measure 46
0100
0000
0000
0010
0000
0000
0100
0000
0000
0000
0010
0000
0100
0000
0000
0001
0000
0000
0100
0000
0000
0000
0001
0000
,  // measure 47
0100
0000
0010
1000
0000
0100
0000
0000
0000
0000
0000
0000
0010
0000
0000
0000
,  // measure 48
1100
0000
0000
0000
0010
0000
0001
0000
0100
0000
0000
0010
0000
0000
0110
0000
,  // measure 49
0000
0000
0000
0000
0100
0000
0001
0000
0010
0000
0000
0100
0000
0000
1100
0000
,  // measure 50
0000
0000
0000
0000
0010
0000
0001
0000
1000
0000
0000
0010
0000
0000
2002
0000
,  // measure 51
0000
0000
0000
0000
,  // measure 52
0000
3003
0000
0000
0000
0000
0000
0000
;
