#TITLE:Spider Dance;
#SUBTITLE:;
#ARTIST:GameChops;
#TITLETRANSLIT:;
#SUBTITLETRANSLIT:;
#ARTISTTRANSLIT:;
#GENRE:;
#CREDIT:;
#MUSIC:Spider Dance.mp3;
#BANNER:;
#BACKGROUND:;
#CDTITLE:;
#SAMPLESTART:22.607;
#SAMPLELENGTH:14.999;
#SELECTABLE:YES;
#OFFSET:-0.109;
#BPMS:0.000=128.012;
#STOPS:;
#BGCHANGES:;
#FGCHANGES:;

//--------------- dance-single - ----------------
#NOTES:
     dance-single:
     Shortysnmn2010:
     Beginner:
     1:
     0.109353,0.156157,0.038274,0.061238,0,100,95,5,8,0,0,0.109353,0.156157,0.038274,0.061238,0,100,95,5,8,0,0:
0000
0000
0000
0000
,
0000
0000
0000
0000
,
0000
0000
0000
0000
,
0000
0000
0000
0000
,
1000
0000
0000
0000
,
0100
0000
0000
0000
,
0001
0000
0001
0000
,
0001
0000
0000
0000
,
0100
0000
0000
0000
,
1000
0000
0000
0000
,
0010
0000
0010
0000
,
0010
0000
0220
0330
,
1000
0000
0000
0000
,
0001
0000
0000
0000
,
0100
0000
0010
0000
,
0100
0000
0010
0000
,
1000
0000
0000
0000
,
0001
0000
0000
0000
,
0010
0000
0000
0000
,
0100
0000
0000
0000
,
1000
0000
0010
0000
,
1000
0000
0000
0000
,
0001
0000
0100
0000
,
0001
0001
0001
0000
,
1000
0000
0000
0000
,
0010
0000
0000
0000
,
0001
0000
0000
0000
,
0010
0000
0100
0000
,
0010
0000
0000
0000
,
1000
0000
0000
0000
,
0100
0000
0001
0000
,
0100
0000
0000
0000
,
0010
0000
0000
0000
,
0001
0000
0000
0000
,
0100
0000
1000
0000
,
0200
0000
0300
0000
,
1001
0000
0000
0000
,
0010
0000
0000
0000
,
2000
0000
0000
0000
,
0001
0000
3000
0000
,
0001
0000
0010
0000
,
0001
0000
0000
0000
,
1000
0000
0100
0000
,
1000
0000
0000
0000
,
0020
0000
0000
0000
,
0100
0000
0030
0000
,
2000
0000
0000
0000
,
0001
0000
3000
0000
,
0200
0000
0000
0000
,
0010
0000
0300
0000
,
0002
0000
0000
0000
,
0100
0000
0103
0000
,
0001
0000
1000
0000
,
0001
0000
0000
0000
,
1000
0000
0100
0000
,
0010
0010
0010
0000
,
0100
0000
0100
0000
,
0100
0000
0110
0000
,
0010
0000
0010
0000
,
0010
0000
0100
0000
,
1000
0000
0000
0000
,
0010
0000
0000
0000
,
0100
0000
0001
0000
,
0100
0100
0100
0000
,
0001
0000
0001
0000
,
0001
0000
1001
0000
,
1000
0000
1000
0000
,
0001
0000
0010
0000
,
1001
0000
0000
0000
;

//--------------- dance-single - ----------------
#NOTES:
     dance-single:
     Shortysnmn2010:
     Easy:
     3:
     0.170591,0.208209,0.030619,0.206678,0,156,152,4,27,0,0,0.170591,0.208209,0.030619,0.206678,0,156,152,4,27,0,0:
0000
0000
0000
0000
,
0000
0000
0000
0000
,
0000
0000
0000
0000
,
0000
0000
0000
0000
,
1000
0000
0000
0000
,
0001
0000
0000
0000
,
0010
0010
0010
0010
,
1001
0000
0000
0000
,
0100
0000
0100
0000
,
1000
0000
1000
0000
,
0100
0010
0100
0010
,
0100
0000
0220
0330
,
0001
0001
0000
0000
,
1000
0000
0010
0000
,
1000
0001
1000
0001
,
0010
0000
0100
0000
,
0020
0030
0020
0030
,
0200
0300
0200
0300
,
2000
3000
0002
0003
,
0100
0010
0100
0010
,
1000
1000
0000
0000
,
0100
0000
0000
0000
,
0010
0001
0010
0001
,
0100
0000
0010
0000
,
2000
3000
2000
3000
,
0200
0300
0200
0300
,
0020
0030
0020
0030
,
0001
1000
0001
0100
,
0001
0000
1000
0000
,
1000
0000
1000
0000
,
0010
0000
1000
0000
,
1000
0000
1000
0000
,
0100
0000
0010
0000
,
0010
0000
0010
0000
,
0001
0000
0001
0000
,
1000
0001
1000
1001
,
0001
0000
0000
0000
,
0010
0000
0000
0000
,
0001
0000
0100
0000
,
1000
0000
0100
0000
,
0001
0000
1000
0000
,
0001
0000
0010
0000
,
0001
1000
0001
0000
,
1000
0000
0100
0000
,
0010
0010
0010
0001
,
0010
0000
0001
0000
,
0100
0100
0100
0001
,
0100
0000
0001
0000
,
1000
1000
1000
0100
,
1000
0000
0010
0000
,
0100
0100
0100
0010
,
0100
0000
0100
0000
,
0001
0000
0000
0000
,
1000
0000
0100
0000
,
0010
0001
0010
0001
,
1000
0000
0100
0000
,
2000
3000
0020
0030
,
0002
0003
0020
0030
,
2000
3000
0200
0300
,
0001
0100
1000
0100
,
0001
0000
0100
0000
,
1000
0000
0001
0000
,
1000
0010
1000
0010
,
0100
0000
0001
0000
,
0020
0030
0002
0003
,
0200
0300
2000
3000
,
0200
0300
0002
0003
,
2000
3000
0001
1000
,
1001
0000
0000
0000
;

//--------------- dance-single - ----------------
#NOTES:
     dance-single:
     Shortysnmn2010:
     Medium:
     6:
     0.36196,0.390392,0.107166,0.260261,0.237297,331,317,14,34,4,0,0.36196,0.390392,0.107166,0.260261,0.237297,331,317,14,34,4,0:
0000
0000
0000
0000
,
0000
0000
0000
0000
,
0000
0000
0000
0000
,
0000
0000
0000
0000
,
1000
0000
0100
2000
0000
3000
0001
0000
,
0010
0001
0010
0001
0010
0000
0100
0000
,
2000
3200
0320
0032
,
1003
0100
0010
0001
1000
0100
1000
0000
,
0001
0100
0010
1000
,
0001
0010
0100
1000
,
0001
0100
0010
1000
0001
0100
0010
1000
,
0002
0000
0003
MMMM
,
1000
0000
0001
0200
0000
0300
0010
0000
,
0100
0001
0100
0001
0100
0000
0010
0000
,
2000
3002
0203
0320
,
1030
0001
0100
0010
1000
0001
0100
0000
,
0001
0100
0000
0000
0000
0100
0000
0000
0000
0001
0000
0000
0000
0001
0000
0000
,
0000
0010
0000
0000
0000
0010
0000
0000
0000
0100
0000
0000
0000
0100
0000
0000
,
0000
1000
0000
0000
0000
1100
0000
0000
0000
0001
0000
0000
0000
0011
0000
0000
,
0001
0000
1000
0000
0010
0100
0010
0000
,
1000
0000
0001
0020
0000
0030
0001
0000
,
1000
0010
1000
0010
1000
0000
0100
0000
,
0020
0032
0203
2300
,
3100
0001
0100
0010
1000
0100
1000
0000
,
0001
1000
0000
0000
0000
1000
0000
0000
0000
0100
0000
0000
0000
0100
0000
0000
,
0000
0010
0000
0000
0000
0010
0000
0000
0000
0001
0000
0000
0000
0001
0000
0000
,
0000
0100
0000
0000
0000
0101
0000
0000
0000
0010
0000
0000
0000
1010
0000
0000
,
1000
0000
0001
0000
0010
0100
0010
0000
,
0001
0000
1000
0000
0001
0000
1000
0000
0010
0000
0000
0010
0000
0000
0000
0000
,
0100
0000
0000
0100
0000
0000
0000
0000
0001
0000
0000
0001
0000
0000
0000
0000
,
0010
0000
0100
0000
0010
0000
0100
0000
1000
0000
0000
1000
0000
0000
0000
0000
,
0010
0000
0000
0010
0000
0000
0000
0000
0100
0000
0000
0100
0000
0000
0000
0000
,
0001
0000
0010
0000
0100
0000
1000
0000
0001
0000
0000
0001
0000
0000
0000
0000
,
0100
0000
0000
0100
0000
0000
0000
0000
1000
0000
0000
1000
0000
0000
0000
0000
,
0100
0000
0001
0000
0100
0000
0010
0000
0100
0000
0000
0100
0000
0000
0000
0000
,
0010
0100
0010
0100
0010
0100
0010
0000
,
1000
0100
1000
0000
0100
1000
0100
0000
,
1000
0010
0100
0001
,
0010
0001
0010
0000
0001
0010
0001
0000
,
1000
0010
0100
0101
,
0001
0000
0010
0000
0001
0000
0010
0000
0100
0000
0000
0100
0000
0000
0000
0000
,
1000
0000
0000
1000
0000
0000
0000
0000
0010
0000
0000
0010
0000
0000
0000
0000
,
1000
0000
0001
0000
1000
0000
0001
0000
0100
0000
0000
0100
0000
0000
0000
0000
,
0010
1000
0010
1000
0010
1000
0010
0000
,
1000
0100
1000
0010
,
0100
0010
0100
0000
0220
0000
0330
0000
,
0001
0010
0001
0100
,
0001
0010
0001
0000
0022
0000
0033
0000
,
0001
1000
0100
0001
,
0100
0010
0100
0000
2200
0000
3300
0000
,
1000
0010
0100
0010
,
1000
0001
1000
0000
2002
0000
3003
0000
,
0001
0000
0100
0020
0000
0030
0100
0000
,
0001
0010
0001
0010
0001
0000
1000
0000
,
0020
0230
0320
0230
,
0301
1000
0001
1000
0001
0010
0100
0000
,
1000
0100
0000
0000
0000
0010
0000
0000
0000
0001
0000
0000
0000
1000
0000
0000
,
0000
0010
0000
0000
0000
0100
0000
0000
0000
0001
0000
0000
0000
0010
0000
0000
,
0000
0100
0000
0000
0000
0110
0000
0000
0000
1000
0000
0000
0000
1001
0000
0000
,
0001
0100
0001
0100
0001
0100
0001
0000
,
1000
0000
0100
2000
0000
3000
0010
0000
,
1000
0001
1000
0001
1000
0000
0100
0000
,
0020
0032
0023
0032
,
1003
0100
0010
1000
0010
0001
0010
0000
,
0100
1000
0000
0000
0000
0010
0000
0000
0000
0100
0000
0000
0000
1000
0000
0000
,
0000
0100
0000
0000
0000
0001
0000
0000
0000
0010
0000
0000
0000
0100
0000
0000
,
0000
1000
0000
0000
0000
0101
0000
0000
0000
0001
0000
0000
0000
1100
0000
0000
,
0010
0001
0010
0001
0010
0001
0100
0000
,
0110
0000
0000
0000
;

//--------------- dance-single - ----------------
#NOTES:
     dance-single:
     Shortysnmn2010:
     Hard:
     8:
     0.489903,0.470192,0.214333,0.260261,0.432493,448,420,28,34,0,0,0.489903,0.470192,0.214333,0.260261,0.432493,448,420,28,34,0,0:
0000
0000
0000
0000
,
0000
0000
0000
0000
,
0000
0000
0000
0000
,
0000
0000
0000
0000
,
1000
0000
0100
0000
0010
0000
0001
0000
0000
1000
0001
0000
1000
0000
0000
0000
,
0000
0001
1000
0000
0001
0000
0010
0000
0100
0000
1000
0100
0000
0100
1000
0000
,
0001
1000
0001
1000
,
0100
0010
0001
0010
0100
1000
0010
0000
,
1000
0010
0100
0001
1000
0100
0010
0001
,
1000
0010
0100
0001
1000
0100
0010
0001
,
2000
3002
2003
3002
,
0103
0010
0100
0010
1000
0000
1001
0000
,
0001
0000
0010
0000
0001
0000
0010
0000
0000
0100
1000
0000
0100
0000
0000
0000
,
0000
0010
0001
0000
1000
0000
0001
0000
1000
0000
0001
0100
0000
0100
0001
0000
,
2000
3002
2003
3002
,
0013
0100
0010
0100
1000
0010
0100
0000
,
0001
1000
0000
0000
0000
1100
0000
0000
0000
0001
0000
0000
0000
0011
0000
0000
,
0000
1000
0000
0000
0000
1010
0000
0000
0000
0001
0000
0000
0000
0101
0000
0000
,
0000
0010
0000
0000
0000
0110
0000
0000
0000
1000
0000
0000
0000
1001
0000
0000
,
0001
0010
0100
0010
0001
0100
0010
0000
,
0100
0000
0010
0000
0100
0000
0010
0000
0000
1000
0010
0000
1000
0000
0000
0000
,
0000
0100
1000
0000
0100
0000
0010
0000
0001
0000
0100
0010
0000
0010
0100
0000
,
0002
2003
3002
2003
,
3100
0010
0001
0010
0100
1000
0010
0000
,
1000
0001
0000
0000
0000
0101
0000
0000
0000
0010
0000
0000
0000
1010
0000
0000
,
0000
1000
0000
0000
0000
0110
0000
0000
0000
0001
0000
0000
0000
1100
0000
0000
,
0000
0010
0000
0000
0000
1001
0000
0000
0000
0100
0000
0000
0000
0011
0000
0000
,
0001
1000
0100
1000
0001
0010
1000
0000
,
0010
0000
0100
0000
1000
0000
0100
0000
0010
0000
0001
0020
0000
0000
0030
0000
,
0100
0000
0010
0002
0000
0000
0003
0000
0100
0000
0001
0010
0000
0010
0001
0000
,
0100
0000
0001
0000
1000
0000
0010
0000
1000
0000
0100
2000
0000
0000
3000
0000
,
0010
0000
1000
0200
0000
0000
0300
0000
1000
0000
0010
1000
0000
1000
0010
0000
,
0100
0000
0001
0000
1000
0000
0001
0000
0100
0000
0010
0200
0000
0000
0300
0000
,
0001
0000
0100
0020
0000
0000
0030
0000
0001
0000
0010
0100
0000
0100
0010
0000
,
1000
0000
0001
0000
1000
0000
0001
0000
1000
0100
0000
0100
0000
0000
1000
0000
,
0010
1000
0100
0010
0100
1000
1001
0000
,
0001
0000
0100
0000
0001
0000
0100
0010
0100
0000
0001
0000
0100
0000
0010
0000
,
1000
0100
1000
0010
0100
0001
0100
0000
,
0001
1000
0100
0001
1000
0010
0001
1000
,
0010
0001
1000
0100
0001
0010
0100
0000
,
1000
0000
0100
0000
0010
0000
0001
0000
0010
0000
0001
0020
0000
0000
0030
0000
,
0100
0000
0010
0002
0000
0000
0003
0000
0010
0000
0100
0010
0000
0010
0100
0000
,
1000
0000
0001
0000
0100
0000
0010
0000
0100
0001
0000
0001
0000
0000
1000
0000
,
0100
0010
0100
0001
0100
1000
1001
0000
,
0001
0000
1000
0001
0000
1000
0001
0000
0000
0000
1000
0100
0000
1000
0100
0000
,
0000
1000
0100
0000
0010
0000
0100
0020
0000
0000
0000
0000
0030
0000
0000
0000
,
1000
0000
0001
1000
0000
0001
1000
0000
0000
0000
0010
0100
0000
0010
0100
0000
,
0000
0000
0001
0000
0010
0001
0000
0001
0020
0000
0000
0000
0030
0000
0000
0000
,
0100
0000
1000
0100
0000
1000
0100
0000
0000
0000
0010
0001
0000
0010
0001
0000
,
0000
1000
0010
0000
0100
0000
0010
2000
0000
0000
0000
0000
3000
0000
0000
0000
,
0001
0000
0010
0001
0000
0010
0001
0000
0000
0000
0100
0010
0000
0100
0010
0000
,
1000
0000
1000
0000
0001
0010
0000
0010
0002
0000
0000
0000
0003
0000
0000
0000
,
1000
0000
0010
0000
0100
0000
0001
0000
0000
1000
0100
0000
1000
0000
0000
0000
,
0000
0001
0010
0000
0001
0000
1000
0000
0010
0000
1000
0100
0000
0100
1000
0000
,
0002
0203
0302
0203
,
0310
1000
0100
0010
0001
0100
0010
0000
,
0100
0001
0000
0000
0000
1100
0000
0000
0000
0010
0000
0000
0000
1001
0000
0000
,
0000
0100
0000
0000
0000
1010
0000
0000
0000
0001
0000
0000
0000
1100
0000
0000
,
0000
0010
0000
0000
0000
1001
0000
0000
0000
0100
0000
0000
0000
1010
0000
0000
,
0001
1000
0010
0001
0010
1000
0001
0000
,
1000
0000
0100
0000
1000
0000
0100
0000
0000
0010
0001
0000
0010
0000
0000
0000
,
0000
0001
0100
0000
0001
0000
1000
0000
0010
0000
1000
0100
0000
0100
0010
0000
,
0200
2300
3200
2300
,
3001
0010
0100
1000
0100
0001
0100
0000
,
1000
0010
0000
0000
0000
0110
0000
0000
0000
0100
0000
0000
0000
0101
0000
0000
,
0000
0001
0000
0000
0000
0011
0000
0000
0000
0010
0000
0000
0000
0110
0000
0000
,
0000
0100
0000
0000
0000
1100
0000
0000
0000
1000
0000
0000
0000
1010
0000
0000
,
0100
0001
0010
1000
0001
0100
1000
0000
,
2002
3003
0000
0000
;

//--------------- dance-single - ----------------
#NOTES:
     dance-single:
     Shortysnmn2010:
     Challenge:
     10:
     0.020777,0.040451,0,0,0.030619,19,19,0,0,0,0,0.020777,0.040451,0,0,0.030619,19,19,0,0,0,0:
0000
0000
0000
0000
,
0000
0000
0000
0000
,
0000
0000
0000
0000
,
0000
0000
0000
0000
,
0001
0000
0100
0000
0010
0000
1000
0000
0000
0001
1000
0000
0001
0010
0001
0010
,
0000
0100
1000
0100
0010
0001
0010
0100
1000
0001
0010
0001
0000
0100
0010
0100
,
0002
0000
0000
0003
2000
0000
0000
3000
0200
0000
0000
0300
0020
0000
0000
0030
,
0001
0100
1000
0100
0001
0100
1001
0000
,
1000
0100
0001
0100
1000
0001
0100
1000
,
0100
0001
1000
0010
0001
0010
1000
0001
,
0010
0100
0010
0100
0010
0100
0010
0100
,
1000
0001
1000
0001
1000
0001
1000
0001
1000
0000
0000
0000
0000
0000
0000
0000
,
0001
0000
0100
0000
0010
0000
1000
0000
0000
0100
1000
0000
0100
0010
0100
1000
,
0000
0001
0100
0010
0100
0001
1000
0010
0100
0001
0010
0100
0000
1000
0100
0010
,
0002
0000
1000
0003
0200
0000
0010
0300
2000
0000
0001
3000
0200
0000
1000
0300
,
0002
0000
0010
0003
2000
0000
0001
3000
2000
0000
0010
3000
0002
0000
0000
0003
,
0100
0010
1000
0010
0000
0100
0001
0100
0000
0010
1000
0100
0000
0010
0001
0100
,
0000
0001
1000
0001
0000
1000
0001
1000
0000
0001
0010
1000
0000
0001
0100
1000
,
0000
0001
0100
0010
0000
0100
0001
1000
0000
0100
0010
0001
0000
1000
0010
0100
,
0001
0000
0010
0000
0100
0000
1000
0000
1001
0000
0101
0000
0001
0100
0010
1000
,
0001
0000
0010
0000
0001
0000
0100
0000
0000
0010
0100
0000
0001
0100
0010
0100
,
0000
0001
0010
0100
0010
0001
0100
0010
0100
0001
1000
0100
0000
1000
0010
1000
,
0002
0000
0100
0003
0020
0000
0100
0030
0002
0000
0010
0003
0200
0000
1000
0300
,
0020
0000
1000
0030
0002
0000
0010
0003
0200
0000
1000
0300
0110
0000
0000
0000
,
0001
1000
0100
0010
0000
0100
1000
0001
0000
0010
0001
1000
0000
0010
0100
0001
,
0000
1000
0100
0001
0000
0100
1000
0001
0000
0100
0001
0010
0000
0001
1000
0010
,
0000
0100
0010
1000
0000
0100
0010
0001
0000
1000
0010
0100
0000
0001
0010
0100
,
1000
0000
0001
0000
0100
0000
0001
0000
0010
0000
0100
0000
1000
0001
0100
0001
,
1000
0000
0010
0000
0001
0000
0010
0000
0100
0000
0001
0200
0000
0000
0300
0000
,
1000
0000
0100
0002
0000
0000
0003
0000
0010
0000
0001
0100
0000
0010
0100
0010
,
0100
0000
0001
0000
0010
0000
0100
0000
1000
0000
0010
2000
0000
0000
3000
0000
,
0100
0000
1000
0020
0000
0000
0030
0000
0100
0000
0001
0010
0000
0001
0010
0001
,
0100
0000
0010
0000
0100
0000
0001
0000
0010
0000
0001
0020
0000
0000
0030
0000
,
0001
0000
0100
0002
0000
0000
0003
0000
0010
0000
0001
0100
0000
0010
0100
0010
,
0100
0000
0001
0000
0010
0000
0100
0000
1000
0010
0000
1010
0000
0000
1000
0010
,
1000
0001
0100
0000
0001
0000
0010
0000
0100
0000
1000
0000
1010
0000
0000
0000
,
0100
0000
0001
0000
0010
0000
0100
0010
0100
0000
1000
0000
0010
0000
0100
0000
,
0001
0100
0001
0000
0100
0001
0100
0000
0001
0010
0001
0010
0100
1000
0100
1000
,
0001
0100
0001
1000
0010
1000
0100
0010
0001
1000
0001
0010
0100
1000
0001
0100
,
1000
0100
0010
1000
0001
0010
0001
1000
0100
0001
0100
1000
0001
0000
0000
0000
,
1000
0000
0100
0000
1000
0000
0010
0000
1000
0000
0001
0200
0000
0000
0300
0000
,
0001
0000
1000
0020
0000
0000
0030
0000
1000
0000
0001
0100
0000
0100
0001
0100
,
0001
0000
0010
0000
0001
0000
1000
0000
0100
1000
0000
1001
0000
0000
0001
0010
,
0001
1000
0100
0000
1000
0000
0010
0000
0001
0000
0010
0000
1000
0000
0000
0000
,
0001
0000
0010
0001
0000
0010
0001
0000
0000
0000
1000
0100
0000
1000
0100
0000
,
0000
1000
0001
0000
0010
0000
0001
2000
0000
0000
3000
0000
0110
0000
0000
0000
,
0001
0000
0010
0100
0000
0100
0010
0000
0000
0000
0100
1000
0000
1000
0100
0000
,
0000
1000
0010
0000
0010
0100
0000
0100
0001
0000
1000
0000
1001
0000
0000
0000
,
0001
0000
0010
0100
0000
1000
0010
0000
0000
0000
0100
0001
0000
0010
0100
0000
,
0000
1000
0010
0000
1000
0000
0100
0020
0000
0000
0030
0000
1001
0000
0000
0000
,
1000
0000
0010
0100
0000
0001
0010
0000
0000
0000
0001
0100
0000
0010
0001
0000
,
0010
0000
0010
0000
1000
0001
0000
0001
1000
0000
0001
0000
1000
0001
1000
0001
,
1000
0000
0100
0000
0010
0000
0001
0000
0000
1000
0100
0000
1000
0010
0100
0001
,
0000
1000
0010
1000
0001
0100
1000
0100
0010
0100
0001
0010
0000
0100
1000
0100
,
0020
0000
0001
0030
0200
0000
0010
0300
2000
0000
0001
3000
0020
0000
1000
0030
,
0002
0000
0100
0003
2000
0000
0100
3000
0002
0000
0100
0003
2000
0000
0000
3000
,
0001
0100
0010
0100
0000
0001
0100
0001
0000
1000
0100
1000
0000
0010
0100
0010
,
0000
1000
0100
1000
0000
0001
0010
0100
0000
1000
0001
1000
0000
0010
1000
0001
,
0000
0100
0010
0100
0000
0001
0010
0100
0000
1000
0100
1000
0000
0010
0100
0001
,
1000
0000
0100
0000
0001
0000
0100
0000
1100
0000
1001
0000
0001
0100
0010
1000
,
0001
0000
1000
0000
0100
0000
1000
0000
0000
0010
1000
0000
0100
0010
0100
0010
,
0000
0001
0100
0010
0100
0001
1000
0100
0010
0100
1000
0001
0000
0001
1000
0010
,
2000
0000
0100
3000
0002
0000
1000
0003
0020
0000
0001
0030
0200
0000
0010
0300
,
0200
0000
0001
0300
0020
0000
1000
0030
0002
0000
0100
0003
1000
0000
0000
0000
,
0001
0100
0010
1000
0000
0100
0001
0100
0000
1000
0010
0100
0000
0001
0010
0001
,
0000
1000
0100
0001
0000
0100
1000
0100
0000
1000
0010
0001
0000
0010
0100
0010
,
0000
1000
0100
0010
0000
0001
0100
0001
0000
0010
0100
1000
0000
0001
0100
0010
,
1000
0000
0100
0000
0001
0000
0100
0000
1000
0000
0001
0000
0100
0010
0100
0010
,
1001
0000
0000
0000
;
