#TITLE:Sinking;
#SUBTITLE:;
#ARTIST:Moleman;
#TITLETRANSLIT:;
#SUBTITLETRANSLIT:;
#ARTISTTRANSLIT:;
#GENRE:;
#CREDIT:;
#MUSIC:Sinking.mp3;
#BANNER:;
#BACKGROUND:;
#CDTITLE:;
#SAMPLESTART:55.214;
#SAMPLELENGTH:11.036;
#SELECTABLE:YES;
#OFFSET:-0.034;
#BPMS:0.000=173.976
,128.000=86.988
,144.000=173.976
;
#STOPS:;
#BGCHANGES:;
#FGCHANGES:;

//--------------- dance-single - ----------------
#NOTES:
     dance-single:
     Shortysnmn2010:
     Beginner:
     1:
     0.11583,0.134611,0,0.03936,0,103,103,0,5,0,0,0.11583,0.134611,0,0.03936,0,103,103,0,5,0,0:
0000
0000
0000
0000
,
0000
0000
0000
0000
,
0000
0000
0000
0000
,
0000
0000
0000
0000
,
1000
0000
0000
0000
,
0001
0000
0000
0000
,
0010
0000
0000
0000
,
0001
0000
0000
0000
,
1000
0000
0000
0000
,
0010
0000
0000
0000
,
0100
0000
0000
0000
,
0001
0000
0000
0000
,
1000
0000
0000
0000
,
0001
0000
0000
0000
,
0100
0000
0000
0000
,
0010
0000
0000
0000
,
1000
0000
0000
0000
0000
1000
0000
0000
,
0000
0000
0000
0000
0000
0001
0000
0000
,
0001
0000
0000
0000
0000
0010
0000
0000
,
0000
0000
0000
0000
0000
0100
0000
0000
,
0100
0000
0000
0000
0000
1000
0000
0000
,
0000
0000
0000
0000
0000
0010
0000
0000
,
0010
0000
0000
0000
0000
1000
0000
0000
,
0000
0000
0000
0000
0000
0001
0000
0000
,
0001
0000
0000
0000
,
0010
0000
0000
0000
,
0100
0000
0000
0000
,
1000
0000
0000
0000
,
0010
0000
0000
0000
,
1000
0000
0000
0000
,
0100
0000
0000
0000
,
0001
0000
0000
0000
,
0200
0000
0300
0000
,
2000
0000
3000
0000
,
0020
0000
0030
0000
,
0002
0000
0003
0000
,
1000
0000
0001
0000
,
1000
0000
0000
0000
,
0010
0000
0100
0000
,
0001
0000
0000
0000
,
0010
0000
0100
0000
,
1000
0000
0000
0000
,
0001
0000
0000
0000
,
1000
0000
0000
0000
,
0001
0000
1000
0000
,
0100
0000
0000
0000
,
0001
0000
0100
0000
,
1000
0000
0000
0000
,
0010
0000
0100
0000
,
0010
0000
0000
0000
,
1000
0000
0000
0000
,
0001
0000
0000
0000
,
1000
0000
0100
0000
,
1000
0000
0000
0000
,
0010
0000
0000
0000
,
0100
0000
0000
0000
,
0001
0000
0010
0000
,
1000
0000
0000
0000
,
0001
0000
0000
0000
,
0100
0000
0000
0000
,
1000
0000
0010
0000
,
1000
0000
0000
0000
,
0001
0000
0100
0000
,
0001
0000
0000
0000
,
1000
0000
0000
0000
,
0001
0000
0000
0000
,
0010
0000
0000
0000
,
1000
0000
0000
0000
,
0001
0001
0000
0000
,
0100
0000
0000
0000
,
1000
1000
0000
0000
,
0010
0000
0000
0000
,
0100
0100
0000
0000
,
0001
0000
0000
0000
,
0010
0010
0000
0000
,
0100
0000
0000
0000
,
1000
0001
0000
0000
,
1000
0000
0000
0000
,
0001
1000
0000
0000
,
0001
0000
0000
0000
,
0010
0100
0000
0000
,
0010
0000
0000
0000
,
0100
0010
0000
0000
,
0100
0000
0000
0000
,
2000
0000
0000
0000
,
0000
0000
3000
0000
;

//--------------- dance-single - ----------------
#NOTES:
     dance-single:
     Shortysnmn2010:
     Easy:
     4:
     0.23391,0.372344,0.133823,0.015744,0.027552,208,191,17,2,0,0,0.23391,0.372344,0.133823,0.015744,0.027552,208,191,17,2,0,0:
0000
0000
0000
0000
,
0000
0000
0000
0000
,
0000
0000
0000
0000
,
0000
0000
0000
0000
,
0010
0000
0000
0000
0000
1000
0000
0000
,
0100
0000
0000
0000
0000
0010
0000
0000
,
0100
0000
0000
0000
0000
1000
0000
0000
,
0010
0000
0000
0000
0000
0100
0000
0000
,
0100
0000
0000
0000
0000
0001
0000
0000
,
0010
0000
0000
0000
0000
0001
0000
0000
,
1000
0000
0000
0000
0000
0100
0000
0000
,
0010
0000
0000
0000
0000
0100
0000
0000
,
0100
0000
0000
0000
0000
1000
0000
0000
,
0010
0000
0000
0000
0000
1000
0000
0000
,
0001
0000
0000
0000
0000
0010
0000
0000
,
0100
0000
0000
0000
0000
1000
0000
0000
,
1000
0000
0000
0000
0000
1001
0000
0000
,
0000
0000
0000
0000
0000
0010
0000
0000
,
0110
0000
0000
0000
0000
0001
0000
0000
,
0000
0000
0000
0000
0000
0010
0000
0000
,
1001
0000
0000
0000
0000
0100
0000
0000
,
0000
0000
0000
0000
0000
0001
0000
0000
,
1010
0000
0000
0000
0000
0100
0000
0000
,
0000
0000
0000
0000
0000
0001
0000
0000
,
1100
0000
0000
0000
0000
0010
0000
0000
,
0000
0000
0000
0000
0000
0001
0000
0000
,
0110
0000
0000
0000
0000
1000
0000
0000
,
0000
0000
0000
0000
0000
0100
0000
0000
,
0011
0000
0000
0000
0000
1000
0000
0000
,
0000
0000
0000
0000
0000
0010
0000
0000
,
0101
0000
0000
0000
0000
1000
0000
0000
,
0000
0000
0000
0000
0000
0010
0000
0000
,
1001
0000
0000
0000
0000
1001
0000
0000
0000
0000
0000
0000
0000
0010
0000
0000
,
0110
0000
0000
0000
0000
1000
0000
0000
0000
0000
0000
0000
0000
0100
0000
0000
,
0110
0000
0000
0000
0000
0001
0000
0000
0000
0000
0000
0000
0000
1000
0000
0000
,
1001
0000
0000
0000
0000
0020
0000
0000
0000
0030
0000
0000
0000
0000
0000
0000
,
1000
0100
0001
0100
,
1000
0000
0010
0000
,
1000
0010
0001
0010
,
1000
0000
0001
0000
,
0100
0001
1000
0100
,
1000
0000
0010
0000
,
1000
0100
0010
0001
,
0100
0000
0100
0000
,
0001
0010
0000
0010
,
0001
0100
0000
0100
,
0001
0010
0000
0010
,
0000
0100
0000
1000
,
0010
1000
0000
0100
,
1000
0010
0000
0010
,
1000
0100
0000
0100
,
0000
1000
0000
0010
,
0100
0001
0000
1000
,
0100
0010
0000
0100
,
1000
0010
0000
0100
,
0001
1000
0000
0001
,
0010
0001
0000
0100
,
0010
0100
0000
0001
,
1000
0100
0000
0010
,
0100
0010
0000
0001
,
0100
0100
0001
1000
,
0100
0000
0010
0000
,
0001
0001
1000
0001
,
0100
0000
0010
0000
,
1000
1000
0100
0010
,
0001
0000
1000
0000
,
0010
0010
1000
0001
,
0100
0000
0001
0000
,
1000
0100
0000
1100
,
0000
1000
0000
0001
,
0000
0100
0000
0101
,
0000
0001
0000
1000
,
0000
0010
0000
1010
,
0000
1000
0000
0001
,
0000
0010
0000
0011
,
0000
0001
0000
1000
,
0000
0100
0000
0001
,
0100
1000
0000
0010
,
0000
1000
0000
0001
,
0100
1000
0000
0100
,
0000
0001
0000
0010
,
0001
0100
0000
0001
,
0000
1000
0000
0010
,
1000
0100
0000
0010
,
0200
0000
0000
0000
,
0000
0000
0000
0000
,
0300
0000
0000
0000
;

//--------------- dance-single - ----------------
#NOTES:
     dance-single:
     Shortysnmn2010:
     Medium:
     5:
     0.348616,0.40029,0.259775,0.196799,0.027552,310,277,33,25,0,0,0.348616,0.40029,0.259775,0.196799,0.027552,310,277,33,25,0,0:
0000
0000
0000
0000
,
0000
0000
0000
0000
,
0000
0000
0000
0000
,
0000
0000
0000
0000
,
1000
0000
0100
0000
0000
1000
0010
0000
,
1000
0000
0100
0000
0000
1000
0010
0000
,
1000
0000
0001
0000
0000
0100
0001
0000
,
0010
0000
0001
0000
0000
0100
0001
0000
,
1000
0000
0100
0000
0000
0010
0100
0000
,
1000
0000
0100
0000
0000
0010
0001
0000
,
0010
0000
0100
0000
0000
1000
0010
0000
,
0100
0000
0010
0000
0000
1000
0001
0000
,
0100
0000
0110
0000
0000
0001
0010
0000
,
0100
0000
0110
0000
0000
1000
0010
0000
,
0100
0000
0110
0000
0000
0001
0100
0000
,
0010
0000
0110
0000
0000
1000
0010
0000
,
0100
0000
0000
0000
0000
1001
0000
0000
,
0000
0000
0000
0000
0000
0110
0000
0000
,
2002
0000
0000
3003
0000
0011
0000
0000
,
0000
0000
0000
0000
0000
0110
0000
0000
,
2200
0000
0000
3300
0000
1001
0000
0000
,
0000
0000
0000
0000
0000
1010
0000
0000
,
0202
0000
0000
0303
0000
1001
0000
0000
,
0000
0000
0000
0000
0000
1010
0000
0000
,
1000
0000
0001
0000
,
0010
0100
0010
0000
,
0001
0000
1000
0000
,
0100
0010
0100
0000
,
1000
0000
0010
0000
,
0100
0001
0100
0000
,
0010
0000
1000
0000
,
0001
0010
0001
0000
,
2000
0000
0000
0000
0000
0100
0000
0000
0000
0000
0000
0000
0000
0001
0000
0000
,
3002
0000
0000
0000
0000
0100
0000
0000
0000
0000
0000
0000
0000
1000
0000
0000
,
2003
0000
0000
0000
0000
0010
0000
0000
0000
0000
0000
0000
0000
0010
0000
0000
,
3002
0000
0000
0000
0000
0010
0000
0000
0000
0000
0000
0000
0000
0000
0000
0000
,
1003
0100
0010
0001
,
0200
0010
0001
0300
,
0001
0100
0010
1000
,
0200
0010
1000
0300
,
1000
0001
0100
0010
,
2000
0100
0010
3000
,
0010
1000
0100
0010
,
0002
0100
0010
0003
,
1000
0100
0010
0001
,
2000
0010
0001
3000
,
0001
0100
0010
1000
,
0002
0010
1000
0003
,
1000
0010
0100
0001
,
0020
1000
0001
0030
,
0100
1000
0010
0100
,
0002
0010
0100
0003
,
1000
0100
1000
0000
0001
0000
0100
0000
,
0001
0010
0011
0000
,
0001
0010
0001
0000
1000
0000
0100
0000
,
0010
0100
0110
0000
,
0100
1000
0100
0000
1000
0000
0010
0000
,
0100
0010
0110
0000
,
0100
0001
0100
0000
0001
0000
0010
0000
,
0001
0100
0110
0000
,
1000
0001
0010
0100
,
2000
0001
0100
3001
,
0010
0100
1000
0010
,
0200
0001
0010
0301
,
1000
0100
0010
0001
,
0020
0100
0001
0130
,
1000
0001
0100
0010
,
0100
0001
1001
0000
,
0100
0001
0100
0000
0000
0001
0100
0000
,
0001
1000
0001
0000
0000
1000
0100
0000
,
1000
0000
1001
0000
0000
0010
1000
0000
,
0001
0000
1001
0000
0000
0010
0100
0000
,
1000
0000
1100
0000
0000
0001
0100
0000
,
0010
0000
0110
0000
0000
0100
0001
0000
,
0010
0000
0110
0000
0000
0100
1000
0000
,
0001
0000
0101
0000
0000
1000
0010
0000
,
0100
0000
0101
0000
0000
0001
0010
0000
,
0001
0000
1100
0000
0000
0010
0100
0000
,
1000
0000
0110
0000
0000
0001
1000
0000
,
0001
0000
1100
0000
0000
1000
0001
0000
,
1000
0000
0101
0000
0000
0010
1000
0000
,
0100
0000
0110
0000
0000
0100
1000
0000
,
0002
0000
0100
0000
0000
1003
0100
0000
,
2000
0000
0100
0000
0000
3001
0100
0000
,
0220
0000
0000
0330
;

//--------------- dance-single - ----------------
#NOTES:
     dance-single:
     Shortysnmn2010:
     Hard:
     8:
     0.220415,0.309959,0.165311,0.188927,0.051168,196,175,21,24,0,0,0.220415,0.309959,0.165311,0.188927,0.051168,196,175,21,24,0,0:
0000
0000
0000
0000
,
0000
0000
0000
0000
,
0000
0000
0000
0000
,
0000
0000
0000
0000
,
2000
0000
0100
0000
3000
0100
1000
0000
,
0002
0000
0010
0000
0003
0010
0001
0000
,
0200
0000
0010
0000
0300
0010
0100
0000
,
0002
0000
0010
0000
0003
0010
0001
0000
,
2000
0000
0010
0000
3000
0100
1000
0000
,
0020
0000
0100
0000
0030
1000
0010
0000
,
0200
0000
1000
0000
0300
0001
0100
0000
,
0002
0000
0010
0000
0003
0100
0001
0000
,
1000
0000
2100
0000
3000
0010
0100
0000
,
0001
0000
0102
0000
0003
0010
0100
0000
,
1000
0000
1020
0000
0030
0100
0001
0000
,
0010
0000
0210
0000
0300
1000
0001
0000
,
0202
0000
0000
0303
0000
0110
0000
0000
,
0000
0000
0000
0000
0000
1010
0000
0000
,
2200
0000
0000
3300
0000
0011
0000
0000
,
0000
0000
0000
0000
0000
0110
0000
0000
,
2002
0000
0000
3003
0000
0110
0000
0000
,
0000
0000
0000
0000
0000
1010
0000
0000
,
0202
0000
0000
0303
0000
1001
0000
0000
,
0000
0000
0000
0000
0000
0110
0000
0000
,
0001
0010
0001
0010
0001
0010
0100
1000
,
0010
0100
0010
0000
,
0100
0010
0100
0010
0100
0010
1000
0100
,
0010
0100
0010
0000
,
0001
0100
0001
0100
0001
0100
0010
1000
,
0100
0001
0100
0000
,
1000
0100
1000
0100
1000
0100
0010
1000
,
0010
0001
0100
0000
,
0110
0000
0000
0000
0000
1010
0000
0000
0000
0000
0000
0000
0000
1001
0000
0000
,
0001
0010
0100
1000
0001
1000
0000
0000
0000
0000
0000
0000
0000
0110
0000
0000
,
1000
0100
0010
0001
1000
0001
0000
0000
0000
0000
0000
0000
0000
0110
0000
0000
,
0001
0100
0010
1000
0100
1000
0000
0000
0000
0000
0000
0000
0000
0000
0000
0000
,
0001
1000
0100
1000
0001
0100
1000
0200
,
0001
0010
0301
0000
,
1000
0001
1000
0001
0010
1000
0010
0002
,
0100
1000
0103
0000
,
0010
1000
0010
1000
0100
0010
0100
2000
,
0010
0100
3010
0000
,
0100
0001
0100
0001
0010
0100
0010
0002
,
0100
1000
0103
0000
,
0010
1000
0100
0010
0100
1000
0100
0010
,
0001
0101
1001
0000
,
0010
1000
0010
0100
0010
1000
0100
0010
,
0001
0011
0101
0000
,
1000
0100
0010
0100
1000
0010
0100
0001
,
0010
1001
1100
0000
,
0001
0100
0001
1000
0001
0010
0100
1000
,
0010
0110
1010
0000
,
1001
1000
0100
0001
0100
0010
0001
0010
,
0200
0000
1000
0000
0310
0000
0001
0010
,
0001
1000
0100
0001
0100
1000
0010
0100
,
0020
0000
1000
0000
0130
0001
1000
0001
,
0100
1000
0100
0001
0010
0001
1000
0100
,
0020
0000
0001
0000
0031
0000
0010
0100
,
1000
0010
1000
0010
0100
0001
0010
0001
,
0200
0000
0010
0000
0310
0000
0100
0001
,
0010
0100
1000
0100
0010
0001
0100
0001
,
0010
0000
0100
0000
0010
0000
0001
0100
,
1000
0100
0001
0100
0010
1000
0100
0010
,
0100
0000
1000
0000
0010
1000
0010
0100
,
0010
0001
0010
1000
0001
0010
0100
0010
,
0001
0000
1000
0000
0001
0000
0100
0010
,
0100
0001
0010
0100
1000
0100
0010
0001
,
1000
0100
0010
0001
,
1000
0100
2000
0000
3000
0100
1100
0000
,
0001
0010
0002
0000
0003
0010
0011
0000
,
1000
0000
2100
0000
3000
0001
1001
0000
,
0001
0000
0102
0000
0003
1000
1001
0000
,
1000
0000
0210
0000
0300
0001
1001
0000
,
0010
0000
0210
0000
0300
1000
1001
0000
,
0010
0000
0021
0000
0030
0100
1100
0000
,
1000
0000
1020
0000
0030
0100
0101
0000
,
2000
0000
0100
0000
3000
0001
0010
0000
,
0002
0000
0100
0000
0003
1000
0010
0000
,
2000
0000
0100
0000
3000
0010
0100
0000
,
0002
0000
0010
0000
0003
0100
0010
0000
,
1000
0000
1100
0000
0000
0010
0001
0000
,
0100
0000
1001
0000
0000
0010
1000
0000
,
0100
0000
0011
0000
0000
0100
1000
0000
,
0010
0000
0000
0000
0110
0000
0000
0000
0000
0000
0001
0000
0010
0001
0000
0000
,
2002
0000
0000
0000
,
0000
0000
0000
0000
,
3003
0000
0000
0000
;
