#TITLE:Perfect;
#SUBTITLE:Electro Swing Remix;
#ARTIST:11 Acorn Lane;
#TITLETRANSLIT:;
#SUBTITLETRANSLIT:;
#ARTISTTRANSLIT:;
#GENRE:;
#CREDIT:;
#BANNER:;
#BACKGROUND:;
#LYRICSPATH:;
#CDTITLE:;
#MUSIC:Perfect (Electro Swing Remix).mp3;
#OFFSET:-0.097000;
#SAMPLESTART:46.176998;
#SAMPLELENGTH:15.360000;
#SELECTABLE:YES;
#BPMS:0.000000=124.999992
;
#STOPS:
;
#BGCHANGES:;
#KEYSOUNDS:;
#ATTACKS:;

//---------------dance-single - ----------------
#NOTES:
     dance-single:
     Shortysnmn2010:
     Beginner:
     1:
     0.092339,0.129274,0.008080,0.210070,0.000000,80.000000,79.000000,1.000000,26.000000,0.000000,0.000000,0.092339,0.129274,0.008080,0.210070,0.000000,80.000000,79.000000,1.000000,26.000000,0.000000,0.000000:
0000
0000
0000
0000
,
0000
0000
0000
0000
,
0000
0000
0000
0000
,
0000
0000
0000
0000
,
1000
0000
0000
0000
,
0001
0000
0000
0000
,
0100
0000
0000
0000
,
0100
0000
0000
0000
,
0002
0003
0002
0003
,
1000
0000
0000
0000
,
2000
3000
2000
3000
,
0010
0000
0000
0000
,
0200
0300
0200
0300
,
0001
0000
0000
0000
,
0002
0003
0002
0003
,
0010
0000
0000
0000
,
0100
0000
0000
0000
,
1000
0000
0000
0000
,
0010
0000
0000
0000
,
0100
0000
0001
0000
,
0010
0000
0000
0000
,
0100
0000
0000
0000
,
1000
0000
0000
0000
,
0010
0000
0000
0000
,
2000
3000
2000
3000
,
0100
0000
0000
0000
,
0200
0300
0200
0300
,
0010
0000
0000
0000
,
0020
0030
0020
0030
,
0001
0000
0000
0000
,
0002
0003
0002
0003
,
0100
0000
0000
0000
,
0010
0000
0000
0000
,
1000
0000
1000
0000
,
1000
0000
0000
0000
,
0001
0000
0001
0000
,
0001
0000
0100
0000
,
0001
0000
0000
0000
,
1000
0000
0100
0000
,
1000
0000
0000
0000
,
0010
0000
0000
0000
,
0100
0000
0000
0000
,
0001
0000
0000
0000
,
0010
0000
0100
0000
,
1000
0000
0000
0000
,
0010
0000
0000
0000
,
1000
0000
0000
0000
,
0001
0000
1000
0000
,
0100
0000
0000
0000
,
0010
0000
0000
0000
,
0001
0000
0000
0000
,
1000
0000
0000
0000
,
0010
0000
0000
0000
,
0100
0000
0000
0000
,
0001
0000
0000
0000
,
0010
0000
0000
0000
,
0200
0300
0200
0300
,
1000
0000
0000
0000
,
0020
0030
0020
0030
,
1000
0000
0000
0000
,
2000
3000
2000
3000
,
0100
0000
0000
0000
,
0002
0003
0002
0003
,
0000
0000
0000
0220
,
0330
0000
0000
0000
;

//---------------dance-single - ----------------
#NOTES:
     dance-single:
     Shortysnmn2010:
     Easy:
     2:
     0.116578,0.155129,0.000000,0.129274,0.000000,101.000000,101.000000,0.000000,16.000000,10.000000,0.000000,0.116578,0.155129,0.000000,0.129274,0.000000,101.000000,101.000000,0.000000,16.000000,10.000000,0.000000:
0000
0000
0000
0000
,
0000
0000
0000
0000
,
0000
0000
0000
0000
,
0000
0000
0000
0000
,
1000
0000
0100
0000
,
0001
0000
0000
0000
,
0001
0000
0100
0000
,
1000
0000
0000
0000
,
0010
0000
0100
0000
,
0010
0000
0000
0000
,
1000
0000
0001
0000
,
1000
0000
0000
0000
,
0100
0000
0001
0000
,
0100
0000
0000
0000
,
0010
0000
1000
0000
,
0010
0000
0000
0000
,
0001
0000
0001
0000
,
0100
0000
1000
0000
,
1000
0000
0100
0000
,
0001
0000
0000
0000
,
1000
0000
0100
0000
,
0001
0000
0001
0000
,
1000
0000
1000
0000
,
0010
0000
0000
0000
,
0100
0000
0001
0000
,
1000
0000
0000
0000
,
0010
0000
1000
0000
,
0100
0000
0000
0000
,
0001
0000
0100
0000
,
1000
0000
0000
0000
,
0010
0000
0100
0000
,
0001
0000
0000
0000
,
2000
3000
1000
00M0
,
0002
0003
0001
0M00
,
0020
0030
0010
000M
,
0200
0000
0300
00M0
,
2000
3000
1000
0M00
,
0020
0030
0010
000M
,
0200
0300
0100
M000
,
0002
0000
0003
0000
,
1000
0000
0001
0000
,
0010
0020
0030
0000
,
0001
0000
1000
0000
,
0100
0200
0300
0000
,
1000
0000
0010
0000
,
0100
0200
0300
0000
,
0010
0000
1000
0000
,
0100
0200
0300
0000
,
0010
0000
0001
0000
,
0100
0000
0000
0000
,
0010
0000
1000
0000
,
0100
0000
0000
0000
,
1000
0000
0001
0000
,
1000
0000
0000
0000
,
0010
0000
0100
0000
,
0010
0000
0000
0000
,
1000
0000
0100
0000
,
0002
0000
M003
0000
,
0001
0000
0100
0000
,
2000
0000
300M
0000
,
1000
0000
0010
0000
,
0002
0000
M003
0000
,
0001
0000
0000
0000
0010
0000
0000
1000
,
0000
0001
0001
2000
,
3000
0000
0000
0000
;

//---------------dance-single - ----------------
#NOTES:
     dance-single:
     Shortysnmn2010:
     Medium:
     5:
     0.282787,0.310258,0.064637,0.121194,0.100995,245.000000,237.000000,8.000000,15.000000,0.000000,0.000000,0.282787,0.310258,0.064637,0.121194,0.100995,245.000000,237.000000,8.000000,15.000000,0.000000,0.000000:
// measure 0
0000
0000
0000
0000
,  // measure 1
0000
0000
0000
0000
,  // measure 2
0000
0000
0000
0000
,  // measure 3
0000
0000
0000
0000
,  // measure 4
1000
0100
0010
0001
,  // measure 5
1000
0001
0100
0001
,  // measure 6
1000
0000
0100
0000
,  // measure 7
0010
0000
0110
0000
,  // measure 8
0001
0000
0000
1000
0000
0000
0000
0000
1000
0000
0000
0001
0000
0000
0000
0000
,  // measure 9
1000
0100
0010
0100
,  // measure 10
1000
0000
0000
0010
0000
0000
0000
0000
0010
0000
0000
1000
0000
0000
0000
0000
,  // measure 11
0001
0100
0010
0100
,  // measure 12
0001
0000
0000
0010
0000
0000
0000
0000
0010
0000
0000
0001
0000
0000
0000
0000
,  // measure 13
1000
0010
0100
0001
,  // measure 14
1000
0000
0000
0100
0000
0000
0000
0000
0100
0000
0000
1000
0000
0000
0000
0000
,  // measure 15
0001
0100
0010
0000
,  // measure 16
0200
0001
0302
0010
,  // measure 17
0013
0000
0100
0000
1000
0100
1000
0000
,  // measure 18
0020
0100
0230
0001
,  // measure 19
0301
0000
1000
0000
0100
0010
0100
0000
,  // measure 20
2000
0010
3020
0001
,  // measure 21
0031
0000
0010
0000
1000
0001
1000
0000
,  // measure 22
0002
0010
0023
1000
,  // measure 23
1030
0000
0000
0000
,  // measure 24
0001
0000
0000
0100
0000
0000
0000
0000
0001
0000
0000
0010
0000
0000
0000
0000
,  // measure 25
0001
1000
0100
0010
,  // measure 26
0100
0000
0000
1000
0000
0000
0000
0000
0100
0000
0000
0001
0000
0000
0000
0000
,  // measure 27
0100
1000
0001
0000
,  // measure 28
1000
0000
0000
0010
0000
0000
0000
0000
1000
0000
0000
0100
0000
0000
0000
0000
,  // measure 29
1000
0001
0100
0010
,  // measure 30
0100
0000
0000
0001
0000
0000
0000
0000
0100
0000
0000
1000
0000
0000
0000
0000
,  // measure 31
0100
0001
1000
0000
,  // measure 32
0100
1000
0100
0000
1000
0000
0001
0000
,  // measure 33
1000
0001
1000
0000
0001
0000
0100
0000
,  // measure 34
0001
0010
0001
0010
,  // measure 35
0200
0300
0110
0000
,  // measure 36
0010
0001
0010
0000
0100
0000
1000
0000
,  // measure 37
0100
1000
0100
0000
1000
0000
0010
0000
,  // measure 38
1000
0001
1000
0001
,  // measure 39
0200
0300
0110
0000
,  // measure 40
0001
0010
0001
0001
,  // measure 41
1000
0000
0100
2000
0000
0000
3010
0000
,  // measure 42
1000
0100
0010
0100
,  // measure 43
1000
0000
0001
0200
0000
0000
0310
0000
,  // measure 44
0100
0001
0010
0001
,  // measure 45
1000
0000
0010
2000
0000
0000
3001
0000
,  // measure 46
0010
0001
1000
0001
,  // measure 47
0100
0000
0000
0001
0010
0000
0000
0000
,  // measure 48
0100
1000
0100
0010
,  // measure 49
0001
0000
0000
0001
1000
0000
0000
0000
0001
0000
0000
0000
1001
0000
0000
0000
,  // measure 50
0100
0001
0100
0010
,  // measure 51
1000
0001
1000
0001
,  // measure 52
0010
0100
0010
0000
0110
0000
0000
0000
,  // measure 53
0100
0010
0100
0000
0110
0000
0000
0000
,  // measure 54
1000
0000
1100
0000
1000
0001
0100
0000
,  // measure 55
0001
0100
0001
0000
,  // measure 56
1000
0000
0000
0100
0000
0000
0000
0000
0010
0000
0000
0001
0000
0000
0000
0000
,  // measure 57
0100
0000
0010
0000
1000
0001
0100
0000
,  // measure 58
0010
0000
0000
0100
0000
0000
0000
0000
0001
0000
0000
1000
0000
0000
0000
0000
,  // measure 59
0100
0000
0010
0000
0100
1000
0010
0000
,  // measure 60
1000
0000
0000
0001
0000
0000
0000
0000
1000
0000
0000
0100
0000
0000
0000
0000
,  // measure 61
0010
0000
0001
0000
0100
0010
0100
0000
,  // measure 62
0001
0000
0000
0010
0000
0000
0000
0000
0001
0000
0000
1000
0000
0000
0000
0000
,  // measure 63
0100
0000
0010
0001
0100
0000
2002
0000
,  // measure 64
3003
0000
0000
0000
;

//---------------dance-single - ----------------
#NOTES:
     dance-single:
     Shortysnmn2010:
     Hard:
     9:
     0.518251,0.568806,0.169672,0.088876,0.525176,449.000000,428.000000,21.000000,11.000000,0.000000,0.000000,0.518251,0.568806,0.169672,0.088876,0.525176,449.000000,428.000000,21.000000,11.000000,0.000000,0.000000:
// measure 0
0000
0000
0000
0000
,  // measure 1
0000
0000
0000
0000
,  // measure 2
0000
0000
0000
0000
,  // measure 3
0000
0000
0000
0000
,  // measure 4
1000
0000
0000
0100
0000
0000
1000
0000
0010
0000
0100
0010
0000
0000
0000
0000
,  // measure 5
0100
0000
0001
0100
0000
0000
0000
0001
0000
0001
0100
0000
0001
0000
0010
0000
,  // measure 6
0001
0000
0000
1000
0000
0000
0001
0000
0010
0000
0100
0010
0000
0000
0000
0000
,  // measure 7
0100
0000
0000
1000
0000
0000
0100
0000
1000
0000
0000
0000
0000
0000
0000
0000
,  // measure 8
0001
0000
0000
0001
0100
0000
0000
0000
1000
0000
0000
1000
0100
0000
0002
0000
,  // measure 9
0010
0000
0000
0000
1003
0000
0100
0000
0010
0000
0100
0000
1000
0000
0010
1000
,  // measure 10
0010
0000
0000
0010
1000
0000
0000
0000
0100
0000
0000
0100
1000
0000
0010
0000
,  // measure 11
0100
0000
0001
0000
0010
0000
0001
0010
0000
0001
0010
0001
0000
0010
0001
0000
,  // measure 12
0100
0000
0000
0100
1000
0000
0000
0000
0100
0000
0000
0100
0001
0000
1000
0000
,  // measure 13
0100
0010
0100
1000
0001
0100
0001
0000
,  // measure 14
1000
0000
0000
1000
0100
0000
0000
0000
0001
0000
0000
0001
0100
0000
2000
0000
,  // measure 15
0000
0000
3010
0000
0100
0000
0001
0000
0010
0000
0000
0011
0000
0000
0000
0000
,  // measure 16
0100
0000
0000
1000
0000
0000
0010
0000
1000
0000
0001
0100
0000
0000
0000
0000
,  // measure 17
0001
0000
0010
0001
0000
0000
0000
1000
0000
1000
0100
0000
1000
0000
0010
0000
,  // measure 18
0100
0000
0000
0001
0000
0000
0010
0000
0001
0000
0100
0001
0000
0000
0000
0000
,  // measure 19
1000
0000
0010
1000
0000
0000
0000
0100
0000
0100
1000
0000
0010
0000
1000
0000
,  // measure 20
0100
0000
0000
0010
0000
0000
0100
0000
2000
0000
0000
3010
0000
0000
0000
0000
,  // measure 21
2000
0000
0000
3001
0000
0000
0000
0010
0000
0010
0001
0000
0100
0000
0010
0000
,  // measure 22
1000
0000
0000
0001
0000
0000
1000
0000
0010
0000
1000
0001
0000
0000
0000
0000
,  // measure 23
0100
0000
0000
0000
0010
0000
0000
0000
1000
0001
1000
0001
1000
0000
0001
0000
,  // measure 24
1000
0000
0000
1000
0001
0000
0000
0000
1000
0000
0000
1000
0010
0000
0000
0000
,  // measure 25
0100
0001
0000
0100
0000
0010
0000
1000
0000
0001
0000
0010
0000
0001
0000
0000
,  // measure 26
0100
0000
0000
0100
0010
0000
0000
0000
0100
0000
0000
0100
0001
0000
0000
0000
,  // measure 27
0010
0001
0000
1000
0000
0100
0000
1000
0000
0100
1000
0100
0000
1000
0100
0000
,  // measure 28
0010
0000
0000
0010
0001
0000
0000
0000
0010
0000
0000
0010
0100
0000
0000
0000
,  // measure 29
1000
0010
0000
0100
0000
0001
0000
1000
0000
0001
0000
0010
0000
0100
0000
0000
,  // measure 30
1000
0000
0000
1000
0010
0000
0000
0000
1000
0000
0000
1000
0100
0000
0000
0000
,  // measure 31
0010
0001
0000
1000
0000
0000
0100
0000
0001
0000
0000
0000
0100
0000
0000
0000
,  // measure 32
1000
0010
1000
0000
0001
0000
0000
0000
0100
0000
0010
0000
0110
0000
0000
0000
,  // measure 33
0010
0100
0010
0000
1000
0000
0000
0000
0001
0000
0010
0000
0011
0000
0000
0000
,  // measure 34
0001
1000
0100
0000
1000
0000
0000
0000
0010
0000
1000
0000
1100
0000
0000
0000
,  // measure 35
1100
1001
0101
1001
1100
0000
0110
0000
,  // measure 36
0001
0010
0001
0000
0100
0000
0000
0000
0010
0100
0010
0000
1000
0000
0000
0000
,  // measure 37
0100
0000
1000
0100
1000
0000
0000
0000
0001
0010
0001
0000
0010
0000
0000
0000
,  // measure 38
0100
1000
0100
0000
1000
0000
0001
0000
0100
0000
0001
0000
1000
0000
0000
0000
,  // measure 39
1010
1001
0011
1001
1010
0000
0000
0000
,  // measure 40
0001
0000
0000
0010
0000
0000
0001
0000
1000
0000
0010
0100
0000
0010
0100
0010
,  // measure 41
0100
0002
0010
0010
0000
0000
0013
0000
,  // measure 42
0100
0000
0000
1000
0000
0000
0010
0000
1000
0000
0100
0010
0000
0100
0010
0100
,  // measure 43
0010
0002
0100
0100
0000
0000
0103
0000
,  // measure 44
0010
0000
0000
1000
0000
0000
0001
0000
0010
0000
0001
1000
0000
1000
0001
1000
,  // measure 45
0001
0020
0100
0100
0000
0000
0130
0000
,  // measure 46
1000
0000
0000
0001
0000
0000
0010
0000
0001
0000
1000
0100
0000
0000
0000
0000
,  // measure 47
2000
0000
0000
0010
0000
0000
3001
0000
0101
0000
0000
0000
1000
0001
1000
0001
,  // measure 48
0000
0010
0100
1000
0000
0001
1000
0001
1000
0000
0000
0010
0000
0000
0100
0000
,  // measure 49
0001
0000
0000
0001
0010
0000
0001
0000
0100
0000
0010
0000
1000
0000
0100
1000
,  // measure 50
0100
0000
1000
0001
1000
0000
0010
1000
0010
0000
1000
0001
1000
0000
0100
0000
,  // measure 51
0010
0011
1100
1001
,  // measure 52
1000
0100
0010
0000
0100
0000
0010
0100
0000
0100
1000
0100
0010
0001
0010
0000
,  // measure 53
0001
0000
0001
0000
0100
0000
0010
0100
0000
0100
0001
0000
0010
0000
0001
0000
,  // measure 54
0100
1000
0100
0001
0010
0100
1000
0000
,  // measure 55
0001
0100
1000
0100
0001
0000
1001
0000
,  // measure 56
1000
0000
0000
0001
0010
0000
0000
0000
0001
0000
0000
1000
0010
0000
1000
0001
,  // measure 57
0000
0100
0001
0100
0000
0010
1000
0010
0000
1000
0100
0000
1000
0000
0001
0000
,  // measure 58
0100
0000
0000
0010
0100
0000
0000
0000
0001
0000
0000
0010
0100
0000
0010
0000
,  // measure 59
0001
0100
0000
0001
0000
0000
0010
0000
0001
0000
1000
0000
0100
0000
0000
0000
,  // measure 60
1000
0000
0000
0010
1000
0000
0000
0000
0100
0000
0000
1000
0100
0000
0000
0000
,  // measure 61
0010
0001
0100
1000
0001
1000
0100
0000
,  // measure 62
0001
0000
0000
0010
0001
0000
0000
0000
1000
0000
0000
0100
1000
0000
0020
0000
,  // measure 63
0000
0130
0001
1000
0100
0000
2002
0000
,  // measure 64
3003
0000
0000
0000
;
