#TITLE:Monster;
#SUBTITLE:DotEXE Remix;
#ARTIST:Nightcore;
#TITLETRANSLIT:;
#SUBTITLETRANSLIT:;
#ARTISTTRANSLIT:;
#GENRE:;
#CREDIT:;
#BANNER:;
#BACKGROUND:;
#LYRICSPATH:;
#CDTITLE:;
#MUSIC:Monster (DotEXE Remix).mp3;
#OFFSET:-0.075000;
#SAMPLESTART:34.178001;
#SAMPLELENGTH:11.341000;
#SELECTABLE:YES;
#BPMS:0.000000=169.000000
;
#STOPS:
;
#BGCHANGES:;
#KEYSOUNDS:;
#ATTACKS:;

//---------------dance-single - ----------------
#NOTES:
     dance-single:
     Shortysnmn2010:
     Beginner:
     1:
     0.127940,0.171494,0.047637,0.028582,0.000000,94.000000,89.000000,5.000000,3.000000,0.000000,0.000000,0.127940,0.171494,0.047637,0.028582,0.000000,94.000000,89.000000,5.000000,3.000000,0.000000,0.000000:
0000
0000
0000
0000
,
0000
0000
0000
0000
,
0000
0000
0000
0000
,
0000
0000
0000
0000
,
1000
0000
0000
0000
,
0001
0000
0000
0000
,
1000
0000
0000
0000
,
0100
0000
0100
0000
,
0100
0000
0000
0000
,
0010
0000
0000
0000
,
0100
0000
0000
0000
,
1000
0000
1000
0000
,
1000
0000
0000
0000
,
0010
0000
0000
0000
,
0100
0000
0000
0000
,
0001
0000
0001
0000
,
0001
0000
0000
0000
,
1000
0000
0000
0000
,
0100
0000
0000
0000
,
0010
0000
0000
0000
,
0100
0000
0000
0000
,
1000
0000
0000
0000
,
0001
0000
1000
0000
,
0001
0000
0000
0000
,
1001
0000
0000
0000
,
1000
0000
0010
0000
,
1000
0000
0000
0000
,
0001
0000
1000
0000
,
0001
0000
0000
0000
,
0010
0000
0100
0000
,
0010
0000
0000
0000
,
0001
0000
0100
0000
,
0001
0000
0000
0000
,
1000
0000
0010
0000
,
1000
0000
0000
0000
,
0100
0000
1000
0000
,
0100
0000
0000
0000
,
0010
0000
0100
0000
,
0010
0000
0000
0000
,
0002
0000
0000
0003
,
1000
0000
0000
0000
,
0010
0000
1000
0000
,
0010
0000
0000
0000
,
1000
0000
0001
0000
,
1000
0000
0000
0000
,
0001
0000
0100
0000
,
0001
0000
0000
0000
,
0010
0000
0100
0000
,
0010
0000
0000
0000
,
0100
0000
0100
0000
,
1000
0000
0000
0000
,
0010
0000
0010
0000
,
1000
0000
0000
0000
,
1000
0000
1000
0000
,
0001
0000
0000
0000
,
2000
0000
0000
3000
,
0001
0000
0000
0000
,
0011
0000
0000
0000
,
1000
0000
0000
0000
,
0100
0000
0100
0000
,
0100
0000
0000
0000
,
0110
0000
0000
0000
,
0001
0000
0000
0000
,
1000
0000
1000
0000
,
1000
0000
0000
0000
,
1001
0000
0000
0000
,
0001
0000
0000
0000
,
0100
0000
0100
0000
,
0100
0000
0000
0000
,
0110
0000
0000
0000
,
1000
0000
0000
0000
,
0002
0000
0000
0000
,
0003
0000
0000
0000
;

//---------------dance-single - ----------------
#NOTES:
     dance-single:
     Shortysnmn2010:
     Easy:
     4:
     0.269490,0.341797,0.276296,0.133384,0.000000,198.000000,169.000000,29.000000,14.000000,0.000000,0.000000,0.269490,0.341797,0.276296,0.133384,0.000000,198.000000,169.000000,29.000000,14.000000,0.000000,0.000000:
0000
0000
0000
0000
,
0000
0000
0000
0000
,
0000
0000
0000
0000
,
0000
0000
0000
0000
,
1000
1000
0000
0000
,
0001
0001
0000
0000
,
0100
0100
0000
0000
,
0010
1000
0010
1000
,
0100
0100
0000
0000
,
1000
1000
0000
0000
,
0010
0010
0000
0000
,
0100
0001
0100
0001
,
0010
0010
0000
0000
,
0001
0001
0000
0000
,
0100
0100
0000
0000
,
0010
1000
0010
1000
,
0001
0001
0100
0010
,
1000
1001
0000
0000
,
1000
1000
0100
0010
,
0001
0011
0000
0000
,
0001
1000
0001
1000
,
0100
1000
0001
1000
,
0001
0100
0001
1000
,
0020
0000
0030
0000
,
1000
0100
0010
0001
,
0110
0000
0000
0000
,
0001
0100
1000
0100
,
1001
0000
0000
0000
,
0010
1000
0001
0100
,
1001
0000
0000
0000
,
0010
0001
1000
0100
,
0011
0000
0000
0000
,
1000
0001
0110
0110
,
1000
0000
0000
0000
,
0100
0010
1001
1001
,
0100
0000
0000
0000
,
0010
1000
0011
0011
,
0100
0000
0000
0000
,
1000
0001
1010
1010
,
0100
0000
0000
0000
,
0001
0010
0100
1000
,
0020
0000
0000
0030
,
0100
0001
0011
1001
,
2000
0000
0000
3000
,
0010
0100
0101
1001
,
0002
0000
0000
0003
,
0010
0100
1100
1010
,
0200
0000
0000
0300
,
0001
1000
1010
1100
,
0002
0000
0000
0003
,
0010
0001
0101
1001
,
0200
0000
0000
0300
,
0010
0001
1001
1100
,
0020
0000
0000
0030
,
0100
1000
1010
0110
,
0002
0000
0000
0003
,
1000
1000
0000
0000
,
0001
0001
0000
0000
,
0100
0100
0000
0000
,
0010
0100
0010
0100
,
0001
0001
0000
0000
,
1000
1000
0000
0000
,
0100
0100
0000
0000
,
0010
0001
0010
0001
,
1000
1000
0000
0000
,
0010
0010
0000
0000
,
0100
0100
0000
0000
,
0001
0010
0001
0010
,
0200
0000
0300
0000
,
2000
0000
3000
0000
,
0020
0000
0030
0000
,
2002
0000
0000
3003
;

//---------------dance-single - ----------------
#NOTES:
     dance-single:
     Shortysnmn2010:
     Challenge:
     9:
     0.615200,0.684785,0.609756,0.228659,0.147675,452.000000,388.000000,64.000000,24.000000,0.000000,0.000000,0.615200,0.684785,0.609756,0.228659,0.147675,452.000000,388.000000,64.000000,24.000000,0.000000,0.000000:
// measure 0
0000
0000
0000
0000
,  // measure 1
0000
0000
0000
0000
,  // measure 2
0000
0000
0000
0000
,  // measure 3
0000
0000
0000
0000
,  // measure 4
1001
0000
0000
0000
1001
0000
0000
0000
0000
0000
0000
0000
0010
0000
0000
0001
,  // measure 5
0100
0000
0110
0000
0000
0000
0100
0001
,  // measure 6
0010
0000
0110
0000
0000
0000
0100
1000
,  // measure 7
0001
0000
0002
0000
0100
0000
1003
1000
,  // measure 8
0100
0000
0000
0000
0110
0000
0000
0000
0000
0000
0000
0000
0001
0000
0000
0010
,  // measure 9
0001
0000
1001
0000
0000
0000
1000
0010
,  // measure 10
0100
0000
0110
0000
0000
0000
0010
1000
,  // measure 11
0001
0000
0000
0000
0001
0000
0010
0001
0010
0000
0000
0000
0100
0000
0100
0000
,  // measure 12
0010
0000
0000
0000
0110
0000
0000
0000
0000
0000
0000
0000
0100
0000
0000
1000
,  // measure 13
0010
0000
1010
0000
0000
0000
0100
0001
,  // measure 14
0010
0000
0000
0000
0100
0000
1000
0100
1000
0000
0010
0000
0100
0000
0100
0000
,  // measure 15
0001
0000
0000
0000
0010
0000
0001
0010
0001
0000
0010
0000
0001
0000
0000
0000
,  // measure 16
1100
0000
1002
0000
0013
0000
0100
0100
,  // measure 17
1000
0000
1000
0000
0020
0000
0000
0030
0020
0000
0000
0030
1000
0000
0000
0000
,  // measure 18
1100
0000
0120
0000
0031
0000
1000
1000
,  // measure 19
0001
0000
0001
0000
0200
0000
0000
0300
0200
0000
0000
0300
0001
0000
1000
0001
,  // measure 20
1000
0000
1100
0000
0010
0000
0001
0001
,  // measure 21
0100
0100
0001
0001
,  // measure 22
1000
0100
1000
0100
0001
0100
0001
0100
,  // measure 23
1000
0100
1000
0100
0010
0001
0010
0001
1000
0000
0000
0000
1001
0000
0000
0000
,  // measure 24
0001
0101
0011
0101
,  // measure 25
1001
1000
0100
0001
0100
0000
1000
0010
,  // measure 26
0100
0000
1010
0000
0100
0100
0001
0001
,  // measure 27
0100
0000
0100
0000
0010
0000
1000
0001
1000
0000
0100
0000
0010
0000
0000
0000
,  // measure 28
0100
1100
1010
1100
,  // measure 29
1001
0001
0010
0100
1000
0000
0010
0100
,  // measure 30
0001
0000
0011
0000
0100
0100
1000
1000
,  // measure 31
0100
0000
0100
0000
1000
0000
0001
1000
0001
0000
0100
0000
0000
0000
0010
0000
,  // measure 32
1000
0000
0001
1000
0001
1000
0001
0000
0000
0110
0000
0000
,  // measure 33
1000
0010
0100
1000
0100
0000
0001
0010
,  // measure 34
0001
0000
1100
0000
0010
0010
0001
0001
,  // measure 35
0100
0000
0100
0000
0010
0000
1000
0001
1000
0000
0100
0000
0010
0000
0000
0000
,  // measure 36
0011
0001
1010
1100
,  // measure 37
0010
0001
0100
0010
0100
0000
0001
0010
,  // measure 38
1000
0000
1010
0000
0010
0010
0001
0001
,  // measure 39
0200
0000
0000
0300
0200
0000
0000
0300
1001
0000
0000
0000
0200
0000
0000
0300
,  // measure 40
0010
1010
1100
0101
,  // measure 41
1100
1000
0010
1000
0100
0000
0001
0100
,  // measure 42
1000
0000
1010
0000
0100
0100
0001
0001
,  // measure 43
0010
0000
0010
0000
1000
0000
0010
0100
0010
0000
0001
0000
1000
0000
0000
0000
,  // measure 44
0010
0110
0101
0011
,  // measure 45
0110
0100
1000
0010
0100
0000
0010
0100
,  // measure 46
0001
0000
1001
0000
1000
1000
0100
0100
,  // measure 47
0010
0000
0010
0000
0001
0000
1000
0100
1000
0000
0002
0000
0000
0003
1000
0000
,  // measure 48
0100
0000
0010
0100
1000
0100
0010
0000
0000
0011
0000
0000
,  // measure 49
1100
0100
0001
0100
1000
0000
0001
0100
,  // measure 50
1000
0000
1100
0000
0100
0100
0001
0001
,  // measure 51
0010
0000
0010
0000
0001
0000
0100
0010
1000
0000
0001
0000
0010
0000
0000
0000
,  // measure 52
0100
1100
1010
0011
,  // measure 53
1010
1000
0001
0010
1000
0000
0010
0001
,  // measure 54
1000
0000
0101
0000
0010
0010
0100
0100
,  // measure 55
0002
0000
0000
0003
0002
0000
0000
0003
0110
0000
0000
0000
0002
0000
0000
0003
,  // measure 56
1000
0000
0000
0000
0100
0000
0000
0000
1100
0000
0000
0000
1000
0000
0000
0010
,  // measure 57
1000
0000
0100
1000
1100
0000
0100
0010
,  // measure 58
0100
0000
1000
0000
1010
0000
0010
0100
,  // measure 59
0002
0000
0000
0003
0100
0000
0001
0100
0001
0000
0010
0000
0001
0000
0000
0000
,  // measure 60
1000
0000
0000
0000
0010
0000
0000
0000
0110
0000
0000
0000
0100
0000
0000
0001
,  // measure 61
0100
0000
0001
0010
0011
0000
0001
1000
,  // measure 62
0100
0000
0010
0000
0110
0000
0100
1000
,  // measure 63
0020
0000
0000
0030
0100
0000
0010
0100
0010
0000
0000
0000
0110
0000
0000
0000
,  // measure 64
0100
0000
0000
0000
0001
0000
0000
0000
0011
0000
0000
0000
0001
0000
0000
0100
,  // measure 65
0010
0000
1000
0100
1100
0000
0010
0001
,  // measure 66
0100
0000
2002
0000
3003
0000
0010
0001
,  // measure 67
0100
0000
0000
0000
0100
0000
0001
0100
0001
0000
0000
0000
0010
0000
0000
0000
,  // measure 68
0200
0300
2002
3003
,  // measure 69
0020
0000
0030
0001
0110
0000
0000
0000
,  // measure 70
2000
0000
0000
0000
3000
0000
0010
0100
0001
0000
0100
0000
0010
0000
0000
0000
,  // measure 71
1001
0000
0000
0000
0000
0000
0001
1000
0001
0000
2000
0000
0000
0000
3000
0000
;

//---------------dance-single - ----------------
#NOTES:
     dance-single:
     Shortysnmn2010:
     Medium:
     6:
     0.382459,0.478516,0.142912,0.333460,0.000000,281.000000,266.000000,15.000000,35.000000,18.000000,0.000000,0.382459,0.478516,0.142912,0.333460,0.000000,281.000000,266.000000,15.000000,35.000000,18.000000,0.000000:
0000
0000
0000
0000
,
0000
0000
0000
0000
,
0000
0000
0000
0000
,
0000
0000
0000
0000
,
1000
2000
3000
0100
,
0010
0000
0010
0000
0000
0000
0001
0010
,
0001
0000
0010
0000
0000
0000
0001
1000
,
0001
0001
0100
0010
,
1000
2000
3000
0100
,
1000
0000
1000
0000
0000
0000
0010
0100
,
0010
0000
1000
0000
0000
0000
0100
0010
,
0100
0100
0010
0001
,
0100
0200
0300
0001
,
0010
0000
0010
0000
0000
0000
0001
0010
,
0001
0000
0010
0000
0000
0000
0001
1000
,
0001
0001
0100
0000
,
0010
0000
1000
0000
0100
0000
1000
0001
,
1000
0001
2000
0000
3001
0000
0002
0000
,
1003
0000
0001
0000
0010
0000
0100
0010
,
0100
0010
0200
0000
0310
0000
0020
0000
,
0130
0000
1000
0000
0100
0000
0010
0100
,
0010
0001
0010
0100
,
1000
0100
1000
0100
1000
0100
1000
0100
,
2000
0100
0001
3100
,
0220
0000
000M
0330
,
0000
0001
0010
0001
0010
0000
0100
0010
,
0200
0000
M00M
0300
,
0000
0000
1000
0100
0010
0001
1000
0000
,
2002
0000
0M00
3003
,
0000
0001
0100
0010
0100
0000
0001
1000
,
0002
0000
0MM0
0003
,
0000
0000
1000
0010
0100
0001
0000
0000
,
2002
0000
0M00
3M03
,
0000
1000
0010
1000
0100
0000
0010
0100
,
2000
0000
00MM
30MM
,
0000
0000
0010
0100
0001
1000
0001
0000
,
0022
0000
M000
M033
,
0000
0100
1000
0001
0100
0000
1000
0100
,
0002
0000
MM00
MM03
,
0010
0000
0100
0000
,
1000
0001
0110
0110
,
1000
0100
1000
0100
1000
0000
0010
0100
,
0010
1000
0200
0010
,
0310
0000
0100
1000
0100
1000
0001
0000
,
0100
0010
1010
1010
,
0001
0010
0001
0010
0001
0000
1000
0100
,
1000
0010
0200
0001
,
0301
0000
1000
0100
1000
0100
0000
0000
,
1100
0000
0100
0010
0100
0000
1000
0000
,
0010
0100
0010
0100
0010
0000
0100
0001
,
0010
0001
2000
0100
,
3100
0000
1000
0100
0010
0100
1000
0000
,
0001
0100
0110
0110
,
1000
0001
0010
0001
1000
0000
0100
1000
,
0001
0100
0020
0100
,
0130
0000
0001
0000
,
1000
0200
0300
1000
,
0010
0000
1010
0000
0000
0000
1000
0001
,
1000
0000
0001
0000
0000
0000
0010
0002
,
0010
0010
1000
0103
,
0010
0200
0300
0001
,
0010
0000
0011
0000
0000
0000
0100
1000
,
0100
0000
1000
0000
0000
0000
0010
2000
,
0010
0010
0001
3100
,
0010
0200
0300
1000
,
0001
0000
1001
0000
0000
0000
0100
0001
,
0100
0000
0010
0000
0000
0000
1000
0200
,
0010
0001
0010
1300
,
0002
0000
1003
0000
,
2000
0000
0000
0001
3001
0000
0000
0000
,
0020
0000
0130
0000
,
2002
0000
0000
3003
;

//---------------dance-single - ----------------
#NOTES:
     dance-single:
     Shortysnmn2010:
     Hard:
     7:
     0.487260,0.514482,0.352515,0.333460,0.038110,358.000000,321.000000,37.000000,35.000000,0.000000,0.000000,0.487260,0.514482,0.352515,0.333460,0.038110,358.000000,321.000000,37.000000,35.000000,0.000000,0.000000:
0000
0000
0000
0000
,
0000
0000
0000
0000
,
0000
0000
0000
0000
,
0000
0000
0000
0000
,
1000
0000
0000
0000
0002
0000
0000
0000
0003
0000
0000
0000
0010
0000
0000
0001
,
0010
0000
0022
0000
0033
0000
0100
1000
,
0100
0000
2200
0000
3300
0000
1000
0001
,
0100
0000
1000
0000
0100
0000
1000
1000
,
0100
0000
0000
0000
0002
0000
0000
0000
0003
0000
0000
0000
0010
0000
0000
0100
,
0010
0000
0220
0000
0330
0000
1000
0001
,
0100
0000
0220
0000
0330
0000
0010
1000
,
0001
0010
0001
0010
,
0100
0000
0000
0000
2000
0000
0000
0000
3000
0000
0000
0000
0010
0000
0000
1000
,
0010
0000
2020
0000
3030
0000
0100
0001
,
0010
0000
0022
0000
0033
0000
0001
1000
,
0100
0001
0100
0001
,
0100
0000
1000
0000
1010
0000
0010
1000
,
0010
1000
0200
0000
0010
0000
1000
0000
,
0310
0000
0001
0000
0101
0000
0100
0010
,
0100
0010
2000
0000
0100
0000
0001
0000
,
3100
0000
0010
0000
0011
0000
0001
0100
,
0010
1000
1010
1001
,
0001
0010
0100
1000
0001
0100
1000
0100
,
0002
0000
0003
0000
,
0110
0000
1000
1000
,
0100
0010
0001
0010
0100
0000
1000
0010
,
1000
0000
0000
0000
0001
0100
0001
0100
,
0010
1000
0100
0010
0100
1000
0100
0000
,
0110
0000
0001
0001
,
1000
0001
0100
1000
0100
0000
0001
1000
,
0001
0000
0000
0000
1000
0010
1000
0010
,
0100
0001
1000
0001
0100
1000
0000
0000
,
1100
0000
0100
0001
0010
0000
0011
0000
,
0001
1000
0100
0001
0100
0000
1000
0010
,
1000
0000
0000
0000
0001
1000
0001
1000
,
0100
0010
0001
0010
0100
1000
0100
0000
,
1100
0000
0001
0001
,
1000
0010
0001
0010
0100
0000
0001
0010
,
0001
0000
0000
0000
1000
0100
1000
0100
,
0001
0100
1000
0100
,
1001
0000
0001
0001
,
0100
0010
1000
0010
0100
0000
0001
0010
,
0001
0000
0000
0000
0100
1000
0100
1000
,
0100
0001
1000
0100
0001
0100
1000
0000
,
1010
0000
0010
0010
,
1000
0001
0010
0001
0100
0000
0001
0100
,
1000
0000
0000
0000
0100
1000
0100
1000
,
0100
0001
1000
0010
1000
0100
0000
0000
,
0110
0000
0001
0001
,
1000
0010
1000
0100
0001
0000
0100
0010
,
0100
0000
0000
0000
1000
0001
1000
0001
,
0100
1000
0100
0010
1000
0001
0010
0000
,
0110
0000
1000
1000
,
0001
0010
1000
0010
0100
0000
1000
0100
,
0010
0000
0000
0000
0001
0100
0001
0100
,
0010
0010
1000
0100
,
0010
0000
0000
0000
0110
0000
0000
0000
0000
0000
0000
0000
0100
0000
0000
1000
,
0010
0000
2020
0000
3030
0000
0100
0001
,
1000
0000
0220
0000
0330
0000
0001
0010
,
0100
1100
1001
1100
,
0010
0000
0000
0000
0002
0000
0000
0000
0003
0000
0000
0000
0100
0000
0000
0010
,
0100
0000
2002
0000
3003
0000
0010
1000
,
0100
0000
0022
0000
0033
0000
0100
1000
,
0010
0110
0101
0110
,
1000
0000
0000
0000
0200
0000
0000
0000
0300
0000
0000
0000
0010
0000
0000
0001
,
0010
0000
0022
0000
0033
0000
0100
1000
,
0010
0000
0202
0000
0303
0000
0010
1000
,
0001
0101
1001
1100
,
0020
0000
0130
0000
,
0002
0000
0000
1000
1003
0000
0000
0000
,
0010
0000
0000
0000
0000
0000
1000
0010
1000
0000
0010
0000
1000
0000
0000
0000
,
1001
0000
0000
0000
0000
0000
0001
1000
0001
0000
2000
0000
0000
0000
0000
0000
,
3000
0000
0000
0000
;
