#TITLE:Mind Mapping;
#SUBTITLE:;
#ARTIST:Ryu;
#TITLETRANSLIT:;
#SUBTITLETRANSLIT:;
#ARTISTTRANSLIT:;
#GENRE:;
#CREDIT:;
#BANNER:;
#BACKGROUND:;
#LYRICSPATH:;
#CDTITLE:;
#MUSIC:Mind Mapping.mp3;
#OFFSET:-0.436000;
#SAMPLESTART:79.206001;
#SAMPLELENGTH:14.980000;
#SELECTABLE:YES;
#BPMS:0.000000=128.000000
;
#STOPS:
;
#BGCHANGES:;
#KEYSOUNDS:;
#ATTACKS:;

//---------------dance-single - Shortysnmn2010----------------
#NOTES:
     dance-single:
     Shortysnmn2010:
     Beginner:
     1:
     0.116353,0.175892,0.043323,0.043323,0.000000,94.000000,89.000000,5.000000,5.000000,0.000000,0.000000,0.116353,0.175892,0.043323,0.043323,0.000000,94.000000,89.000000,5.000000,5.000000,0.000000,0.000000:
0000
0000
0000
0000
,
0000
0000
0000
0000
,
0000
0000
0000
0000
,
0000
0000
0000
0000
,
0020
0030
0000
0001
,
0001
0000
0000
0000
,
1000
0000
0000
0010
,
0010
0000
0000
0000
,
1000
0001
1000
0001
,
1000
0000
0000
0100
,
0100
0000
0000
0000
,
0010
0000
0000
0100
,
0100
0000
0100
0000
,
1000
0000
0000
0001
,
0001
0000
0000
0000
,
0010
0000
0000
0100
,
0100
0000
0000
0000
,
1000
0001
0000
0010
,
0000
0001
0000
1000
,
0000
0001
0000
0100
,
0200
0000
0000
0300
,
0010
1000
0000
0100
,
0000
1000
0000
0010
,
0000
0100
0000
0010
,
0020
0000
0030
0000
,
0100
0000
0100
0000
,
1001
0000
0000
0000
,
0010
0000
0010
0000
,
1001
0000
0000
0000
,
1000
0000
1000
0000
,
0110
0000
0000
0000
,
0001
0000
1000
0000
,
0010
0000
0000
0000
,
0200
0000
0000
0300
,
0001
1000
0001
1000
,
0200
0000
0000
0300
,
1000
0000
0001
0000
,
1000
0000
0000
0010
,
0010
0000
1000
0000
,
0010
0000
0000
0000
,
0100
0000
0000
0000
,
0010
0000
0000
0000
,
1000
0000
0001
0000
,
1000
0000
0000
0000
,
0001
0000
1000
0000
,
0001
0000
0000
0000
,
0010
0000
0100
0000
,
0010
0000
0000
0000
,
0100
0000
1000
0000
,
0100
0000
0000
0000
,
1000
0000
0000
0000
,
0010
0000
0000
0000
,
0100
0000
0000
0000
,
0001
0000
1001
0000
,
1000
0000
0000
0000
,
0100
0000
0000
0000
,
0010
0000
0000
0000
,
0001
0000
0100
0000
,
0101
0000
0000
0000
;

//---------------dance-single - Shortysnmn2010----------------
#NOTES:
     dance-single:
     Shortysnmn2010:
     Easy:
     3:
     0.165865,0.201019,0.103975,0.138634,0.000000,134.000000,122.000000,12.000000,16.000000,17.000000,0.000000,0.165865,0.201019,0.103975,0.138634,0.000000,134.000000,122.000000,12.000000,16.000000,17.000000,0.000000:
0000
0000
0000
0000
,
0000
0000
0000
0000
,
0000
0000
0000
0000
,
0000
0000
0000
0000
,
1000
0001
0100
0001
,
1000
0000
0001
0000
,
0001
1000
0100
1000
,
0001
0000
0000
0000
,
0010
0010
0010
0110
,
1000
0000
0001
0000
,
0100
0010
010M
0000
,
0010
0000
1000
0000
,
0100
0000
M010
0000
,
0002
0003
0200
0300
,
2000
3000
00M2
0003
,
0200
0300
2000
3000
,
0200
0000
M00M
0300
,
0010
0000
0000
1000
0000
0000
0000
0100
,
0000
0000
0000
0010
0000
0000
0000
0001
,
0000
0000
0000
1000
0000
0000
0000
1010
,
0000
0000
0000
0101
0000
0000
0000
0000
,
0001
0000
0000
0010
0000
0000
0000
0100
,
0000
0000
0000
1000
0000
0000
0000
0100
,
0000
0000
0000
0010
0000
0000
0000
0001
,
0000
0000
0000
2002
0000
3003
0000
0000
,
2000
3000
0MM0
0001
,
0002
0003
MM00
0010
,
0020
0030
M00M
0100
,
0200
0000
0000
M30M
,
0010
0001
0010
0001
,
0100
0000
0100
0000
,
0010
0000
1000
0000
,
1100
0000
0000
0000
,
2000
0000
00MM
3000
,
0100
0010
0001
1001
,
2000
0000
0MM0
3000
,
0001
0000
1001
0000
,
0001
0000
0010
0001
,
0010
0000
0100
0000
,
1000
0000
0010
1000
,
0010
0000
0000
0000
,
2000
0000
3000
1001
,
0001
0100
0001
1000
,
0100
0000
0100
0000
,
1000
0001
0010
0001
,
0100
0000
0110
0000
,
0010
1000
0010
1000
,
0001
0000
1000
0000
,
0001
0100
0001
0100
,
0010
0000
0000
0000
,
1000
0000
0000
0100
0000
0000
0000
0010
,
0000
0000
0000
0001
0000
0000
0000
0100
,
0000
0000
0000
0010
0000
0000
0000
1000
,
0000
0000
0000
1100
0000
0000
0000
0000
,
0010
0000
0000
0001
0000
0000
0000
1000
,
0000
0000
0000
0100
0000
0000
0000
0001
,
0000
0000
0000
0100
0000
0000
0000
1000
,
0000
0000
0000
1010
0000
0000
0000
0000
,
1001
0000
0000
0000
;

//---------------dance-single - Shortysnmn2010----------------
#NOTES:
     dance-single:
     Shortysnmn2010:
     Medium:
     5:
     0.279743,0.326656,0.121305,0.207951,0.012997,226.000000,212.000000,14.000000,24.000000,36.000000,0.000000,0.279743,0.326656,0.121305,0.207951,0.012997,226.000000,212.000000,14.000000,24.000000,36.000000,0.000000:
0000
0000
0000
0000
,
0000
0000
0000
0000
,
0000
0000
0000
0000
,
0000
0000
0000
0000
,
1000
0000
0100
1000
0100
0000
0010
0000
,
0100
0000
1000
0010
1000
0000
0100
0000
,
0010
0000
0001
0000
0100
0000
0010
0100
,
0010
0000
0000
0000
,
1000
1000
1000
0110
,
M001
0000
0010
0001
0010
0000
0001
0000
,
0100
0000
0010
0100
0010
0000
0100
0000
,
M001
0000
0010
0000
0100
0000
0010
0100
,
0010
0000
0000
0100
1000
0000
0000
0000
,
0002
01M3
2000
31M0
,
0002
0M13
2000
3M10
,
0002
01M3
0002
0M13
,
0220
0000
M00M
0330
,
0001
0000
1000
0100
0000
1000
0000
1010
,
0000
0100
0000
0001
0000
0010
0000
0011
,
0000
0001
0010
0001
0000
1000
0000
0020
,
0000
0030
0000
0220
0000
0330
0000
0000
,
0001
0000
1000
0100
0000
0001
0000
0101
,
0000
0100
0000
1000
0000
0010
0000
1000
,
0010
0000
1000
0010
0000
0100
0000
0001
,
0000
1000
0000
2002
0000
3003
0000
0000
,
M001
0010
1M00
0010
,
M001
0100
100M
0100
,
00M1
1000
010M
0010
,
M002
0000
0MM0
0003
,
11M0
1000
001M
0100
,
00M1
1000
01M0
0001
,
M200
0000
0000
0000
0300
0000
0000
0000
100M
0000
0000
0100
0000
0000
0010
0000
,
M002
0100
1003
0000
,
0020
0030
0200
0300
,
0001
1000
0001
1000
0001
0000
0110
0000
,
2000
3000
0002
0003
,
0010
0000
0000
0100
0010
0000
0000
0000
,
0100
0000
1000
0100
1000
0000
0010
0000
,
0100
0000
0001
1000
0001
0000
0100
0000
,
1000
0000
0100
0000
0010
0000
1000
0001
,
1000
0000
0000
0000
,
0100
0000
0000
1000
0000
0000
0100
0000
0000
1000
0000
0000
0100
0000
0000
0000
,
M010
0000
0001
0010
0100
0000
1000
0000
,
0100
0000
0001
0100
1000
0000
0010
0000
,
010M
0000
0010
0000
1000
0000
0001
0010
,
0100
0000
0000
0010
0100
0000
0000
0000
,
100M
0000
0010
0100
0001
0000
0010
0000
,
0001
0000
0100
0010
1000
0000
0100
0000
,
M001
0000
0100
0000
0010
0000
0100
1000
,
0010
0000
0000
0000
,
M100
0001
0000
0010
0000
0100
0000
0010
,
0000
0001
0000
1000
0000
0001
0000
1001
,
00M0
1000
0100
0010
0000
0100
0000
2000
,
0000
3000
0000
0002
0000
0003
0000
0000
,
M100
0010
0100
0010
0000
1000
0000
1100
,
0000
0010
0000
0001
0000
1001
0000
1000
,
010M
1000
0100
1000
0000
0010
0000
0100
,
0000
0001
0000
0022
0000
0000
0033
0000
,
1MM1
0000
0000
0000
;

//---------------dance-single - Shortysnmn2010----------------
#NOTES:
     dance-single:
     Shortysnmn2010:
     Hard:
     9:
     0.505023,0.613454,0.424566,0.199286,0.147298,408.000000,359.000000,49.000000,23.000000,0.000000,0.000000,0.505023,0.613454,0.424566,0.199286,0.147298,408.000000,359.000000,49.000000,23.000000,0.000000,0.000000:
// measure 0
0000
0000
0000
0000
,  // measure 1
0000
0000
0000
0000
,  // measure 2
0000
0000
0000
0000
,  // measure 3
0000
0000
0000
0000
,  // measure 4
1000
0001
1000
0001
0010
0000
0001
1000
,  // measure 5
0100
1000
0010
0100
0001
0000
1001
0000
,  // measure 6
0010
1000
0010
1000
0001
0000
0010
0100
,  // measure 7
2000
0000
0000
0000
,  // measure 8
0001
0001
3001
0110
,  // measure 9
0101
0010
1000
0100
0011
0000
1100
0010
,  // measure 10
0001
0100
0010
0100
1001
0000
1001
0000
,  // measure 11
1010
0100
0001
1000
0011
0000
1100
0010
,  // measure 12
0002
0000
0000
0103
1001
0000
0000
0000
,  // measure 13
2010
0001
3010
0100
0102
0000
0013
0100
,  // measure 14
2100
0001
3100
0010
0012
0000
1003
0000
,  // measure 15
2010
0001
3010
0100
0102
0000
0013
0100
,  // measure 16
2000
0000
0000
3000
,  // measure 17
0001
0010
0100
1000
0010
1000
0001
1000
,  // measure 18
0100
1000
0010
1000
0100
1000
0010
1000
,  // measure 19
0001
0100
1000
0100
0001
0010
0100
2000
,  // measure 20
0100
0100
3100
0002
0100
0100
0103
0000
,  // measure 21
1000
0010
0100
0001
0010
0001
1000
0001
,  // measure 22
0010
0001
0100
0001
0010
0001
0100
0001
,  // measure 23
0010
0100
1000
0010
0001
0010
1000
0010
,  // measure 24
0001
0010
0100
0020
0100
0100
0130
0000
,  // measure 25
1000
0001
1000
0000
0001
0010
0000
0000
0001
1000
0100
0000
1000
0100
0000
0100
,  // measure 26
1000
0100
1000
0000
0010
1000
0000
0000
0001
0100
0001
0000
0010
0001
0000
0100
,  // measure 27
0001
0100
0010
0000
1000
0001
0000
0000
0010
0001
0010
0000
0100
1000
0000
1000
,  // measure 28
0010
1000
0001
0000
0100
0010
0000
0000
0000
0000
1001
0000
0000
0110
0000
1000
,  // measure 29
0100
1000
0001
0000
0010
0001
0000
0000
0100
0001
0100
0000
0010
1000
0000
0010
,  // measure 30
1000
0010
0100
0000
0001
0010
0000
0000
0100
1000
0001
0000
0100
0010
0000
0100
,  // measure 31
0002
0000
0000
0000
0003
0000
0000
0000
1000
0000
0000
0110
0000
0000
0001
0000
,  // measure 32
2200
0000
0000
3300
,  // measure 33
1000
0100
0010
0001
0100
1000
0100
0001
,  // measure 34
0010
0100
0010
0100
0010
0000
0110
0000
,  // measure 35
0100
1000
0001
0010
0001
1000
0100
0001
,  // measure 36
0200
0000
0000
1300
1001
0000
0000
0000
,  // measure 37
0001
1000
0001
1000
0100
0000
0010
0001
,  // measure 38
0100
1000
0100
0001
0010
0000
0110
0000
,  // measure 39
0100
1000
0010
1000
0100
0000
0010
0001
,  // measure 40
0200
0000
0000
0300
,  // measure 41
0110
0000
0000
1010
0000
0000
0101
0000
0000
0110
0000
0000
1001
0000
0000
0000
,  // measure 42
1100
0010
0001
0100
1010
0000
0101
0010
,  // measure 43
1000
0001
0010
0001
1100
0000
1100
0000
,  // measure 44
0011
0100
1000
0010
1001
0000
0101
0010
,  // measure 45
2000
0000
0000
3100
0011
0000
0000
0000
,  // measure 46
0110
0001
1000
0100
1001
0000
0110
1000
,  // measure 47
0001
0100
1000
0100
1001
0000
1001
0000
,  // measure 48
0110
0001
0010
0100
1001
0000
0011
0100
,  // measure 49
2000
0000
0000
3000
,  // measure 50
1000
0001
0010
0100
1000
0100
0001
0100
,  // measure 51
0010
0100
1000
0100
0010
0100
0001
0100
,  // measure 52
1000
0001
0100
0001
1000
0100
0010
0002
,  // measure 53
0100
0000
0100
0000
0103
0000
2000
0000
0100
0000
0100
0000
3100
0010
0100
0010
,  // measure 54
0100
1000
0010
0100
0001
0100
1000
0100
,  // measure 55
0010
0100
0001
0100
1000
0100
0010
1000
,  // measure 56
0100
0010
0001
1000
0010
1000
0100
1000
,  // measure 57
0000
1010
0000
0101
0001
0010
0100
1000
,  // measure 58
2002
0000
0000
0000
,  // measure 59
3003
0000
0000
0000
;
