#TITLE:Mind Mapping;
#SUBTITLE:Kors K Mix;
#ARTIST:Ryu;
#TITLETRANSLIT:;
#SUBTITLETRANSLIT:;
#ARTISTTRANSLIT:;
#GENRE:;
#CREDIT:;
#BANNER:;
#BACKGROUND:;
#LYRICSPATH:;
#CDTITLE:;
#MUSIC:Mind Mapping (Kors K Mix).mp3;
#OFFSET:-0.064000;
#SAMPLESTART:76.129997;
#SAMPLELENGTH:10.492000;
#SELECTABLE:YES;
#BPMS:0.000000=183.000000
;
#STOPS:
;
#BGCHANGES:;
#KEYSOUNDS:;
#ATTACKS:;

//---------------dance-single - Shortysnmn2010----------------
#NOTES:
     dance-single:
     Shortysnmn2010:
     Beginner:
     1:
     0.113740,0.188889,0.032497,0.064994,0.000000,98.000000,94.000000,4.000000,8.000000,4.000000,0.000000,0.113740,0.188889,0.032497,0.064994,0.000000,98.000000,94.000000,4.000000,8.000000,4.000000,0.000000:
0000
0000
0000
0000
,
0000
0000
0000
0000
,
0000
0000
0000
0000
,
0000
0000
0000
0000
,
0000
0000
0000
0000
,
0000
0000
0000
0000
,
0000
0000
0000
0000
,
0000
0000
0000
0000
,
0000
1000
0000
0000
0000
0000
0000
0000
,
0000
0001
0000
0000
0000
0000
0000
0000
,
0000
0010
0000
0000
0000
0000
0000
0000
,
0000
0100
0000
0000
0000
0100
0000
0000
,
0000
0100
0000
0000
0000
0000
0000
0000
,
0000
1000
0000
0000
0000
0000
0000
0000
,
0000
0010
0000
0000
0000
0000
0000
0000
,
0200
0000
0300
0000
,
0010
0000
0000
0000
,
0000
0000
1000
0000
,
0001
0000
0000
0000
,
0000
0000
0001
0000
,
0010
0000
0000
0000
,
0000
0000
0100
0000
,
1000
0000
0000
0000
,
0010
0000
0000
0000
,
0110
0000
0000
0000
,
0000
0000
0100
0000
,
0010
0000
0000
0000
,
0000
0000
1000
0000
,
0100
0000
0000
0000
,
0000
0000
0010
0000
,
0001
0000
0000
0000
,
0100
0000
0000
0000
,
0220
0000
0000
0000
,
0000
0000
0330
0000
,
1000
0000
0000
0000
,
0001
0000
0000
0000
,
0010
0000
0000
0000
,
0100
0000
0100
0000
,
0100
0000
0000
0000
,
1000
0000
0000
0000
,
0100
0000
0000
0000
,
0010
0000
0010
0000
,
0010
0000
0000
0000
,
0001
0000
0000
0000
,
0100
0000
0000
0000
,
0001
0000
0000
0000
,
1000
0000
0000
0000
,
0100
0000
0000
0000
,
0001
0000
0000
0000
,
0100
0000
0000
0000
,
1000
0000
0000
0000
,
1001
0000
0000
0000
,
0001
0000
0000
0000
,
1001
0000
0000
0000
,
2000
0000
3000
0000
,
0002
0000
0003
0000
,
2000
3000
0002
0003
,
1000
0000
0000
MMMM
,
1000
0000
0000
0000
,
0100
0000
0000
0000
,
0010
0000
0000
0000
,
0001
0000
1000
0000
,
0001
0000
0000
0000
,
0100
0000
0000
0000
,
0010
0000
0000
0000
,
1000
0000
0100
0000
,
1000
0000
0000
0000
,
0001
0000
0000
0000
,
0010
0000
0000
0000
,
0001
0000
0100
0000
,
0001
0000
0000
0000
,
1000
0000
0000
0000
,
0010
0000
0000
0000
,
0001
0000
0010
0000
,
0001
0000
0000
0000
,
0010
0000
0000
0000
,
1000
0000
0000
0000
,
0100
0000
0000
0000
,
0010
0000
0000
0000
,
0001
0000
0000
0000
,
1000
0000
0010
0000
,
0100
0000
0010
0000
,
1000
0000
0000
0000
,
0100
0000
0000
0000
,
0010
0000
0000
0000
,
0001
0000
0000
0000
,
1000
0000
0000
0000
,
0001
0000
0000
0000
,
0010
0000
0100
0000
,
0010
0000
0100
0000
,
2000
0000
0000
0000
,
0000
0000
0000
0000
,
0000
0000
0000
0000
,
3000
0000
0000
0000
;

//---------------dance-single - Shortysnmn2010----------------
#NOTES:
     dance-single:
     Shortysnmn2010:
     Easy:
     4:
     0.277386,0.340001,0.024373,0.073118,0.000000,239.000000,236.000000,3.000000,9.000000,0.000000,0.000000,0.277386,0.340001,0.024373,0.073118,0.000000,239.000000,236.000000,3.000000,9.000000,0.000000,0.000000:
0000
0000
0000
0000
,
0000
0000
0000
0000
,
0000
0000
0000
0000
,
0000
0000
0000
0000
,
0000
1000
0000
0100
0000
0010
0000
0000
,
0000
0001
0000
0010
0000
0100
0000
0000
,
0000
1000
0000
0010
0000
0100
0000
0000
,
0000
0001
0000
0000
0000
1000
0000
0000
,
0000
0001
0000
0010
0000
0001
0000
0000
,
0000
1000
0000
0010
0000
1000
0000
0000
,
0000
0001
0000
0100
0000
0001
0000
0000
,
0000
0010
0000
0000
0000
0010
0000
0000
,
0000
0100
0000
0000
0000
0100
0000
0000
,
0000
1000
0000
0000
0000
1000
0000
0000
,
0000
0010
0000
0100
0000
0010
0000
0100
,
0020
0000
0000
0030
,
1000
0000
0000
0001
0000
0001
0000
0001
,
0000
0001
0010
0000
0001
0000
0100
0000
,
0001
0000
0000
1000
0000
1000
0000
1000
,
0000
1000
0000
1000
0010
0000
0100
0000
,
0010
0000
0000
0100
0000
0100
0000
0100
,
0000
0100
0001
0000
0010
0000
0001
0000
,
1000
0000
0000
0100
0000
0100
1000
0000
,
0001
0000
0001
0000
,
0010
0000
0000
0100
0000
0100
0000
0100
,
0000
0100
1000
0000
0010
0000
1000
0000
,
0001
0000
0000
0010
0000
0010
0000
0010
,
0000
0010
0000
0010
0100
0000
1000
0000
,
0010
0000
0000
1000
0000
1000
0000
1000
,
0000
1000
0001
0000
0100
0000
0001
0000
,
0010
0000
0000
0100
0000
0100
0010
0000
,
0001
0000
0000
0000
,
2002
0000
0000
0000
,
3003
0000
0000
0000
,
1000
0000
0001
0000
,
0100
0010
0100
0000
,
0001
0000
1000
0000
,
0100
0010
0100
0010
,
0100
0000
1000
0000
,
0001
0100
0001
0000
,
1000
0000
0010
0000
,
0001
0010
0001
0010
,
0001
0000
0010
0000
,
1000
0001
1000
0000
,
0100
0000
0010
0000
,
0000
0100
0000
0100
1000
0000
0000
0000
,
0010
0000
0100
0000
,
0001
0010
0001
0000
,
0100
0000
0010
0000
,
0000
1000
0000
0000
0000
0001
0000
0000
,
0000
0010
0000
0000
0000
0100
0000
0000
,
0000
1000
0000
0000
0000
0010
0000
0000
,
0000
1000
0000
0000
0000
0100
0000
0000
,
0000
0010
0000
0000
0000
0001
0000
0000
,
0200
0000
0300
0000
,
0200
0000
0300
0000
,
0020
0030
0020
0030
,
1001
0000
0000
0000
,
1000
0100
1000
0000
,
0001
0100
0010
0100
,
0001
0010
0001
0000
,
0000
1000
0000
1000
0001
0000
0000
0000
,
1000
0010
1000
0000
,
0100
0010
0100
1000
,
0010
0100
0010
0000
,
0000
0100
0000
0100
0001
0000
0010
0000
,
0001
1000
0001
0000
,
1000
0100
0001
0100
,
1000
0001
1000
0000
,
0000
0010
0000
0010
1000
0000
0000
0000
,
0001
0100
0001
0000
,
0010
0001
0010
0100
,
1000
0010
1000
0000
,
0001
1000
0001
0100
,
0010
0000
0000
1000
0000
0000
0000
0001
,
0000
0000
0000
0010
0000
0000
0000
0100
,
0000
1000
0000
0100
0000
0000
0000
1000
,
0000
0000
0000
0010
0000
0000
0000
0000
,
0100
0000
0000
0001
0000
0000
0000
0010
,
0000
0000
0000
0001
0000
1000
0000
0001
,
0000
0000
0000
0100
0000
0000
0000
0010
,
0000
0000
0000
1000
0000
0000
0000
0000
,
0100
0000
0000
0010
0000
0000
0000
0001
,
0000
0000
0000
0100
0000
0010
0000
0100
,
0000
0000
0000
0001
0000
0000
0000
1000
,
0000
0000
0000
0100
0000
0000
0000
0000
,
0010
0000
0000
0100
0000
0000
0000
1000
,
0000
0000
0000
0010
0000
1000
0000
0010
,
0000
0000
0000
0100
0000
0000
0000
0001
,
0000
0000
0000
0010
0000
0000
0000
0000
,
2002
0000
0000
0000
,
0000
0000
0000
0000
,
0000
0000
0000
0000
,
3003
0000
0000
0000
;

//---------------dance-single - Shortysnmn2010----------------
#NOTES:
     dance-single:
     Shortysnmn2010:
     Medium:
     6:
     0.360950,0.453334,0.105615,0.113740,0.000000,311.000000,298.000000,13.000000,14.000000,0.000000,0.000000,0.360950,0.453334,0.105615,0.113740,0.000000,311.000000,298.000000,13.000000,14.000000,0.000000,0.000000:
0000
0000
0000
0000
,
0000
0000
0000
0000
,
0000
0000
0000
0000
,
0000
0000
0000
0000
,
0000
1000
0000
0100
0000
1000
0000
0001
,
0000
0100
0000
0001
0000
1000
0000
0010
,
0000
1000
0000
0001
0000
0010
0000
0001
,
0000
1000
0000
0010
0000
0000
0000
0000
,
0000
1000
0000
0001
0000
0010
0000
0100
,
0000
1000
0000
0001
0000
0100
0000
0010
,
0000
1000
0000
0100
0000
0010
0000
0001
,
0000
0100
0000
0010
0000
0000
0000
0000
,
0000
0100
0000
0010
0000
0000
0000
0000
,
0000
0010
0000
0100
0000
0000
0000
0000
,
0000
0110
0000
1001
0000
0110
0000
2002
,
0000
3003
0000
0000
,
1000
0000
0001
0010
0000
0010
0000
0010
,
0000
0010
0001
0000
0100
0000
0010
0000
,
1000
0000
0100
0010
0000
0010
0000
0010
,
0000
0010
0000
0010
0100
0000
1000
0000
,
0001
0000
0010
0100
0000
0100
0000
0100
,
0000
0100
1000
0000
0010
0000
1000
0000
,
0100
0000
0010
0100
0000
0100
1000
0000
,
0100
0000
1000
0000
,
0001
0000
0010
0001
0000
0001
0000
0001
,
0000
0001
0100
0000
0010
0000
0100
0000
,
0001
0000
0010
1000
0000
1000
0000
1000
,
0000
1000
0000
1000
0010
0000
0100
0000
,
1000
0000
0010
1000
0000
1000
0000
1000
,
0000
1000
0100
0000
0010
0000
0001
0000
,
0100
0000
0001
0010
0000
0010
0001
0000
,
0100
0000
0010
0000
,
2002
0000
0000
0000
,
3003
0000
0000
0000
,
1000
0000
0001
0000
,
0010
0001
0100
0000
,
0001
0000
1000
0000
,
0100
0010
0100
0010
,
0001
0000
1000
0000
,
0001
0100
0001
0000
,
1000
0000
0010
0000
,
1000
0001
1000
0001
,
0010
0000
0100
0000
,
1000
0100
0010
0001
,
1000
0000
0001
0000
,
0000
1000
0000
1000
0010
0000
0000
0000
,
0100
0000
0001
0000
,
1000
0100
0010
0100
,
1000
0000
0010
0000
,
0000
0100
0000
0000
0000
0001
0000
0000
,
0000
0010
0000
0000
0000
0100
0000
0000
,
0000
1000
0000
0000
0000
0010
0000
0000
,
0000
1000
0000
0000
0000
0001
0000
0000
,
0000
0010
0000
0000
0000
0100
0000
0000
,
2000
3000
0001
0100
,
0002
0003
1000
0010
,
2000
3000
0002
0003
,
0020
0000
0030
0110
,
1000
0000
0100
0010
0100
0000
1000
0000
,
0010
0100
0001
0001
,
0010
0000
0001
0010
0001
0000
1000
0000
,
0000
0010
0000
0010
1000
0000
0000
0000
,
0100
0000
0010
0100
0010
0000
0001
0000
,
1000
0010
0100
0100
,
0010
0000
1000
0001
1000
0000
0100
0000
,
0000
0010
0000
0010
0001
0000
0000
0000
,
1000
0000
0001
0100
0001
0000
1000
0000
,
0010
0100
0010
0010
,
1000
0000
0100
1000
0100
0000
0010
0000
,
0000
0001
0000
0001
0100
0000
0000
0000
,
1000
0000
0100
0001
0100
0000
0010
0000
,
0100
0001
0010
0100
,
1000
0000
0010
1000
0010
0000
1000
0000
,
0002
1000
1003
0000
,
0001
0000
0010
0001
0000
0100
0000
0010
,
0000
0100
0000
0001
0000
0011
0000
0100
,
0000
1000
0100
1000
0000
0010
0000
0100
,
0000
0000
0000
0110
0000
0000
0000
0000
,
1000
0000
0100
0010
0000
0001
0000
0100
,
0000
1000
0000
0100
0000
0101
0000
0001
,
0100
0000
0001
0100
0000
0010
0000
1000
,
0000
0002
0000
2000
0000
3003
0000
0000
,
0001
0000
1000
0100
0000
0010
0000
0001
,
0000
1000
0000
0010
0000
1010
0000
1000
,
0000
0100
1000
0100
0000
0010
0000
0001
,
0000
0000
0000
0100
0000
0000
0000
0000
,
0001
0010
0001
0010
0000
0100
0000
1000
,
0000
0010
0000
1000
0000
1100
0000
0010
,
0001
0000
0010
0001
0000
0100
0000
0010
,
0000
1000
0000
1100
0000
0000
0000
0000
,
2002
0000
0000
0000
,
0000
0000
0000
0000
,
0000
0000
0000
0000
,
3003
0000
0000
0000
;

//---------------dance-single - Shortysnmn2010----------------
#NOTES:
     dance-single:
     Shortysnmn2010:
     Hard:
     8:
     0.474689,0.566668,0.170610,0.129988,0.000000,409.000000,388.000000,21.000000,16.000000,0.000000,0.000000,0.474689,0.566668,0.170610,0.129988,0.000000,409.000000,388.000000,21.000000,16.000000,0.000000,0.000000:
0000
0000
0000
0000
,
0000
0000
0000
0000
,
0000
0000
0000
0000
,
0000
0000
0000
0000
,
0000
0010
0000
0001
0000
0010
0000
0001
,
0000
1000
0000
0010
0000
1000
0000
0010
,
0000
0100
0000
0001
0000
0010
0000
0001
,
0000
0100
0000
0010
0000
1001
0000
1001
,
0000
0010
0000
0100
0000
0010
0000
0100
,
0000
1000
0000
0001
0000
1000
0000
0001
,
0000
0100
0000
0010
0000
1000
0000
0001
,
0000
0010
0000
0001
0000
1100
0000
1100
,
0000
0010
0000
0100
0000
1001
0000
1001
,
0000
0100
0000
1000
0000
0011
0000
0011
,
0000
0100
0000
1001
0000
0010
0000
0100
,
2000
0000
0000
3000
,
0001
1000
0010
0100
0000
0100
0000
0100
,
0000
0100
0001
0000
0010
0001
0100
0000
,
0010
0000
1000
0001
0000
0001
0000
0001
,
0000
0001
0000
0001
0100
0000
0010
1000
,
0100
0000
0010
0001
0000
0001
0000
0001
,
0000
0001
0010
0000
0100
1000
0010
0000
,
1000
0000
0001
0100
0000
0100
0010
0000
,
1000
0001
1000
0001
0010
0100
0010
0100
,
1000
0010
0100
0001
0000
0001
0000
0001
,
0000
0001
0100
0000
0010
1000
0100
0000
,
1000
0000
0010
1000
0000
1000
0000
1000
,
0000
1000
0000
1000
0100
0000
0010
0001
,
0100
0000
0010
0100
0000
0100
0000
0100
,
0000
0100
0001
0000
0010
0001
0100
0000
,
0001
0000
0010
0001
0000
0001
0010
0000
,
0001
1000
0001
1000
0100
0010
0100
0010
,
0002
0000
0000
0000
,
0003
0000
0000
0000
,
1000
0000
0100
0000
0001
0000
0100
1000
,
0100
1000
0020
1000
,
1030
0000
0001
0000
0100
0000
0010
0200
,
0001
0001
0020
0330
,
1000
0000
0001
0000
0100
0000
0010
0100
,
0001
0010
0200
0010
,
0310
0000
0001
0000
1000
0000
0010
2000
,
0200
0000
0000
3300
,
1000
0001
0100
0001
1000
0000
0001
1000
,
0001
0010
0001
0100
,
0010
0100
0010
0100
0010
0000
1000
0001
,
0000
0010
0000
0010
0002
0000
0003
0000
,
0100
0010
1000
0010
0100
0000
0001
0010
,
0001
0100
0010
1000
,
0100
0010
0100
0010
0100
0000
1000
0100
,
0000
0001
0000
0100
0000
1000
0000
0001
,
0000
0100
0000
1000
0000
0100
0000
0001
,
0000
1000
0000
0100
0000
0001
0000
1000
,
0000
0001
0000
0100
0000
1000
0000
0001
,
0000
0100
0000
1000
0000
0100
0000
0001
,
2000
0000
3000
0000
,
0002
0000
0003
0000
,
0020
0030
0200
0300
,
1000
0001
0100
0010
0100
0001
0010
0000
,
0100
1000
0100
1000
0100
0000
1000
0010
,
1000
0001
0100
0001
,
0010
0001
0010
0001
0010
0000
0100
1000
,
0000
1010
0000
1000
0200
0000
0300
0000
,
0010
0001
0010
0001
0100
0000
0010
0100
,
0010
1000
0001
0100
,
1000
0100
1000
0100
0001
0000
1000
0100
,
0000
0110
0000
0010
0100
0000
0000
0000
,
1000
0100
0010
0001
0010
0000
0001
0100
,
0001
0010
0100
1000
,
0001
0100
0010
1000
0010
0000
0100
0001
,
0000
0011
0000
0001
0100
0000
0000
0000
,
0001
1000
0001
1000
0100
0000
0010
0001
,
0100
0001
0010
0100
,
1000
0010
0100
0010
0001
0000
0010
0000
,
0100
0001
0010
0000
,
0100
0001
0010
0001
0000
1000
0000
0100
,
0000
0001
0000
0100
0000
1000
0000
1010
,
0000
1000
0001
0100
0000
0010
0000
0110
,
0000
0000
0000
1001
0000
0000
0000
0000
,
0010
0001
0100
0001
0000
0010
0000
0100
,
0000
1000
0000
0010
0000
0110
0000
0100
,
0001
1000
0001
0100
0000
0010
0000
1000
,
0000
0001
0000
1001
0000
0000
0000
0000
,
1000
0100
0010
0001
0000
1000
0000
0010
,
0000
0001
0000
0010
0000
0100
0000
0110
,
0000
0010
1000
0100
0000
0010
0000
0001
,
0000
0000
0000
1001
0000
0000
0000
0000
,
0001
0100
0001
0100
0000
0010
0000
0100
,
0000
0001
0000
0010
0000
0110
0000
0100
,
1000
0100
0010
0001
0000
0100
0000
0010
,
0000
1000
0000
0001
0000
0000
0000
0000
,
0220
0000
0000
0000
,
0000
0000
0000
0000
,
0000
0000
0000
0000
,
0330
0000
0000
0000
;

//---------------dance-single - Shortysnmn2010----------------
#NOTES:
     dance-single:
     Shortysnmn2010:
     Challenge:
     9:
     0.662708,0.672689,0.454959,0.203107,0.008124,571.000000,515.000000,56.000000,25.000000,0.000000,0.000000,0.662708,0.672689,0.454959,0.203107,0.008124,571.000000,515.000000,56.000000,25.000000,0.000000,0.000000:
// measure 0
0000
0000
0000
0000
,  // measure 1
0000
0000
0000
0000
,  // measure 2
0000
0000
0000
0000
,  // measure 3
0000
0000
0000
0000
,  // measure 4
0000
1000
0100
1000
0000
0001
0100
0001
,  // measure 5
0000
1000
0010
0100
0000
0001
0010
0100
,  // measure 6
0000
1000
0001
1000
0000
0001
1000
0001
,  // measure 7
0000
0010
0100
0010
0000
0110
0000
1001
,  // measure 8
0000
1000
0100
0010
0000
0001
0010
0100
,  // measure 9
0000
1000
0001
0100
0000
0001
1000
0100
,  // measure 10
0000
0010
0100
0010
0000
0001
1000
0001
,  // measure 11
0000
0100
0010
0100
0000
0110
0000
1001
,  // measure 12
0000
0010
0100
1000
0000
1100
0000
0011
,  // measure 13
0000
0001
0100
1000
0000
1100
0000
0011
,  // measure 14
0000
1100
0000
0110
0000
1001
0000
1000
,  // measure 15
0200
0000
0000
0300
0200
0000
0000
0300
0100
0010
0001
0010
0200
0000
0000
0300
,  // measure 16
1000
0010
0100
0001
0000
0011
0000
0101
,  // measure 17
0000
0001
0100
1000
0100
0010
1000
0010
,  // measure 18
0100
0001
0010
0100
0000
1100
0000
1010
,  // measure 19
0000
1100
0000
1000
0100
0010
0001
1000
,  // measure 20
0001
0100
0010
1000
0000
1100
0000
0101
,  // measure 21
0000
0100
0010
0100
1000
0010
0100
0001
,  // measure 22
0010
0100
1000
0001
0000
0001
0100
1000
,  // measure 23
0100
0001
0100
1000
0100
0001
0100
0010
,  // measure 24
1000
0100
0010
0001
0000
0101
0000
1100
,  // measure 25
0000
0100
0001
0010
0001
1000
0100
0010
,  // measure 26
0100
1000
0010
0100
0000
0101
0000
0011
,  // measure 27
0000
0101
0000
0001
1000
0001
0010
0100
,  // measure 28
1000
0010
1000
0100
0000
1100
0000
1010
,  // measure 29
0000
1000
0100
0010
0001
0010
0100
1000
,  // measure 30
0001
1000
0010
0100
0000
0100
0010
1000
,  // measure 31
0010
0001
0010
1000
0010
0001
0010
0100
,  // measure 32
0020
0000
0000
0000
,  // measure 33
0000
0000
0030
0000
,  // measure 34
1000
0000
0100
0000
1100
0000
1000
0010
,  // measure 35
0100
0002
1000
1003
,  // measure 36
0001
0000
0010
0000
0011
0000
0001
1000
,  // measure 37
0200
0010
0010
0310
0002
1000
1000
1003
,  // measure 38
0010
0000
0100
0000
0110
0000
0010
1000
,  // measure 39
0100
0020
0100
0130
,  // measure 40
0010
0000
0001
0000
1001
0000
1000
0100
,  // measure 41
0020
0001
0001
0031
2000
0010
0010
3010
,  // measure 42
0100
0000
0001
0010
0001
0000
0100
0010
,  // measure 43
0100
0000
0001
0010
0100
0000
1001
0000
,  // measure 44
1000
0000
0010
1000
0100
0000
0010
0001
,  // measure 45
0000
0011
0000
0001
1000
0000
0110
0000
,  // measure 46
0001
0000
1000
0010
0100
0000
0001
1000
,  // measure 47
0100
0000
0010
0100
1000
0000
1001
0000
,  // measure 48
0001
0000
0100
0010
1000
0000
0001
0010
,  // measure 49
0000
0011
0000
0100
0000
1000
0000
0010
,  // measure 50
0000
1001
0000
0100
0000
0001
0000
0010
,  // measure 51
0000
1001
0000
0010
0000
0001
0000
0100
,  // measure 52
0000
1001
0000
0010
0000
1000
0000
0001
,  // measure 53
0000
0110
0000
1000
0000
0001
0000
0010
,  // measure 54
0100
1000
0100
0001
0100
1000
0100
0010
,  // measure 55
0001
0100
0001
1000
0001
0010
0001
0100
,  // measure 56
0020
2030
3002
0023
,  // measure 57
0130
0000
1000
0000
0001
0000
1000
0000
0100
0000
0010
0000
0220
0000
0000
0330
,  // measure 58
0001
1000
0100
0010
0001
0000
0100
0010
,  // measure 59
1000
0010
0100
0001
0010
0000
0011
0000
,  // measure 60
0100
1000
0100
0010
0001
0000
0100
0010
,  // measure 61
0000
1010
0000
1000
0100
0000
0011
0000
,  // measure 62
1000
0001
0100
0001
1000
0000
0010
0100
,  // measure 63
0001
0010
1000
0010
0100
0000
0110
0000
,  // measure 64
0100
1000
0010
0100
0001
0000
0010
0001
,  // measure 65
0000
1001
0000
1000
0010
1000
0200
0000
,  // measure 66
0310
0001
1000
0010
0100
0000
0001
1000
,  // measure 67
0100
0001
0100
1000
0100
0000
1100
0000
,  // measure 68
0010
0001
0100
1000
0100
0000
0001
0010
,  // measure 69
0000
0011
0000
0100
1000
0000
1001
0000
,  // measure 70
0100
0010
0001
0100
0001
0000
0010
0100
,  // measure 71
1000
0010
0001
0010
0100
0000
1100
0000
,  // measure 72
1000
0100
0001
0010
1000
0000
0010
0000
,  // measure 73
0001
1000
0100
1001
,  // measure 74
0001
0010
0100
1000
0010
1000
0001
1000
,  // measure 75
0100
1000
0010
1000
0100
1000
0010
1000
,  // measure 76
0001
0100
1000
0100
0001
0010
0100
2000
,  // measure 77
0100
0100
3100
0002
0100
0100
0103
0000
,  // measure 78
1000
0010
0100
0001
0010
0001
1000
0001
,  // measure 79
0010
0001
0100
0001
0010
0001
0100
0001
,  // measure 80
0010
0100
1000
0010
0001
0010
1000
0010
,  // measure 81
0001
0010
0100
0020
0100
0100
0130
0000
,  // measure 82
0001
1000
0010
0100
1000
0100
0010
0100
,  // measure 83
1000
0100
0001
0100
0010
0100
0001
0100
,  // measure 84
0010
1000
0001
1000
0100
0010
0001
2000
,  // measure 85
0010
0010
3010
0002
0010
0010
0013
0000
,  // measure 86
0100
0001
0100
0000
1001
0000
1100
0000
,  // measure 87
1001
0000
0011
0000
0110
0000
1100
1000
,  // measure 88
0010
0100
0001
0010
0001
1000
0001
0100
,  // measure 89
0010
1000
0100
0020
0000
0000
0030
0000
,  // measure 90
2002
0000
0000
0000
,  // measure 91
0000
0000
0000
0000
,  // measure 92
3003
0000
0000
0000
;
