#TITLE:Karma;
#SUBTITLE:(TOTA US Intro);
#ARTIST:Bump of Chicken;
#TITLETRANSLIT:;
#SUBTITLETRANSLIT:;
#ARTISTTRANSLIT:;
#GENRE:;
#CREDIT:;
#BANNER:Karma.png;
#BACKGROUND:Karma-bg.png;
#LYRICSPATH:;
#CDTITLE:;
#MUSIC:Karma.mp3;
#OFFSET:-0.237000;
#SAMPLESTART:80.820999;
#SAMPLELENGTH:10.458000;
#SELECTABLE:YES;
#BPMS:0.000000=195.074997
,228.000000=97.538002
,242.000000=195.074997
;
#STOPS:
;
#BGCHANGES:0.000=Karma (TOTA US Intro).avi=1.000=0=0=0=StretchNoLoop====,
99999=-nosongbg-=1.000=0=0=0 // don't automatically add -songbackground-
;
#KEYSOUNDS:;
#ATTACKS:;

//---------------dance-single - Anonymous----------------
#NOTES:
     dance-single:
     Shortysnmn2010:
     Beginner:
     2:
     0.133602,0.232634,0.007793,0.077934,0.000000,120.000000,119.000000,1.000000,10.000000,0.000000,0.000000,0.133602,0.232634,0.007793,0.077934,0.000000,120.000000,119.000000,1.000000,10.000000,0.000000,0.000000:
0000
0000
0000
0000
,
0000
0000
0000
0000
,
0000
0000
0000
0000
,
0000
0000
0000
0000
,
0000
0000
0000
0000
,
0000
0000
0000
0000
,
0000
0000
0000
0000
,
0000
0000
0000
0000
,
1000
0000
0000
0000
,
0001
0000
0000
0000
,
0010
0000
0000
0000
,
0010
0000
0010
0000
,
0100
0000
0100
0000
,
0000
0000
0000
0000
,
1000
0000
0000
0000
,
0001
0000
0000
0000
,
0010
0000
0000
0002
,
0000
0003
0000
0000
,
1000
0000
0000
0020
,
0000
0030
0000
0000
,
0100
0000
0000
0020
,
0000
0030
0000
0000
,
1000
0000
0000
0000
,
0001
0000
0000
0000
,
1000
0000
0001
0001
,
0000
0000
0000
0010
,
0010
0000
0010
0000
,
0010
0000
0000
0100
,
0100
0000
1000
0000
,
0100
0000
0000
0000
,
0010
0000
0000
0001
,
0000
0000
0000
0000
,
1000
0000
0010
0010
,
0000
0000
0000
1000
,
1000
0000
0001
0000
,
0010
0010
0000
0000
,
0100
0000
1000
0000
,
0100
0000
0000
0000
,
0010
0000
0000
0010
,
0000
0000
0000
0000
,
0001
0000
1000
0000
,
0001
0000
0000
0000
,
1000
0000
0000
0000
,
0100
0000
0000
0000
,
0010
0000
0000
0000
,
0001
0000
0000
0000
,
1000
0000
0000
0000
,
0010
0000
0000
0000
,
0001
0000
0010
0000
,
0001
0000
0010
0000
,
0001
0000
0000
0000
,
0010
0000
0000
0000
,
0100
0000
0000
0000
,
0001
0000
0000
0000
,
0010
0000
0100
0000
,
0010
0000
0100
0000
,
0020
0000
0030
0000
,
1001
0000
0001
0000
,
0000
0000
0010
0010
,
0010
0000
0100
0000
,
0000
1000
1000
0000
,
0000
0002
0000
0000
,
0003
0000
1000
0000
,
0000
0100
0000
0000
,
0000
0010
0010
0000
,
0010
0000
0100
0100
,
0000
0000
1000
0000
,
0000
0000
0001
0000
,
0000
0000
1000
0000
,
0000
0002
0000
0003
,
0000
0000
1000
0000
,
0100
0100
0000
0000
,
0000
0010
0010
0000
,
0010
0000
0001
0000
,
0000
0000
0100
0000
,
0001
0000
0000
0000
,
1000
0000
0010
0000
,
0000
2000
0000
3000
,
0000
0000
0100
0000
,
0000
0000
1000
0000
,
0001
0000
2000
0000
,
0000
0000
3000
0000
,
0001
0000
0001
0000
,
0000
0000
0010
0000
,
0001
0000
0020
0000
,
0000
0000
0030
0000
,
0100
0000
0200
0000
,
0000
0000
0300
0000
,
0000
0000
1000
0000
,
0000
0000
0001
0000
,
1000
0000
0001
0000
,
0000
0000
0000
0000
,
0000
0000
0010
0000
,
0000
0000
0100
0000
,
0000
0000
0010
0000
,
0000
0000
0000
0000
,
0000
0000
0001
0000
,
0000
0000
0100
0000
,
0000
0000
0001
0000
,
0000
0000
1000
0000
;

//---------------dance-single - Anonymous----------------
#NOTES:
     dance-single:
     Shortysnmn2010:
     Easy:
     4:
     0.269430,0.389672,0.077934,0.233803,0.003897,242.000000,232.000000,10.000000,30.000000,0.000000,0.000000,0.269430,0.389672,0.077934,0.233803,0.003897,242.000000,232.000000,10.000000,30.000000,0.000000,0.000000:
0000
0000
0000
0000
,
0000
0000
0000
0000
,
0000
0000
0000
0000
,
0000
0000
0000
0000
,
0000
0000
0000
0000
,
0000
0000
0000
0000
,
0000
0000
0000
0000
,
0000
0000
0000
0000
,
2000
3000
1000
0000
,
0002
0003
0001
0000
,
1000
0010
0100
0001
,
1000
0001
1000
0000
,
0001
0010
0001
0000
,
0000
0000
0000
1000
,
0000
0000
0000
0010
0000
0001
0000
0010
,
0000
0000
0000
0000
,
0100
0000
0000
0100
0000
0000
0002
0000
,
0003
0000
0000
1000
0000
0000
0000
0000
,
0100
0000
0000
0100
0000
0000
2000
0000
,
3000
0000
0000
0010
0000
0000
0000
0000
,
0100
0000
0000
0100
0000
0000
0002
0000
,
0003
0000
0000
1000
0000
0000
0000
0000
,
0200
0300
1000
0001
,
0100
0001
1000
0000
,
0001
0100
0001
0020
,
0000
0030
0000
0001
,
0001
0000
1000
0000
,
0010
0010
0000
1000
,
0100
0000
0010
0000
0100
0000
0000
1000
,
0000
0010
1000
0000
,
0001
0000
0000
1000
0000
0000
1001
0000
,
0000
0000
0010
0000
,
1000
0100
1000
0020
,
0000
0030
0000
1000
,
1000
0000
0100
0000
,
0001
0001
0000
0100
,
0010
0100
1000
0020
,
0030
0100
0001
0100
,
0010
0000
0000
0010
0000
0000
2001
0000
,
0000
0100
0000
3001
,
1001
0000
0001
0010
,
0002
0003
2000
3000
,
0001
0100
0010
0100
,
0002
0003
2000
3000
,
0100
0010
0100
1000
,
0010
0100
0010
1000
,
0100
0010
0100
0010
,
0002
0003
2000
3000
,
0010
0000
0010
0000
,
1001
0000
0100
0000
,
0001
1000
0100
0001
,
0200
0300
0020
0030
,
0001
0100
0010
0100
,
0001
0010
0001
0100
,
2000
3000
0100
0001
,
0100
0001
1000
0100
,
0020
0000
0030
0000
,
2002
0000
3003
0000
1000
0000
0010
0010
,
0000
0000
0000
0010
0010
0000
1000
0000
,
0100
0000
0100
0000
0000
0000
0010
0000
0010
0000
0000
0000
0001
0000
0000
0100
,
0000
0000
0100
0000
0010
0000
0000
1000
,
0000
0100
0000
0000
,
0010
0001
1000
0001
,
0100
0020
0000
0030
,
0000
1000
0100
0000
,
0010
0000
0100
1000
,
0000
0010
1000
0001
,
0100
0000
0000
0010
0000
0000
0100
0000
,
0001
0000
0000
0000
0010
0000
0000
0100
,
0000
1000
0000
0010
,
1000
0000
0001
0010
,
0001
0200
0000
0300
,
0000
0001
1000
0000
,
0100
0000
1000
0001
,
0000
0100
0010
1000
,
0100
0000
0000
0010
0000
0000
0100
0000
,
1000
0000
0100
0000
0010
0000
0000
0001
,
0000
0010
0000
0001
,
0000
0000
1000
0001
,
1000
0001
0010
0000
,
0010
0000
0200
0000
,
1000
0000
0310
0000
,
0100
1000
0200
0000
,
0010
0000
1300
0000
,
1001
0000
0002
0000
,
0000
0000
1003
0000
,
1001
0000
0101
0000
,
1000
0000
0010
0000
,
0100
0000
0020
0000
,
0000
0000
0130
0000
,
0101
0000
2002
0000
,
0000
0000
3003
0000
,
0000
0000
1000
0000
,
0100
0000
0010
0000
,
0001
0000
1000
0000
,
0001
0000
1000
0000
,
0000
0000
0010
0000
,
1000
0000
0001
0000
,
0100
0000
0001
0000
,
0010
0000
0100
1000
,
0100
0000
0000
0000
;

//---------------dance-single - Anonymous----------------
#NOTES:
     dance-single:
     Shortysnmn2010:
     Medium:
     6:
     0.398579,0.467607,0.202630,0.413052,0.003897,358.000000,332.000000,26.000000,53.000000,0.000000,0.000000,0.398579,0.467607,0.202630,0.413052,0.003897,358.000000,332.000000,26.000000,53.000000,0.000000,0.000000:
// measure 0
0000
0000
0000
0000
,  // measure 1
0000
0000
0000
0000
,  // measure 2
0000
0000
0000
0000
,  // measure 3
0000
0000
0000
0000
,  // measure 4
0000
0000
0000
0000
,  // measure 5
0000
0000
0000
0000
,  // measure 6
0000
0000
0000
0000
,  // measure 7
0000
0000
0000
0000
,  // measure 8
1000
1100
2000
3000
,  // measure 9
0001
0101
0002
0003
,  // measure 10
1000
1000
0010
0010
,  // measure 11
0100
0000
0001
0000
0011
0000
0000
0001
,  // measure 12
1000
0000
0100
0000
1000
0001
0000
0100
,  // measure 13
0000
0010
0000
0100
0000
0000
0110
0000
,  // measure 14
0100
0001
0000
0010
0000
0001
0000
2000
,  // measure 15
0000
3000
0000
0001
0000
0001
0010
0000
,  // measure 16
0100
0000
0000
1001
0000
0000
2200
0000
,  // measure 17
3300
0000
0000
0010
0000
0010
0001
0000
,  // measure 18
0100
0000
0000
1010
0000
0000
2002
0000
,  // measure 19
3003
0000
0000
0100
0000
0100
1000
0000
,  // measure 20
0001
0000
0000
0110
0000
0000
2002
0000
,  // measure 21
3003
0000
0000
0010
0000
0001
0010
0001
,  // measure 22
0010
0001
0100
0010
,  // measure 23
0100
0001
0011
0000
,  // measure 24
0100
1000
0100
2002
,  // measure 25
0000
3003
0000
1000
,  // measure 26
0010
0000
0000
1000
0010
0000
0000
1000
,  // measure 27
0100
1000
0100
0000
0000
0000
0010
0000
,  // measure 28
0001
0000
0100
0000
0010
0100
0000
0001
,  // measure 29
0000
0000
0010
0000
0001
0100
0000
0000
,  // measure 30
0001
0000
1000
0100
0000
1000
0002
0000
,  // measure 31
0003
0100
0001
0000
1000
0000
0100
0000
,  // measure 32
1000
0100
0010
2002
,  // measure 33
0000
3003
0000
0100
,  // measure 34
0010
0000
0000
1000
0010
0000
0000
0100
,  // measure 35
0001
1000
0001
0000
0000
0000
1000
0000
,  // measure 36
0001
0000
0100
0000
1000
0000
0100
0002
,  // measure 37
0000
1000
0100
1003
,  // measure 38
0001
0000
1000
0001
0000
1000
0002
0000
,  // measure 39
0003
1000
0100
0000
0010
0000
0001
0000
,  // measure 40
2000
3000
0001
0100
,  // measure 41
0001
1000
0002
0003
,  // measure 42
1000
0100
1000
0100
,  // measure 43
0020
0031
0020
0031
,  // measure 44
0100
0010
1000
0100
,  // measure 45
0020
0001
0100
0031
,  // measure 46
1000
0010
1000
0010
,  // measure 47
0200
0301
0200
0301
,  // measure 48
1000
0000
0000
1000
0001
0000
0000
0001
,  // measure 49
1000
0000
0000
1000
0001
1000
0000
0000
,  // measure 50
0100
0010
0100
0010
,  // measure 51
0002
0103
0002
0103
,  // measure 52
0002
0010
1000
0013
,  // measure 53
2000
0010
0001
3010
,  // measure 54
0002
0003
1000
0010
,  // measure 55
0100
0001
1000
0100
,  // measure 56
0220
0000
0000
0330
,  // measure 57
0110
0000
0000
0000
0100
0000
1000
2000
,  // measure 58
0000
3000
0000
0001
0001
0000
1000
0000
,  // measure 59
0001
0000
0001
0000
0000
0000
1000
0000
1000
0000
0000
0000
0010
0000
0000
1000
,  // measure 60
0000
0100
0100
0000
0010
0000
0000
0100
,  // measure 61
0000
0220
0000
0330
,  // measure 62
0001
0100
0001
0010
,  // measure 63
0100
2002
0000
3003
,  // measure 64
0000
0000
0010
0000
1000
0000
0000
0100
,  // measure 65
0010
0000
0000
0100
1000
0100
1000
0000
,  // measure 66
0000
0010
0100
0001
,  // measure 67
0100
0010
0000
0100
0000
0000
0001
0000
,  // measure 68
1000
0000
0100
0000
1000
0000
0010
1000
,  // measure 69
0000
0100
2000
0000
3000
0100
1000
0000
,  // measure 70
0010
0100
0001
1000
,  // measure 71
0001
0220
0000
0330
,  // measure 72
0000
0000
0001
0000
1000
0000
0000
0100
,  // measure 73
0010
0000
0000
0100
1000
0100
1000
0000
,  // measure 74
0000
0001
0100
1000
,  // measure 75
0100
0000
0010
0100
0000
0000
0001
0000
,  // measure 76
0010
0000
0001
0000
1000
0000
0100
0001
,  // measure 77
0000
0100
2000
0000
3000
0010
1000
0000
,  // measure 78
0100
0010
0100
0100
,  // measure 79
1000
0010
0200
0300
,  // measure 80
0020
0030
0200
0000
,  // measure 81
0010
0000
0310
0000
,  // measure 82
1000
0001
1000
0000
0200
0000
0300
0000
,  // measure 83
0010
0100
0020
0030
,  // measure 84
0200
0300
2000
0100
,  // measure 85
0001
3100
1000
0010
,  // measure 86
1010
0000
0002
1000
,  // measure 87
0100
1003
0001
0010
,  // measure 88
0110
0000
2000
0010
,  // measure 89
0001
3100
1000
0001
,  // measure 90
0101
0000
0002
0010
,  // measure 91
1000
0103
0001
0010
,  // measure 92
0011
0000
1000
0100
,  // measure 93
1000
0100
0000
1000
0000
1100
0000
0100
,  // measure 94
0000
1100
0000
2000
0000
0000
0001
0000
,  // measure 95
3001
0000
0000
0002
0000
0000
1000
0000
,  // measure 96
1003
0000
0000
0001
0100
0000
0001
0000
,  // measure 97
0100
0001
0000
0010
0000
0011
0000
0001
,  // measure 98
0000
0011
0000
0002
0000
0000
1000
0000
,  // measure 99
1003
0000
0000
2000
0000
0000
0001
0000
,  // measure 100
3001
0000
0000
0000
;

//---------------dance-single - Anonymous----------------
#NOTES:
     dance-single:
     Shortysnmn2010:
     Hard:
     8:
     0.548881,0.703163,0.475400,0.397466,0.023380,493.000000,432.000000,61.000000,51.000000,0.000000,0.000000,0.548881,0.703163,0.475400,0.397466,0.023380,493.000000,432.000000,61.000000,51.000000,0.000000,0.000000:
0000
0000
0000
0000
,
0000
0000
0000
0000
,
0000
0000
0000
0000
,
0000
0000
0000
0000
,
0000
0000
0000
0000
,
0000
0000
0000
0000
,
0000
0000
0000
0000
,
0000
0000
0000
0000
,
1000
0000
0001
0000
1001
0000
1000
0010
,
1000
0000
0001
0100
0002
0000
0003
1000
,
0010
0010
0100
0100
0001
0001
0010
0010
,
0100
0000
1000
0000
1010
0000
0000
0010
,
1000
0000
0001
0000
0100
0020
0000
0100
,
0000
0130
0000
0110
0000
0000
1001
0000
,
0001
0010
0000
1000
0000
0010
0000
0002
,
0000
0003
0000
1001
0000
1000
0010
1000
,
0010
0000
0100
0010
0000
0100
0001
0010
,
0000
0000
0100
1000
0000
0010
1000
0100
,
1000
0000
0001
0010
0000
1000
0010
0002
,
0000
0003
0000
1001
0000
1000
0100
1000
,
0100
0000
0001
0100
0000
1000
0010
0100
,
0000
0000
0010
0100
0000
0001
0010
0200
,
0010
1300
1001
1100
,
0110
0011
2002
3003
,
0001
0100
0010
0100
0001
0010
0001
0000
,
1000
0100
1000
0000
0010
0000
0100
0010
,
0200
0000
0300
0001
0200
0000
0300
1000
,
0100
0001
0200
0000
0300
0000
0110
0000
,
0010
0000
1000
0000
0100
1000
0000
2010
,
0000
0000
3001
0000
1000
0100
0000
0000
,
0110
0000
0010
0001
0000
0010
0200
0000
,
0300
1000
0100
0000
1000
0000
1000
0000
,
0010
1000
0010
0100
0001
0010
0001
0000
,
1000
0010
1000
0000
0001
0000
0010
0100
,
0020
0000
0030
1000
0020
0000
0030
0001
,
0010
1000
0020
0000
0030
0000
0110
0000
,
0100
0000
1000
0000
1001
0000
0001
0200
,
0000
0310
1000
0001
,
0011
0000
0100
0010
0000
0001
0020
0000
,
0030
0100
1000
0000
0010
1000
0001
0000
,
0202
0000
0303
0000
0010
1000
0100
0000
,
1000
0000
0100
0000
0001
0100
1000
0100
,
0001
0100
1000
0010
,
0021
1030
1020
0031
,
0010
1000
0100
0001
,
0201
1000
0001
1300
,
0001
0100
1000
0100
,
0102
0013
0012
0103
,
1001
0000
0000
1000
0001
0000
0000
0001
,
1000
0000
0000
0001
1000
0001
0000
0000
,
1000
0010
0100
0001
,
2100
3010
0102
0013
,
0110
0011
1001
1010
,
0110
0101
1001
1100
,
0220
0330
0001
1000
,
0010
0100
0001
0000
1000
0000
0100
0000
,
1100
0000
0001
0100
0001
0100
0001
0100
,
0001
0000
1000
0100
1000
0010
0100
0110
,
0000
0000
0000
0000
0000
0000
0010
0100
0010
0000
0000
0100
0010
0000
0000
0100
,
0001
0010
0001
0000
0000
0000
1000
0000
0100
0000
1000
0000
0001
0000
0100
0010
,
0000
0000
0100
0000
0001
0100
0000
0000
0110
0000
0000
0000
1000
0000
0001
0000
,
0000
0001
1000
0000
1000
0001
0000
0001
,
1000
0000
0100
0000
0010
0001
1000
0100
,
1000
0010
1000
0000
0001
0100
0001
0000
,
1000
0000
0010
0100
0002
0000
0003
0010
,
0002
0000
0003
0100
0001
0010
0002
0000
,
0003
1001
1000
0100
,
0010
0001
0000
0201
0000
0000
1000
0000
,
0010
0000
0301
0000
1001
0000
1000
0100
,
0000
0001
0200
0000
0300
1000
0100
0000
,
1000
0000
1000
0000
0001
0100
0010
0100
,
1000
0100
0001
0000
0010
0100
0010
0000
,
0100
0000
0010
0100
2000
0000
3000
0010
,
2000
0000
3000
0100
1000
0010
2000
0000
,
3000
1001
0001
0010
,
1000
0000
0010
0200
0000
0000
0001
0000
,
0010
0000
1300
0000
1001
0000
0001
0010
,
0000
1000
0020
0000
0030
0001
0010
0000
,
0001
0100
0001
0000
1000
0000
1000
0000
,
0100
0010
0012
1003
,
2100
3001
1001
0000
,
0110
0000
0000
0000
1000
0001
1000
0000
,
0010
0100
0010
0000
0220
0000
0330
0000
,
0100
0001
2000
3000
,
0100
0010
0002
0010
,
1000
0103
0001
0010
,
0210
1300
2100
3010
,
0100
0001
0010
0001
,
1000
0000
2000
0010
,
0001
3100
2100
3010
,
0210
0301
0102
0013
,
0001
1000
0100
0010
,
0001
0000
1000
0001
,
0010
0001
0000
0011
0000
0100
0000
0011
,
0000
1000
0000
0011
0000
0100
1000
0100
,
1000
0100
0000
0110
0000
0010
0001
0010
,
0001
0010
0000
0100
1000
0000
0010
0000
,
1000
0010
0000
1010
0000
0001
0000
1010
,
0000
0100
0000
1010
0000
0100
0001
0100
,
0001
0100
0000
0110
0000
0010
1000
0010
,
2000
3000
0000
0000
;
