#TITLE:I'm Blue;
#SUBTITLE:Hannover Remix;
#ARTIST:Eiffel 65;
#TITLETRANSLIT:;
#SUBTITLETRANSLIT:;
#ARTISTTRANSLIT:;
#GENRE:;
#CREDIT:;
#BANNER:;
#BACKGROUND:;
#LYRICSPATH:;
#CDTITLE:;
#MUSIC:I'm Blue (Hannover Remix).mp3;
#OFFSET:-0.482000;
#SAMPLESTART:88.276001;
#SAMPLELENGTH:14.559000;
#SELECTABLE:YES;
#BPMS:0.000000=136.000000
;
#STOPS:
;
#BGCHANGES:;
#KEYSOUNDS:;
#ATTACKS:;

//---------------dance-single - ----------------
#NOTES:
     dance-single:
     Shortysnmn2010:
     Beginner:
     1:
     0.119198,0.194203,0.050063,0.066751,0.000000,100.000000,94.000000,6.000000,8.000000,0.000000,0.000000,0.119198,0.194203,0.050063,0.066751,0.000000,100.000000,94.000000,6.000000,8.000000,0.000000,0.000000:
0000
0000
0000
0000
,
0000
0000
0000
0000
,
0000
0000
0000
0000
,
0000
0000
0000
0000
,
0001
0000
0001
0000
,
0001
0000
0000
1000
,
1000
0000
1000
0000
,
0000
0000
0000
0000
,
0010
0000
0100
0000
,
0100
0000
0000
0000
,
0001
0000
0010
0000
,
0010
0000
0000
0000
,
0001
0000
1000
0000
,
0001
0000
1000
0000
,
0001
0000
1000
0000
,
0001
0000
0000
0000
,
0010
0000
0000
0000
,
0100
0000
0000
0000
,
0001
0000
0000
0000
,
0010
0000
0100
0000
,
0010
0000
0000
0000
,
0001
0000
0000
0000
,
1000
0000
0000
0000
,
0020
0000
0030
0000
,
1000
0000
0000
0000
,
0100
0000
0000
0000
,
0010
0000
0001
0000
,
0100
0000
0000
0000
,
0001
0000
0000
0000
,
1000
0000
0000
0000
,
0010
0000
0000
0000
,
2000
0000
3000
0000
,
0001
0000
0010
0000
,
0001
0000
0000
1000
,
1000
0000
0010
0000
,
0100
0200
0000
0300
,
0001
0000
1000
0000
,
0001
0000
0000
1001
,
1001
0000
0000
0000
,
1000
2000
3000
0000
,
0010
0000
0100
0000
,
0010
0000
0000
0110
,
0110
0000
0000
0000
,
0100
0200
0300
0000
,
0001
0000
0010
0000
,
0001
0000
0000
0011
,
0011
0000
0000
0000
,
0001
0002
0003
0000
,
1000
0000
0010
0000
,
2000
0000
3000
0000
,
0001
0000
0000
0000
,
0010
0000
0000
0000
,
0100
0000
0010
0000
,
0100
0000
0000
0000
,
1000
0000
0000
0000
,
0010
0000
0000
0000
,
0100
0000
0001
0000
,
0100
0000
0000
0010
,
0010
0000
1000
0000
,
0100
0000
0000
0000
,
1000
0000
0001
0000
,
1000
0000
0000
0000
,
0001
0000
0010
0000
,
0001
0000
0000
0000
,
0100
0000
0010
0000
,
0100
0000
0000
0001
,
2000
0000
3000
0000
;

//---------------dance-single - ----------------
#NOTES:
     dance-single:
     Shortysnmn2010:
     Hard:
     7:
     0.421960,0.443892,0.216940,0.050063,0.000000,354.000000,328.000000,26.000000,6.000000,0.000000,0.000000,0.421960,0.443892,0.216940,0.050063,0.000000,354.000000,328.000000,26.000000,6.000000,0.000000,0.000000:
// measure 0
0000
0000
0000
0000
,  // measure 1
0000
0000
0000
0000
,  // measure 2
0000
0000
0000
0000
,  // measure 3
0000
0000
0000
0000
,  // measure 4
1000
0100
0001
0100
,  // measure 5
1000
0010
0000
0010
0000
0010
1000
0000
,  // measure 6
0010
0000
0100
0000
1001
0000
0000
1000
,  // measure 7
0000
1000
0000
0001
0010
0000
0001
0000
,  // measure 8
0100
0010
0000
1000
0000
0100
0000
0001
,  // measure 9
0100
0000
1000
0000
0010
0000
0100
0001
,  // measure 10
0010
0001
0000
1001
0000
1000
0010
0000
,  // measure 11
0100
0010
0000
0010
0000
0110
0000
0100
,  // measure 12
0001
1100
1000
0011
,  // measure 13
0001
1010
1000
0101
,  // measure 14
0010
0000
0000
1000
0100
0010
0000
0100
,  // measure 15
1000
0010
0000
0110
0000
0000
0101
0000
,  // measure 16
1001
0000
0010
1000
0100
1000
0001
0100
,  // measure 17
0000
0000
0001
0010
0001
0000
0100
0010
,  // measure 18
0100
0000
0001
0010
0001
1000
0010
1000
,  // measure 19
0000
0000
0100
0010
0100
0000
1000
0010
,  // measure 20
1000
0000
0001
0100
1000
0100
0001
0010
,  // measure 21
0000
0000
0001
1000
0100
0000
0001
0100
,  // measure 22
1000
0000
0010
1000
0001
0100
0001
0020
,  // measure 23
0000
0030
0000
1100
,  // measure 24
1001
0000
1000
0010
1000
0001
0010
0001
,  // measure 25
0000
0000
0100
0010
0100
0000
0001
0010
,  // measure 26
0001
0000
1000
0100
0010
1000
0010
0100
,  // measure 27
0000
0000
1000
0010
0100
0000
0001
1000
,  // measure 28
0100
0000
0001
0100
0010
0100
1000
0010
,  // measure 29
0000
0000
0100
0001
1000
0000
0010
1000
,  // measure 30
0100
0000
1000
0010
0100
0010
0001
0010
,  // measure 31
0000
1000
0000
0001
0000
0010
0000
0000
,  // measure 32
0110
0000
0000
0000
,  // measure 33
0000
0000
0000
1001
,  // measure 34
1001
0000
1000
0010
1000
0100
1000
0001
,  // measure 35
0100
0001
0010
0000
0000
0200
1000
1000
,  // measure 36
0310
0000
0011
0000
0001
0100
0000
0100
,  // measure 37
0001
1000
0100
0010
0100
0000
0110
0000
,  // measure 38
0110
0000
0010
0001
0100
1000
0100
0010
,  // measure 39
0100
0001
0010
0000
0000
0020
0001
0001
,  // measure 40
0130
0000
1000
0000
0001
1000
0000
1000
,  // measure 41
0001
0010
0000
0110
,  // measure 42
1100
0000
1000
0100
1000
0010
0100
1000
,  // measure 43
0100
0010
0100
0000
0000
0020
1000
1000
,  // measure 44
0130
0000
0001
0000
0010
0001
0000
0001
,  // measure 45
0100
0000
0010
0100
0000
0000
0101
0000
,  // measure 46
0101
0000
0001
1000
0100
0010
0100
0001
,  // measure 47
0100
0010
0001
0000
0000
2000
0010
0010
,  // measure 48
3001
0000
0100
0000
0001
0010
0000
0010
,  // measure 49
0001
0000
1000
0100
0000
0000
1100
0000
,  // measure 50
1001
0000
0001
0100
0010
0100
0001
1000
,  // measure 51
0000
0000
0100
0010
0001
0000
0100
0010
,  // measure 52
1000
0000
0001
1000
0100
0010
1000
0010
,  // measure 53
0000
0000
0001
0100
0010
0000
0001
0010
,  // measure 54
1000
0000
0100
0010
1000
0010
0100
1000
,  // measure 55
0000
0000
0010
0100
0001
0000
0100
0001
,  // measure 56
0010
0000
0001
1000
0100
0001
0100
1000
,  // measure 57
0000
0000
0000
0110
,  // measure 58
0101
0000
0010
1000
0100
1000
0010
0100
,  // measure 59
0000
0000
0001
0010
0001
0000
0100
0010
,  // measure 60
1000
0000
0001
0010
0100
0010
0001
1000
,  // measure 61
0000
0000
0010
1000
0001
0000
0100
0001
,  // measure 62
1000
0000
0100
1000
0001
0100
0010
1000
,  // measure 63
0000
0000
0001
0010
0001
0000
1000
0010
,  // measure 64
0001
0000
1000
0100
0001
0010
0001
1000
,  // measure 65
0000
0100
0010
0100
0000
1000
0000
0001
,  // measure 66
0020
0000
0030
0000
;

//---------------dance-single - ----------------
#NOTES:
     dance-single:
     Shortysnmn2010:
     Easy:
     4:
     0.209788,0.307470,0.091782,0.116814,0.000000,176.000000,165.000000,11.000000,14.000000,0.000000,0.000000,0.209788,0.307470,0.091782,0.116814,0.000000,176.000000,165.000000,11.000000,14.000000,0.000000,0.000000:
0000
0000
0000
0000
,
0000
0000
0000
0000
,
0000
0000
0000
0000
,
0000
0000
0000
0000
,
1000
0000
0001
0000
,
1000
0000
0000
1000
0000
0000
0001
0000
,
1000
0000
0100
0000
,
0000
0000
0010
0000
,
0001
0000
0000
0000
0100
0000
0000
0001
,
0000
0000
1000
0000
,
0010
0000
0000
0000
1000
0000
0000
0100
,
0000
0000
1000
0000
,
0001
1000
0001
0100
,
0001
1000
0100
1000
,
0001
0000
1000
0000
,
2002
3003
0000
0000
,
1000
0000
0100
0010
,
0100
0000
1000
0000
,
0010
0000
0100
0001
,
0010
0000
0001
0000
,
1000
0000
0010
1000
,
0001
0000
0100
0000
,
1000
0000
0100
0001
,
0200
0000
0300
0000
,
0001
0010
0001
1000
,
0000
0000
0010
0000
,
1000
0100
1000
0001
,
0000
0000
0010
0000
,
0001
0100
0010
1000
,
0000
0000
0100
0000
,
1000
0010
0100
0001
,
0000
0000
0000
0000
,
1000
0001
0010
0001
,
1000
0100
1000
1001
,
1001
0000
0001
0000
,
0010
0020
0030
0000
,
0110
0000
1000
0000
,
0001
0001
0100
0110
,
0110
0000
1000
0000
,
0001
0002
0003
0000
,
1000
0000
0100
0000
,
0010
0010
0001
1001
,
1001
1000
0001
0100
,
0001
2000
3000
0000
,
0010
1000
0001
0000
,
0010
0100
0010
0110
,
0110
0100
1000
0010
,
0100
0020
0030
0000
,
0100
0001
1000
0000
,
0001
0000
0000
1001
0000
0000
0000
0000
,
1000
0100
0010
0002
,
0003
1000
0100
0000
,
1000
0010
0100
0002
,
0003
0010
0001
0000
,
0100
0001
0010
0200
,
0300
1000
0001
0000
,
0100
0010
1000
0010
,
0100
0000
0000
0000
,
0010
1000
0100
0020
,
0030
0001
1000
0000
,
0001
0100
1000
0200
,
0300
0001
1000
0000
,
0001
0010
1000
0020
,
0030
0001
1000
0000
,
0010
0100
0001
0010
,
0001
0000
1000
0000
,
0200
0000
0000
0000
,
0300
0000
0000
0000
;

//---------------dance-single - ----------------
#NOTES:
     dance-single:
     Shortysnmn2010:
     Medium:
     6:
     0.337329,0.388405,0.191908,0.125157,0.000000,283.000000,260.000000,23.000000,15.000000,0.000000,0.000000,0.337329,0.388405,0.191908,0.125157,0.000000,283.000000,260.000000,23.000000,15.000000,0.000000,0.000000:
0000
0000
0000
0000
,
0000
0000
0000
0000
,
0000
0000
0000
0000
,
0000
0000
0000
0000
,
1000
0100
1000
0001
,
0010
0001
0000
0002
0000
0003
0000
0000
,
1000
0000
0010
0000
1000
0000
0000
0010
,
0000
0100
0000
0020
0000
0030
0000
0000
,
1000
0100
0000
0010
0000
0100
0000
1000
,
0100
0010
0001
0100
,
0001
1000
0000
0010
0000
1000
0001
0000
,
0010
0001
0000
1000
0000
0100
0000
0010
,
0100
0000
1100
0000
1000
0010
0100
0000
,
0001
0000
0101
0000
0001
0010
0100
0000
,
1100
0000
0000
1000
0001
1000
0000
0001
,
0010
0001
0000
1000
0000
0000
0000
0000
,
0001
0000
0100
0010
1000
0000
0100
1000
,
0000
0010
0100
0001
,
0011
0000
1000
0100
1000
0000
0001
0100
,
0000
0010
1000
0100
,
0110
0000
1000
0010
0100
0000
0001
0010
,
0000
0001
0100
0010
,
1010
0000
0001
0100
1000
0000
0100
0020
,
0000
0000
0000
0130
,
0101
0000
0010
1000
0100
0000
0010
0001
,
0000
0100
0010
0100
,
0101
0000
0010
1000
0100
0000
1000
0010
,
0000
1000
0001
1000
,
0101
0000
0100
0001
0010
0000
0001
0100
,
0000
0010
1000
0100
,
0011
0000
0100
0010
0100
0000
0010
0001
,
0000
0000
0000
0000
0000
1000
0100
1000
,
0002
0000
0000
0000
,
0000
0000
0000
0013
,
1001
1000
0100
0001
,
0100
0000
0020
0000
0030
0100
1000
0100
,
1000
0000
0010
0000
0100
0001
0000
0001
,
0100
0020
0030
0101
,
0101
0100
0010
0100
,
0001
0000
0020
0000
0030
0100
0010
0100
,
0010
0000
0001
0000
0100
0001
0000
0001
,
0010
0200
0300
1100
,
1100
1000
0010
0001
,
0010
0000
0200
0000
0300
0001
0100
0001
,
0100
0000
0010
0000
1000
0010
0000
0010
,
0001
0020
0030
0110
,
0110
0001
1000
0100
,
0010
0000
0200
0000
0300
0010
1000
0010
,
1000
0000
0010
0000
0001
0100
0000
0100
,
0020
0000
0030
0000
,
1100
0000
1000
0100
1000
0000
0100
1000
,
0000
0010
0100
0001
,
0011
0000
0010
0001
0010
0000
0001
0010
,
0000
0001
0100
0010
,
0110
0000
0100
0010
0100
0000
0010
0100
,
0000
0010
1000
0100
,
1100
0000
1000
0100
1000
0000
0001
2000
,
0000
0000
0000
3010
,
1001
0000
0001
0100
0001
0000
0100
0001
,
0000
0010
0001
0100
,
1000
0000
0100
0001
0100
0000
0001
0100
,
0000
0001
1000
0100
,
0010
0000
0100
0010
0100
0000
0010
0100
,
0000
1000
0010
0100
,
0001
0000
0010
0001
0010
0000
0001
1000
,
0000
0001
1000
0001
0000
0000
0100
0000
,
2002
0000
3003
0000
;

//---------------dance-single - ----------------
#NOTES:
     dance-single:
     Shortysnmn2010:
     Challenge:
     9:
     0.517318,0.501256,0.183564,0.158533,0.146017,434.000000,412.000000,22.000000,19.000000,0.000000,0.000000,0.517318,0.501256,0.183564,0.158533,0.146017,434.000000,412.000000,22.000000,19.000000,0.000000,0.000000:
// measure 0
0000
0000
0000
0000
,  // measure 1
0000
0000
0000
0000
,  // measure 2
0000
0000
0000
0000
,  // measure 3
0000
0000
0000
0000
,  // measure 4
0001
0101
1000
1100
,  // measure 5
0010
0001
0000
0010
0000
0001
0010
0000
,  // measure 6
0100
0000
1000
0000
1010
0000
0000
0100
,  // measure 7
0000
0001
0000
0100
0001
0000
0010
0000
,  // measure 8
0001
1000
0001
0000
1000
0000
0100
0000
0010
0000
0100
0000
1000
0000
0002
0000
,  // measure 9
0000
0100
0100
0000
1000
0000
0103
0000
,  // measure 10
0010
1000
0010
0000
1000
0000
0100
0000
1000
0000
0001
0000
0100
0000
0020
0000
,  // measure 11
0000
0100
0100
0000
1000
0000
0130
0000
,  // measure 12
0001
0010
0011
0000
0010
0001
0011
0000
,  // measure 13
0001
1000
0100
0010
0100
1000
0001
0000
,  // measure 14
0100
0001
0101
0000
0001
0100
0101
0000
,  // measure 15
1001
0000
0000
0010
,  // measure 16
1000
0100
1000
0000
0001
0000
0010
0000
0001
0000
1000
0000
0010
0000
2000
0000
,  // measure 17
0000
0000
3000
0000
0001
0000
0010
0000
0100
0010
0100
0000
0010
0000
0100
0000
,  // measure 18
1000
0100
1000
0000
0001
0000
0100
0000
0010
0000
0100
0000
0001
0000
0020
0000
,  // measure 19
0000
0000
0030
0000
0001
0000
1000
0000
0100
1000
0100
0000
1000
0000
0001
0000
,  // measure 20
0100
0001
0100
0000
0001
0000
1000
0000
0010
0000
1000
0000
0001
0000
0020
0000
,  // measure 21
0000
0000
0030
0000
0100
0000
1000
0000
0100
1000
0100
0000
1000
0000
0010
0000
,  // measure 22
1000
0010
1000
0000
0010
0000
0100
0000
0001
0000
0010
0000
0001
0000
0100
0000
,  // measure 23
0000
0100
0010
0200
0000
0000
0310
0000
,  // measure 24
0100
0001
0100
0000
0001
0000
0010
0000
0001
0000
1000
0000
0100
0000
2000
0000
,  // measure 25
0000
0000
3000
0000
0100
0000
0010
0000
0100
1000
0001
0000
0010
0000
0001
0000
,  // measure 26
1000
0001
0100
0000
0010
0000
0100
0000
1000
0000
0100
0000
0001
0000
2000
0000
,  // measure 27
0000
0000
3000
0000
0010
0000
0100
0000
0001
1000
0100
0000
0010
0000
0100
0000
,  // measure 28
1000
0001
0100
0000
0010
0000
0100
0000
0001
0000
0010
0000
0001
0000
0200
0000
,  // measure 29
0000
0000
0300
0000
0001
0000
0010
0000
0001
0100
0010
0000
0100
0000
0001
0000
,  // measure 30
0010
0100
1000
0000
0100
0000
0010
0000
1000
0000
0010
0000
0001
0000
1000
0000
,  // measure 31
0000
0000
1000
0000
0100
0000
1000
0000
0000
0000
1000
0010
1000
0000
0001
0000
,  // measure 32
0200
0000
0000
0000
,  // measure 33
0000
0300
0000
1001
,  // measure 34
1001
0001
0010
0001
1000
0100
0001
0100
,  // measure 35
1000
0000
0010
0000
2000
0000
0000
0000
3000
0000
0100
0010
0100
0000
1000
0000
,  // measure 36
1001
0000
0001
0000
0100
0001
0000
0001
,  // measure 37
0010
0001
1000
0010
0100
0000
0110
0000
,  // measure 38
1001
0001
0010
1000
0010
0100
1000
0010
,  // measure 39
1000
0000
0001
0000
0200
0000
0000
0000
0300
0000
0010
1000
0010
0000
0100
0000
,  // measure 40
0110
0000
0001
0000
1000
0100
0000
0100
,  // measure 41
1000
0010
1000
0100
0000
0000
0110
0000
,  // measure 42
0110
0100
1000
0010
0100
1000
0100
0010
,  // measure 43
1000
0000
0100
0000
0020
0000
0000
0000
0030
0000
0001
1000
0001
0000
0100
0000
,  // measure 44
0110
0000
1000
0000
0001
0010
0000
0010
,  // measure 45
0001
0100
0010
0100
0001
0000
1001
0000
,  // measure 46
1001
1000
0100
0001
0100
1000
0001
0100
,  // measure 47
1000
0000
0100
0000
0002
0000
0000
0000
0003
0000
1000
0100
1000
0000
0010
0000
,  // measure 48
1010
0000
1000
0000
0001
0010
0000
0010
,  // measure 49
0002
0003
0000
1001
,  // measure 50
1000
0100
1000
0000
0010
0000
1000
0000
0001
0000
0010
0000
0001
0000
0010
0000
,  // measure 51
0000
0000
0000
0000
0100
0000
0010
0000
0100
1000
0100
0000
1000
0000
0001
0000
,  // measure 52
0100
0001
0100
0000
0001
0000
1000
0000
0010
0000
1000
0000
0001
0000
0010
0000
,  // measure 53
0000
0000
0000
0000
0001
0000
0100
0000
0001
0010
0001
0000
1000
0000
0100
0000
,  // measure 54
0001
0100
0001
0000
0100
0000
1000
0000
0010
0000
1000
0000
0001
0000
0100
0000
,  // measure 55
0000
0000
0000
0000
0010
0000
0100
0000
0010
1000
0010
0000
0100
0000
0001
0000
,  // measure 56
0010
1000
0010
0000
0100
0000
0010
0000
0001
0000
1000
0000
0100
0000
1000
0000
,  // measure 57
0000
1000
0010
1000
0000
0000
1001
0000
,  // measure 58
0001
0010
0001
0000
1000
0000
0100
0000
0010
0000
0100
0000
1000
0000
0020
0000
,  // measure 59
0000
0000
0000
0000
0130
0000
0000
0000
0001
0100
0001
0000
0100
0000
0010
0000
,  // measure 60
0100
0001
0100
0000
0001
0000
0010
0000
0100
0000
0010
0000
0001
0000
2000
0000
,  // measure 61
0000
0000
0000
0000
3010
0000
0000
0000
1000
0010
1000
0000
0100
0000
1000
0000
,  // measure 62
0010
1000
0010
0000
0100
0000
0001
0000
0010
0000
0001
0000
0100
0000
0002
0000
,  // measure 63
0000
0000
0000
0000
0013
0000
0000
0000
0001
0010
0001
0000
0100
0000
0001
0000
,  // measure 64
0010
0001
0010
0000
0100
0000
1000
0000
0001
0000
0100
0000
0010
0000
0100
0000
,  // measure 65
0000
0010
0100
0010
0000
1000
0001
1000
,  // measure 66
0200
0000
0000
0300
;
