#TITLE:I Like It Loud;
#SUBTITLE:Myah Marie;
#ARTIST:Nightcore;
#TITLETRANSLIT:;
#SUBTITLETRANSLIT:;
#ARTISTTRANSLIT:;
#GENRE:;
#CREDIT:;
#BANNER:;
#BACKGROUND:;
#LYRICSPATH:;
#CDTITLE:;
#MUSIC:I Like It Loud (Myah Marie).mp3;
#OFFSET:0.825000;
#SAMPLESTART:54.910999;
#SAMPLELENGTH:14.282000;
#SELECTABLE:YES;
#BPMS:0.000000=140.535004
;
#STOPS:
;
#BGCHANGES:;
#KEYSOUNDS:;
#ATTACKS:;

//---------------dance-single - ----------------
#NOTES:
     dance-single:
     Shortysnmn2010:
     Beginner:
     1:
     0.116762,0.173239,0.026652,0.079957,0.000000,92.000000,89.000000,3.000000,9.000000,0.000000,0.000000,0.116762,0.173239,0.026652,0.079957,0.000000,92.000000,89.000000,3.000000,9.000000,0.000000,0.000000:
0000
0000
0000
0000
,
0000
0000
0000
0000
,
0000
0000
0000
0000
,
0000
0000
0000
0000
,
0000
0000
0000
0000
,
1000
0000
0000
0000
,
0001
0000
0000
0000
,
0100
0000
0000
0000
,
0010
0000
0000
0000
,
1000
0001
1000
0001
,
1000
0000
0000
0000
,
0100
0000
0000
0000
,
0010
0000
0000
0000
,
0001
0000
1000
0000
,
0001
0000
1000
0000
,
0100
0000
1000
0000
,
0001
0000
0100
0000
,
0001
0000
0000
0000
,
1000
0000
0000
0000
,
0200
0300
0000
1000
,
0020
0030
0000
1000
,
0100
0000
1100
0000
,
1000
0000
0000
0000
,
0001
0000
0011
0000
,
0010
0000
0000
0000
,
0002
0000
0003
0100
,
0001
0000
1000
0000
,
0002
0000
0003
0010
,
0001
0000
1000
0000
,
0100
0000
0010
0000
,
0100
0000
0010
0000
,
0100
0000
0000
0000
,
1000
0000
0000
0000
,
0010
0000
0000
0000
,
0100
0000
0000
0000
,
0010
0000
0000
0000
,
1000
0000
0000
0000
,
0002
0000
0003
0010
,
0002
0000
0003
0100
,
0002
0000
0003
1000
,
0002
0000
0003
0000
,
1000
0000
0100
0000
,
1000
0000
0000
0000
,
1100
0000
0000
0000
,
0010
0000
0000
0000
,
0001
0000
0100
0000
,
0001
0000
0100
0000
,
0001
0000
0000
0000
,
1000
0000
0010
0000
,
1000
0000
0000
0000
,
0001
0000
0000
0000
,
0010
0000
0000
0000
,
0100
0000
0000
0000
,
1000
0000
0001
0000
,
1000
0000
0000
0000
,
0001
0000
1000
0000
,
0001
0000
0000
0000
,
0010
0000
0000
0000
,
0100
0000
0000
0000
,
1000
0000
0000
0000
,
0001
0000
0000
0100
,
0100
0000
0000
0000
,
1000
0000
0000
0000
,
0010
0000
0000
0000
,
0100
0000
0001
0002
,
0003
0000
0000
0000
;

//---------------dance-single - ----------------
#NOTES:
     dance-single:
     Shortysnmn2010:
     Easy:
     3:
     0.172605,0.259859,0.044420,0.071073,0.000000,136.000000,131.000000,5.000000,8.000000,0.000000,0.000000,0.172605,0.259859,0.044420,0.071073,0.000000,136.000000,131.000000,5.000000,8.000000,0.000000,0.000000:
0000
0000
0000
0000
,
0000
0000
0000
0000
,
0000
0000
0000
0000
,
0000
0000
0000
0000
,
0000
0000
0000
0000
,
1000
0000
0000
0001
,
0001
0000
0000
1000
,
1000
0010
1000
0000
,
0001
0000
0010
0000
,
0001
0001
0001
0000
,
0100
0000
0000
0000
,
0010
0000
0000
0000
,
1000
0000
0000
0000
,
0100
0010
0100
0010
,
0100
1000
0100
1000
,
0010
0000
0000
0000
,
0100
0000
0000
0000
,
0002
0000
0003
0000
,
2000
0000
3000
0000
,
0010
1000
0000
0100
,
0000
0010
0000
0001
,
0100
0001
0000
0010
,
0000
0001
0000
1000
,
0010
1000
0000
0100
,
0220
0000
0330
0000
,
0001
0000
0011
0000
,
0001
0000
1000
0000
,
0100
0000
1100
0000
,
1000
0000
0000
0000
,
0010
0100
0010
0100
,
0001
0100
0001
0100
,
0001
0000
1000
0000
,
0100
0000
0000
0000
,
0110
0000
0000
0000
,
0001
0000
1000
0001
,
1000
0000
0000
0000
,
0010
0000
0000
0000
,
2000
0000
3000
0001
,
0020
0000
0030
0001
,
1000
1000
1000
0000
,
0010
0000
0000
0000
,
0100
0001
0100
0001
,
0020
0030
0001
1000
,
1001
0000
0000
0000
,
0010
0000
0000
0000
,
1000
0100
1000
0100
,
0010
0001
0010
0001
,
0100
0000
0010
0000
,
0100
0000
0000
0000
,
0001
0000
0000
0000
,
1000
0000
0100
1000
,
0100
0000
0000
0000
,
0010
0000
0001
0000
,
0010
0000
0000
0000
,
0001
1000
0001
1000
,
0100
0000
0010
0000
,
0100
0010
0100
0000
,
1000
0000
0010
0000
,
1000
1000
0001
0000
,
0010
0000
0001
0000
,
0100
0010
0100
0010
,
0100
0000
0001
0000
,
0010
0000
0100
0000
,
0010
0000
0100
0000
,
0010
0100
0010
0200
,
0300
0000
0000
0000
;

//---------------dance-single - ----------------
#NOTES:
     dance-single:
     Shortysnmn2010:
     Medium:
     5:
     0.329980,0.404225,0.213218,0.088841,0.000000,260.000000,236.000000,24.000000,10.000000,0.000000,0.000000,0.329980,0.404225,0.213218,0.088841,0.000000,260.000000,236.000000,24.000000,10.000000,0.000000,0.000000:
// measure 0
0000
0000
0000
0000
,  // measure 1
0000
0000
0000
0000
,  // measure 2
0000
0000
0000
0000
,  // measure 3
0000
0000
0000
0000
,  // measure 4
0000
0000
0000
0000
,  // measure 5
0001
0000
0000
1000
0000
0010
0010
0000
,  // measure 6
1000
0000
0000
0001
0000
0010
0010
0000
,  // measure 7
0001
0100
0001
0010
,  // measure 8
0100
1000
0100
0000
1001
0000
0000
0000
,  // measure 9
1000
0010
0100
0001
,  // measure 10
0010
0010
1001
0000
,  // measure 11
0002
0003
2000
3000
,  // measure 12
0001
1000
0001
0000
1001
0000
0000
0000
,  // measure 13
1000
0100
0001
0100
,  // measure 14
0010
0001
1000
0100
,  // measure 15
0010
0010
0010
0001
,  // measure 16
0100
0010
0100
0000
1001
0000
0000
0000
,  // measure 17
2000
0000
0000
3000
,  // measure 18
0002
0000
0000
0003
,  // measure 19
1000
0000
0000
0010
0000
1000
0100
0000
,  // measure 20
1000
0000
0000
0001
0000
0100
0001
0000
,  // measure 21
0010
0001
1001
1000
,  // measure 22
0100
0000
0010
0100
0000
0010
0100
0000
,  // measure 23
1000
0010
0110
0100
,  // measure 24
0001
0000
0020
0000
0000
0030
0000
0000
,  // measure 25
0100
1000
0100
0000
1100
0000
0000
1000
,  // measure 26
0001
0100
0010
0100
,  // measure 27
0001
0010
0001
0000
0011
0000
0000
0001
,  // measure 28
1000
0010
0100
0010
,  // measure 29
1000
0100
1100
1000
,  // measure 30
0001
0100
0101
0001
,  // measure 31
1000
0010
1010
1000
,  // measure 32
0001
1000
0001
1000
0001
0000
0000
0000
,  // measure 33
1000
0100
1000
0000
1100
0000
0000
1000
,  // measure 34
0001
0010
0011
1001
,  // measure 35
1000
0010
1000
0000
1010
0000
0000
0010
,  // measure 36
1000
0001
0100
0001
,  // measure 37
0010
0000
0000
0100
0000
0100
0010
0000
,  // measure 38
0100
0000
0000
1000
0000
1000
0100
0000
,  // measure 39
0010
0000
0000
0001
0000
0001
0010
0000
,  // measure 40
0001
1000
0001
0000
1000
0000
0000
0000
,  // measure 41
0001
0100
1000
0100
,  // measure 42
0002
0003
1001
1100
,  // measure 43
0010
0001
0100
0010
,  // measure 44
0100
0001
0100
0000
1001
0000
0000
0000
,  // measure 45
0010
1000
0010
1000
,  // measure 46
0001
0100
0010
1000
,  // measure 47
0001
0001
1100
0010
,  // measure 48
0001
1000
0001
0000
1000
0001
1000
0000
,  // measure 49
0200
0000
0300
0000
,  // measure 50
1000
0001
0100
0001
,  // measure 51
1000
0001
0010
0100
,  // measure 52
1000
0100
0010
0000
0001
0000
1000
0000
,  // measure 53
0002
0000
0003
0000
,  // measure 54
1000
0010
1000
0100
,  // measure 55
0001
0100
1000
0010
,  // measure 56
1000
0001
1000
0000
0001
1000
0001
0000
,  // measure 57
1000
0000
0010
0000
1010
0000
0000
1000
,  // measure 58
0001
0100
0001
0010
,  // measure 59
0001
1000
0001
0000
1001
0000
0000
1000
,  // measure 60
0100
0001
0100
1000
,  // measure 61
0010
1000
0010
0000
1010
0000
0000
1000
,  // measure 62
0001
0100
1000
0100
,  // measure 63
0010
0100
0010
0000
0110
0000
0000
0100
,  // measure 64
0001
0010
0001
2002
,  // measure 65
3003
0000
0000
0000
;

//---------------dance-single - ----------------
#NOTES:
     dance-single:
     Shortysnmn2010:
     Hard:
     8:
     0.468318,0.548591,0.390899,0.275406,0.062189,369.000000,325.000000,44.000000,31.000000,0.000000,0.000000,0.468318,0.548591,0.390899,0.275406,0.062189,369.000000,325.000000,44.000000,31.000000,0.000000,0.000000:
// measure 0
0000
0000
0000
0000
,  // measure 1
0000
0000
0000
0000
,  // measure 2
0000
0000
0000
0000
,  // measure 3
0000
0000
0000
0000
,  // measure 4
0000
0000
0000
0000
,  // measure 5
2100
0000
0000
0001
0000
0100
3100
0000
,  // measure 6
0012
0000
0000
1000
0000
0010
0013
0000
,  // measure 7
0100
0000
0100
0000
0100
0000
1000
0010
,  // measure 8
0100
0001
1000
0001
0200
0000
0300
0000
,  // measure 9
2010
0100
3010
1020
,  // measure 10
0001
1030
1001
1001
,  // measure 11
0010
0000
0010
0000
0010
0000
0001
0010
,  // measure 12
0100
1000
0001
1000
0020
0000
0030
0000
,  // measure 13
0102
0010
0103
0201
,  // measure 14
1000
0301
0102
0010
,  // measure 15
0103
0000
0100
0000
0100
0000
0010
1000
,  // measure 16
0001
1000
0100
0001
0100
1000
0001
0100
,  // measure 17
0020
0000
0000
0000
0030
0000
0000
1000
,  // measure 18
0001
0000
0010
0010
0001
0000
0001
0000
,  // measure 19
1000
0000
0010
1000
0000
1100
1100
0000
,  // measure 20
0010
0000
0001
0010
0000
0110
0110
0000
,  // measure 21
0100
2000
0010
0000
0001
0000
3100
0010
,  // measure 22
0001
1000
0001
0010
0000
0010
0001
0000
,  // measure 23
0100
0002
0010
0000
1003
0100
0010
0100
,  // measure 24
1000
0001
1000
0100
0000
0000
0000
0000
,  // measure 25
0100
0000
1000
0000
0010
0000
0000
0000
2020
0000
0000
3030
0000
0000
0100
0000
,  // measure 26
0001
1000
0001
0000
0010
0000
0110
0000
,  // measure 27
1000
0000
0001
0000
0010
0000
0000
0000
0022
0000
0000
0033
0000
0000
1000
0000
,  // measure 28
0100
1000
0010
0000
0100
0000
0101
0000
,  // measure 29
2010
0100
3010
0102
,  // measure 30
0010
0103
2010
0001
,  // measure 31
3010
0102
1000
0103
,  // measure 32
0010
1000
0010
1000
0100
0000
0000
0000
,  // measure 33
1000
0000
0010
0000
1010
0000
1000
0010
,  // measure 34
0100
0001
0010
0001
0010
0100
0010
0100
,  // measure 35
0010
0000
0100
0000
1100
0000
1000
0001
,  // measure 36
0100
1000
0100
1000
0100
0010
0100
0010
,  // measure 37
1000
0000
0100
1000
0000
1010
1010
0000
,  // measure 38
0100
0000
0001
0010
0000
0011
0011
0000
,  // measure 39
1001
0000
1001
0000
1001
0000
0010
0001
,  // measure 40
0100
0001
1000
0100
1000
0010
1000
0001
,  // measure 41
0010
1000
0001
1000
,  // measure 42
0020
0030
1001
0110
,  // measure 43
1000
0001
0100
1000
,  // measure 44
0001
1000
0100
0001
,  // measure 45
0012
0100
0013
2100
,  // measure 46
0010
3100
0012
1000
,  // measure 47
0013
2100
0001
3100
,  // measure 48
0010
0001
0100
0001
0010
0100
1000
0010
,  // measure 49
1000
0000
0100
1000
0100
0000
1000
0100
1000
0000
0100
0000
1000
0000
0000
0000
,  // measure 50
0000
0000
0001
0100
0001
0000
0100
0010
0100
0000
0001
0000
0100
0000
0000
0000
,  // measure 51
0000
0000
0010
1000
0010
0000
0100
0001
0100
0000
0010
0000
1000
0000
0000
0000
,  // measure 52
0001
1000
0100
0010
0001
1000
0001
0000
,  // measure 53
0000
0000
1000
0001
0100
0000
0001
1000
0100
0000
1000
0000
0001
0000
0000
0000
,  // measure 54
0000
0000
0010
0001
1000
0000
0010
1000
0001
0000
0010
0000
0001
0000
0000
0000
,  // measure 55
0000
0000
1000
0100
0010
0000
0100
1000
0001
0000
0010
0000
0001
0000
0000
0000
,  // measure 56
0100
0010
1000
0100
0010
1000
0010
0000
,  // measure 57
0001
0100
0010
0000
0110
0000
0010
1000
,  // measure 58
0100
0000
1000
0100
1000
0000
0000
0000
1100
0000
0000
0000
1001
0000
0000
0000
,  // measure 59
0010
0001
0100
0000
0110
0000
0100
0001
,  // measure 60
1000
0000
0010
1000
0010
0000
0100
0000
0001
0000
0000
0000
0011
0000
0000
0000
,  // measure 61
0001
2000
0100
0000
0002
0000
3003
0000
,  // measure 62
0010
0001
0100
0000
0110
0000
1001
0000
,  // measure 63
0100
0002
1000
0000
0020
0000
0033
0000
,  // measure 64
1000
0100
1000
0100
1000
0000
0202
0000
,  // measure 65
0303
0000
0000
0000
;
