#TITLE:Hypnodancer;
#SUBTITLE:;
#ARTIST:Little Big;
#TITLETRANSLIT:;
#SUBTITLETRANSLIT:;
#ARTISTTRANSLIT:;
#GENRE:;
#CREDIT:;
#BANNER:;
#BACKGROUND:;
#LYRICSPATH:;
#CDTITLE:;
#MUSIC:Hypnodancer.mp3;
#OFFSET:-0.502000;
#SAMPLESTART:33.882000;
#SAMPLELENGTH:13.944000;
#SELECTABLE:YES;
#BPMS:0.000000=142.000000
;
#STOPS:
;
#BGCHANGES:;
#KEYSOUNDS:;
#ATTACKS:;

//---------------dance-single - ----------------
#NOTES:
     dance-single:
     Shortysnmn2010:
     Beginner:
     1:
     0.119070,0.143124,0.075772,0.050514,0.000000,99.000000,90.000000,9.000000,6.000000,0.000000,0.000000,0.119070,0.143124,0.075772,0.050514,0.000000,99.000000,90.000000,9.000000,6.000000,0.000000,0.000000:
0000
0000
0000
0000
,
0000
0000
0000
0000
,
0000
0000
0000
0000
,
0000
0000
0000
0000
,
1000
0000
0001
0000
,
1000
0000
0000
0000
,
0001
0000
1000
0000
,
0001
0000
0000
0000
,
0010
0000
0100
0000
,
0010
0000
0000
0000
,
0100
0000
0010
0000
,
0100
0000
0000
0000
,
1000
0000
0000
0000
,
0010
0000
0010
0000
,
1000
0000
0000
0000
,
0001
0000
0001
0000
,
0100
0000
0000
0000
,
0001
0000
1000
0000
,
0001
0000
0000
0000
,
1000
0000
0000
0000
,
1001
0000
0000
0000
,
0001
0000
0000
0000
,
1001
0000
0000
0000
,
2000
0000
3000
0000
,
0110
0000
0000
0000
,
0010
0000
0000
0000
,
0110
0000
0000
0000
,
0200
0000
0300
0000
,
0001
0000
0000
0000
0000
0001
0000
0000
,
1000
0000
0000
0000
0000
1000
0000
0000
,
0100
0000
0000
0000
0000
0100
0000
0000
,
0010
0000
0000
0000
,
0100
0000
0000
0000
0000
0100
0000
0000
,
0010
0000
0000
0000
0000
0010
0000
0000
,
0001
0000
0000
0000
0000
0001
0000
0000
,
1000
0000
0000
0000
,
0010
0000
0010
0000
,
1000
0000
0000
0000
,
0100
0000
0100
0000
,
0010
0000
0000
0000
,
0002
0003
1000
0000
,
1000
0000
0000
0000
,
1000
0000
0000
0000
,
0001
0000
0000
0000
,
0010
0000
0100
0000
,
0010
0000
0000
0000
,
0100
0000
0010
0000
,
0100
0000
0000
0000
,
1000
0000
0001
0000
,
1000
0000
0000
0000
,
0001
0000
0000
0000
,
0100
0000
0000
0000
,
0110
0000
0000
0000
,
0010
0000
0000
0000
,
0110
0000
0000
0000
,
0200
0000
0300
0000
,
1001
0000
0000
0000
,
0001
0000
0000
0000
,
1001
0000
0000
0000
,
2000
0000
3000
0000
,
0010
0000
0000
0000
0000
0010
0000
0000
,
0100
0000
0000
0000
0000
0100
0000
0000
,
0001
0000
0000
0000
0000
0001
0000
0000
,
1000
0000
0000
0000
,
0100
0000
0000
0000
0000
0100
0000
0000
,
0010
0000
0000
0000
0000
0010
0000
0000
,
0001
0000
0000
0000
0000
0001
0000
0000
,
2000
0000
3000
0000
,
1001
0000
0000
0000
;

//---------------dance-single - ----------------
#NOTES:
     dance-single:
     Shortysnmn2010:
     Easy:
     4:
     0.241748,0.228999,0.025257,0.126286,0.000000,201.000000,198.000000,3.000000,15.000000,0.000000,0.000000,0.241748,0.228999,0.025257,0.126286,0.000000,201.000000,198.000000,3.000000,15.000000,0.000000,0.000000:
0000
0000
0000
0000
,
0000
0000
0000
0000
,
0000
0000
0000
0000
,
0000
0000
0000
0000
,
0000
0000
0001
0010
,
0001
0100
0001
1000
,
0100
0000
1000
0001
,
0010
0001
1000
0010
,
1000
0000
0100
0010
,
0100
1000
0010
0100
,
0020
0030
0200
0300
,
0020
0030
0200
0300
,
0000
0000
0001
0010
,
0100
1000
0100
0010
,
0001
0000
1000
0001
,
0100
0001
1000
0010
,
1000
0000
0100
1000
,
0001
0010
0100
0010
,
0002
0003
2000
3000
,
0002
0003
1001
1000
,
0100
0000
0010
0000
,
0100
1000
0010
0000
,
1000
0000
0001
0000
,
0100
0001
0100
1000
,
0100
0000
0010
0000
,
1000
0001
0010
0000
,
0001
0000
1000
0000
,
0010
0001
0010
1000
,
0010
1000
0100
0000
,
1000
0010
0100
0000
,
0001
0010
0100
0000
,
1000
0001
0100
0001
,
1000
0010
1000
0000
,
0001
0100
0001
0000
,
0010
0100
1000
0000
,
0010
0100
0010
0100
,
0001
0000
1000
0010
,
1000
0100
0010
0100
,
1000
0000
0010
0001
,
0010
1000
0100
0001
,
0100
0000
1000
0001
,
0100
1000
0100
0001
,
2000
3000
2000
3000
,
0002
0003
0002
0003
,
0010
0000
0100
0010
,
0100
1000
0100
0001
,
0100
0000
0010
0001
,
0100
1000
0100
0010
,
0100
0000
0001
1000
,
0010
0001
0010
1000
,
0002
0003
0002
0003
,
2000
3000
1001
1000
,
0100
0000
0010
0000
,
0100
0010
0001
0000
,
1000
0000
0001
0000
,
0100
0010
0100
0010
,
1000
0010
0100
0000
,
0001
1000
0001
0000
,
1000
0100
1000
0000
,
0001
0100
0001
0100
,
0010
1000
0100
0000
,
0100
1000
0010
0000
,
1000
0001
0100
0000
,
0001
1000
0010
1000
,
0001
0100
0010
0000
,
0001
0010
1000
0000
,
0010
0100
0001
0000
,
2000
0000
0010
3010
,
1001
0000
0000
0000
;

//---------------dance-single - ----------------
#NOTES:
     dance-single:
     Shortysnmn2010:
     Medium:
     6:
     0.339168,0.343498,0.084191,0.025257,0.000000,282.000000,272.000000,10.000000,3.000000,0.000000,0.000000,0.339168,0.343498,0.084191,0.025257,0.000000,282.000000,272.000000,10.000000,3.000000,0.000000,0.000000:
// measure 0
0000
0000
0000
0000
,  // measure 1
0000
0000
0000
0000
,  // measure 2
0000
0000
0000
0000
,  // measure 3
0000
0000
0000
0000
,  // measure 4
0000
0000
1000
0100
,  // measure 5
0001
0100
1000
0001
,  // measure 6
2000
3000
0001
1000
,  // measure 7
0010
0001
0010
1000
,  // measure 8
0002
0003
1000
0100
,  // measure 9
0001
0100
0010
0100
,  // measure 10
1000
0000
0001
1000
0001
0000
1000
0001
,  // measure 11
1000
0000
0001
1000
0001
0000
0000
0000
,  // measure 12
0000
0000
0010
0001
,  // measure 13
0100
0010
0100
0001
,  // measure 14
0010
0000
0100
1000
,  // measure 15
0010
0100
0010
1000
,  // measure 16
0100
0000
0010
0100
,  // measure 17
1000
0010
0100
1000
,  // measure 18
0100
0000
0010
0100
0010
0000
0100
0010
,  // measure 19
0100
0000
0010
0100
0010
0000
0000
0000
,  // measure 20
1000
0000
0100
1000
0100
1000
0000
0000
,  // measure 21
0001
0000
0100
0010
0100
0010
0000
0000
,  // measure 22
1000
0000
0100
0010
0100
0010
0000
0000
,  // measure 23
0001
1000
0001
1100
,  // measure 24
0010
0000
0001
0100
0010
0100
0000
0000
,  // measure 25
0001
0000
1000
0100
0010
0100
0000
0000
,  // measure 26
1000
0000
0010
0100
0001
0100
0000
0000
,  // measure 27
0010
0100
0010
1001
,  // measure 28
1000
0000
0001
0100
0010
1000
0000
0000
,  // measure 29
0001
0000
1000
0100
0010
0001
0000
0000
,  // measure 30
1000
0000
0010
1000
0001
0100
0000
0000
,  // measure 31
0001
1000
0001
1010
,  // measure 32
1000
0000
0001
0010
0100
1000
0000
0000
,  // measure 33
0001
0000
1000
0100
0010
0001
0000
0000
,  // measure 34
1000
0000
0010
0100
0001
1000
0000
0000
,  // measure 35
0001
1000
0001
0110
,  // measure 36
0000
0000
1000
0010
,  // measure 37
0001
0010
0100
0001
,  // measure 38
0010
0000
0001
0010
,  // measure 39
1000
0010
0100
1000
,  // measure 40
0010
0000
1000
0001
,  // measure 41
0100
1000
0100
0001
,  // measure 42
0010
0000
0100
0010
0100
0000
0010
0100
,  // measure 43
0010
0000
0100
0010
0100
0000
0000
0000
,  // measure 44
0000
0000
1000
0010
,  // measure 45
1000
0100
0001
0100
,  // measure 46
1000
0000
0001
0010
,  // measure 47
0001
0100
1000
0100
,  // measure 48
0001
0000
1000
0010
,  // measure 49
0001
0010
0100
0001
,  // measure 50
0010
0000
0001
1000
0001
0000
1000
0001
,  // measure 51
1000
0000
0001
1000
0001
0000
0000
0000
,  // measure 52
1000
0000
0001
0100
0001
1000
0000
0000
,  // measure 53
0100
0000
1000
0100
1000
0001
0000
0000
,  // measure 54
0010
0000
0001
0010
0100
0010
0000
0000
,  // measure 55
0001
1000
0001
1100
,  // measure 56
0010
0000
0001
1000
0001
0100
0000
0000
,  // measure 57
0010
0000
0100
1000
0100
0001
0000
0000
,  // measure 58
1000
0000
0100
0010
0100
1000
0000
0000
,  // measure 59
0001
1000
0010
0101
,  // measure 60
0010
0000
1000
0100
0010
0100
0000
0000
,  // measure 61
1000
0000
0010
0100
0001
0010
0000
0000
,  // measure 62
0001
0000
0010
0001
0100
0010
0000
0000
,  // measure 63
0100
0010
0100
1001
,  // measure 64
0010
0000
0001
0010
0100
1000
0000
0000
,  // measure 65
0100
0000
1000
0010
1000
0100
0000
0000
,  // measure 66
0010
0000
1000
0010
0001
0010
0000
0000
,  // measure 67
0200
0300
0011
1100
,  // measure 68
1001
0000
0000
0000
;

//---------------dance-single - ----------------
#NOTES:
     dance-single:
     Shortysnmn2010:
     Hard:
     8:
     0.494320,0.486622,0.311505,0.126286,0.101029,411.000000,374.000000,37.000000,15.000000,0.000000,0.000000,0.494320,0.486622,0.311505,0.126286,0.101029,411.000000,374.000000,37.000000,15.000000,0.000000,0.000000:
// measure 0
0000
0000
0000
0000
,  // measure 1
0000
0000
0000
0000
,  // measure 2
0000
0000
0000
0000
,  // measure 3
0000
0000
0000
0000
,  // measure 4
0001
0011
2000
0100
,  // measure 5
3001
0012
0100
1003
,  // measure 6
1010
0000
0002
0100
,  // measure 7
1003
2010
0100
3001
,  // measure 8
0011
0000
0002
0010
,  // measure 9
1003
2100
0010
3001
,  // measure 10
0100
0000
0010
1000
0100
0000
0010
0001
,  // measure 11
0100
0000
0010
1000
0100
0000
0110
0000
,  // measure 12
0001
0000
0011
0000
0001
0100
0010
0100
,  // measure 13
1000
0100
0010
0100
0001
0010
0100
0010
,  // measure 14
0001
0000
1001
0000
1000
0010
1000
0100
,  // measure 15
1000
0001
1000
0010
0100
0001
0010
0100
,  // measure 16
0010
0000
0110
0000
0100
1000
0010
0100
,  // measure 17
0010
0001
0010
1000
0100
0010
0001
0100
,  // measure 18
0010
0000
0100
0001
0010
0000
0100
1000
,  // measure 19
0010
0000
0100
0001
0010
0000
0110
0000
,  // measure 20
0001
0000
0000
0000
1000
0000
0010
1000
0000
0000
0100
0000
1000
0000
0100
0000
,  // measure 21
0010
0000
0000
0000
0001
0000
0010
0001
0000
0000
1000
0000
0010
0000
1000
0000
,  // measure 22
0001
0000
0000
0000
0100
0000
0010
0100
0000
0000
0001
0000
1000
0000
0100
0000
,  // measure 23
1000
0001
0010
1000
0010
0000
1001
0000
,  // measure 24
1000
0000
0000
0000
0001
0000
0100
0001
0000
0000
0100
0000
0010
0000
0100
0000
,  // measure 25
0001
0000
0000
0000
0010
0000
0100
0010
0000
0000
0100
0000
1000
0000
0010
0000
,  // measure 26
1000
0000
0000
0000
0001
0000
1000
0001
0000
0000
0010
0000
0100
0000
0010
0000
,  // measure 27
0001
1000
0100
1000
0001
0000
0110
0000
,  // measure 28
1000
0000
0100
0000
1000
0000
0100
1000
0000
0000
1100
0000
0000
0000
0000
0000
,  // measure 29
0001
0000
0100
0000
0001
0000
0100
0001
0000
0000
0101
0000
0000
0000
0000
0000
,  // measure 30
1000
0000
0010
0000
1000
0000
0010
1000
0000
0000
0010
0000
1000
0000
0001
0000
,  // measure 31
0010
0100
0010
0100
0010
0000
0110
0000
,  // measure 32
0100
0000
0010
0000
0100
0000
1000
0100
0000
0000
0110
0000
0000
0000
0000
0000
,  // measure 33
0001
0000
0010
0000
0001
0000
1000
0001
0000
0000
0011
0000
0000
0000
0000
0000
,  // measure 34
0001
0000
1000
0000
0100
0000
1000
0001
0000
0000
0100
0000
0010
0000
0100
0000
,  // measure 35
0001
1000
0001
1000
0001
0000
1001
0000
,  // measure 36
0002
0003
2000
0010
,  // measure 37
3001
0102
0010
1003
,  // measure 38
1100
0000
0002
0100
,  // measure 39
1003
2100
0010
3001
,  // measure 40
0011
0000
0200
1000
,  // measure 41
0310
0021
1000
0130
,  // measure 42
1100
0000
1000
0001
0100
0000
0001
1000
,  // measure 43
0100
0000
1000
0001
0100
0000
0110
0000
,  // measure 44
0020
0000
0030
0000
1000
0100
1000
0001
,  // measure 45
0010
1000
0010
0100
1000
0010
1000
0000
,  // measure 46
1001
0000
0000
0000
0001
0100
0010
0100
,  // measure 47
0001
1000
0100
1000
0001
0010
0100
0000
,  // measure 48
1100
0000
0000
0000
1000
0010
1000
0001
,  // measure 49
0100
0010
0100
0001
0010
0100
1000
0000
,  // measure 50
0001
0000
1000
0001
0010
0000
0001
1000
,  // measure 51
0010
0000
1000
0001
0010
0000
0000
0000
,  // measure 52
0110
0000
0000
0000
0100
0000
1000
0100
0000
0000
1000
0000
0001
0000
1000
0000
,  // measure 53
0100
0000
0000
0000
0010
0000
0100
0010
0000
0000
0001
0000
0010
0000
0001
0000
,  // measure 54
1000
0000
0000
0000
0001
0000
0100
0001
0000
0000
1000
0000
0010
0000
0001
0000
,  // measure 55
0010
0100
0010
0100
0001
0000
0011
0000
,  // measure 56
0001
0000
0000
0000
1000
0000
0100
1000
0000
0000
0100
0000
0010
0000
0001
0000
,  // measure 57
0010
0000
0000
0000
0100
0000
1000
0100
0000
0000
1000
0000
0010
0000
1000
0000
,  // measure 58
0001
0000
0000
0000
0100
0000
0010
0100
0000
0000
0001
0000
1000
0000
0100
0000
,  // measure 59
0010
0100
0010
0100
1000
0000
1010
0000
,  // measure 60
0010
0000
0100
0000
0010
0000
0100
0010
0000
0000
0110
0000
0000
0000
0000
0000
,  // measure 61
0100
0000
0001
0000
0100
0000
0001
0100
0000
0000
0101
0000
0000
0000
0000
0000
,  // measure 62
0001
0000
0010
0000
0001
0000
0010
0001
0000
0000
0010
0000
0100
0000
1000
0000
,  // measure 63
0001
0100
0001
0100
0010
0000
0110
0000
,  // measure 64
1000
0000
0100
0000
1000
0000
0001
1000
0000
0000
1010
0000
0000
0000
0000
0000
,  // measure 65
0001
0000
0100
0000
0001
0000
1000
0001
0000
0000
0011
0000
0000
0000
0000
0000
,  // measure 66
0100
0000
0010
0000
0100
0000
1000
0100
0000
0000
0010
0000
0001
0000
0010
0000
,  // measure 67
0002
0000
1000
1003
,  // measure 68
0110
0000
0000
0000
;
