#TITLE:Fire;
#SUBTITLE:;
#ARTIST:2ne1;
#TITLETRANSLIT:;
#SUBTITLETRANSLIT:;
#ARTISTTRANSLIT:;
#GENRE:;
#CREDIT:;
#BANNER:;
#BACKGROUND:;
#LYRICSPATH:;
#CDTITLE:;
#MUSIC:Fire.mp3;
#OFFSET:-0.784000;
#SAMPLESTART:78.640999;
#SAMPLELENGTH:15.476000;
#SELECTABLE:YES;
#BPMS:0.000000=125.999992
;
#STOPS:
;
#BGCHANGES:;
#KEYSOUNDS:;
#ATTACKS:;

//---------------dance-single - ----------------
#NOTES:
     dance-single:
     Shortysnmn2010:
     Beginner:
     1:
     0.097773,0.152852,0.007605,0.121673,0.000000,90.000000,89.000000,1.000000,16.000000,0.000000,0.000000,0.097773,0.152852,0.007605,0.121673,0.000000,90.000000,89.000000,1.000000,16.000000,0.000000,0.000000:
0000
0000
0000
0000
,
0000
0000
0000
0000
,
0000
0000
0000
0000
,
0000
0000
0000
0000
,
0000
0000
0000
0000
,
1000
0000
0001
0000
,
1000
0000
0000
0000
,
0020
0000
0030
0000
,
0200
0000
0300
0000
,
0001
0000
0001
0000
,
0001
0000
0000
0000
,
0010
0000
0100
0000
,
0010
0000
0000
0000
,
0100
0000
0100
0000
,
0100
0000
0000
0000
,
2000
0000
3000
0000
,
0002
0000
0003
0000
,
0100
0000
0100
0000
,
0100
0000
0000
0000
,
0010
0000
1000
0000
,
0001
0000
0000
0000
,
1000
0000
0000
0000
,
0100
0000
0000
0000
,
0020
0000
0030
0000
,
0200
0000
0300
0000
,
1000
0000
1000
0000
,
1000
0000
0000
0000
,
0001
0000
0100
0000
,
0001
0000
0000
0000
,
0010
0000
0000
0000
,
0100
0000
0000
0000
,
2000
0000
3000
0000
,
0002
0000
0003
0000
,
0100
0000
0100
0000
,
0100
0000
0000
0000
,
0010
0000
0010
0000
,
0010
0000
0000
0000
,
1000
0000
1000
0000
,
1000
0000
0000
0000
,
0002
0000
0003
0000
,
0002
0000
0003
0000
,
1000
1000
1000
1000
,
1000
0000
0000
0000
,
0001
0001
0001
0001
,
0001
0000
0000
0000
,
0010
0000
0000
0000
,
0100
0000
0000
0000
,
2000
0000
3000
0000
,
0002
0000
0003
0000
,
0100
0000
0000
0000
,
0010
0000
0000
0000
,
1000
0000
0001
0000
,
1000
0000
0000
0000
,
0010
0000
0000
0000
,
0100
0000
0010
0000
,
0100
0000
0000
0000
,
0010
0000
0000
0000
,
0100
0100
0100
0100
,
0100
0000
0000
0000
,
0010
0010
0010
0010
,
0010
0000
0000
0000
,
1000
0000
0100
0000
,
1000
0000
0000
0000
,
0002
0000
0003
0000
,
0200
0000
0300
0000
,
0020
0000
0030
0000
,
2000
0000
3000
0000
,
1001
0000
0000
0000
;

//---------------dance-single - ----------------
#NOTES:
     dance-single:
     Shortysnmn2010:
     Challenge:
     9:
     0.531233,0.691683,0.600760,0.220532,0.186312,489.000000,410.000000,79.000000,29.000000,0.000000,0.000000,0.531233,0.691683,0.600760,0.220532,0.186312,489.000000,410.000000,79.000000,29.000000,0.000000,0.000000:
// measure 0
0000
0000
0000
0000
,  // measure 1
0000
0000
0000
0000
,  // measure 2
0000
0000
0000
0000
,  // measure 3
0000
0000
0000
0000
,  // measure 4
0000
0000
0000
0000
,  // measure 5
1000
0000
0000
0001
0100
0000
0001
0000
1000
0000
0000
0001
0100
0000
0001
0000
,  // measure 6
0010
0000
0000
0001
1000
0000
0100
0000
0110
0000
0000
0000
0000
0000
0001
0000
,  // measure 7
0010
0000
0000
0010
0000
0000
0220
0000
0000
0000
0330
0000
0000
0000
0000
0000
,  // measure 8
0001
0000
0000
0001
0000
0000
0001
0100
0001
0000
0010
0000
0100
0000
1000
0000
,  // measure 9
0010
0000
0000
0100
0000
0000
0001
0000
0010
0000
0000
0100
0000
0000
1000
0000
,  // measure 10
0200
0000
0001
0000
0000
0000
1300
0000
0010
0000
0100
0001
0100
0000
0001
0000
,  // measure 11
0010
0000
0000
0001
0000
0000
1000
0000
0010
0000
0000
0100
0000
0000
1000
0000
,  // measure 12
0100
0000
0001
0000
0010
0000
0010
0000
0100
0000
1000
0010
1000
0000
0100
0000
,  // measure 13
0010
0000
0000
1000
0000
0000
0010
0000
0001
0000
0000
1000
0000
0000
0001
0000
,  // measure 14
0200
1000
0000
0301
1000
0100
0010
0000
,  // measure 15
0011
0000
0000
1100
0000
0000
2002
0000
0000
0000
3003
0000
0000
0000
0000
0000
,  // measure 16
0110
1001
0110
1001
,  // measure 17
1000
1000
0001
0001
1000
1000
0001
0001
,  // measure 18
0100
0010
1000
1001
0000
1001
0001
0010
,  // measure 19
0002
0000
1003
0100
0001
0100
1000
0001
,  // measure 20
0100
0010
0100
0001
0000
0001
0010
0001
,  // measure 21
0011
0000
0000
0000
0001
0000
1000
0000
0100
0000
0001
0100
0001
0000
0100
0000
,  // measure 22
1000
0001
0100
0001
0000
1000
0010
0100
,  // measure 23
0002
0000
0000
0010
0000
0000
0020
0000
0000
0000
0033
0000
0000
0000
0000
0000
,  // measure 24
1000
0000
0000
0100
0000
0000
0100
0010
0100
0000
1000
0000
0001
0000
0000
0000
,  // measure 25
0100
0100
0010
0010
0100
0100
0010
0010
,  // measure 26
1000
0001
0010
0011
0000
0011
0001
1000
,  // measure 27
0100
0100
1000
1000
0100
0100
1000
1000
,  // measure 28
0010
0100
0001
0010
0000
0010
0001
0100
,  // measure 29
0101
0000
0000
0001
0000
0000
0010
0000
0100
0000
0000
1000
0000
0000
0100
0000
,  // measure 30
0010
0000
0000
0001
0000
0000
0100
0000
1000
0000
0100
0000
0001
0000
0020
0000
,  // measure 31
0001
0000
0000
0001
0000
0000
0002
0000
0000
0000
0033
0000
0000
0000
0000
0000
,  // measure 32
0002
0000
0000
0100
0000
0000
0103
0010
0100
0000
0001
0000
0010
0000
0100
0000
,  // measure 33
1000
0000
0000
0101
0000
0000
0010
0000
1000
0000
0000
0100
0000
0000
0010
0000
,  // measure 34
0001
0000
0000
0110
0000
0000
1000
0000
0000
0000
0010
0000
0100
0000
0010
0000
,  // measure 35
1000
0000
0000
0011
0000
0000
0100
0000
1000
0000
0000
0010
0000
0000
0100
0000
,  // measure 36
0010
0000
0000
1001
0000
0000
0010
0000
0000
0000
0110
0000
0110
0000
0000
0000
,  // measure 37
0002
0000
0000
0100
0000
0000
1003
0000
0001
0000
0000
0000
0011
0000
0001
0000
,  // measure 38
2000
0000
0000
0100
0000
0000
3001
0000
1000
0000
0000
0000
1010
0000
1000
0000
,  // measure 39
0100
0000
0000
0100
0000
0000
0200
0000
0000
0000
0000
0000
0300
0000
0000
0000
,  // measure 40
0010
0000
0000
0010
0000
0000
0010
0001
0010
0000
0100
0000
1000
0000
0001
0000
,  // measure 41
1001
1100
1001
0101
1001
1010
1001
0011
,  // measure 42
0110
0000
0100
1000
0000
0001
0100
0010
,  // measure 43
0110
1010
0110
0101
0110
0011
0110
1010
,  // measure 44
1001
0000
0010
0001
0000
0001
1000
0010
,  // measure 45
0100
0010
2000
0100
0000
3100
0010
0100
,  // measure 46
1000
0010
0200
0001
0000
0301
1000
0001
,  // measure 47
0011
1001
1100
0110
0011
1001
1010
0110
,  // measure 48
0101
0000
0000
0000
0010
0000
1000
0001
1000
0000
0001
0000
0010
0000
0100
0000
,  // measure 49
2000
0000
3010
0100
0001
0010
0001
0100
,  // measure 50
1000
0000
0000
0100
0000
0000
0001
0000
0000
0000
0010
0000
0001
0000
0010
0000
,  // measure 51
0001
0000
0100
0010
0000
0100
0001
0000
0000
0000
0010
0000
0100
0000
1000
0000
,  // measure 52
0001
0000
1000
0010
0000
1000
0002
0000
0000
0000
0100
0000
0103
0000
0001
0000
,  // measure 53
0020
0000
0130
1000
0001
1000
0010
0100
,  // measure 54
0001
0000
0000
0100
0000
0000
1000
0000
0000
0000
0100
0000
0010
0000
1000
0000
,  // measure 55
0100
0000
0000
0010
0000
0000
2002
0000
0000
0000
3003
0000
0000
0000
0000
0000
,  // measure 56
0001
0000
0000
1000
0000
0000
0220
0000
0000
0000
0330
0000
0000
0000
0000
0000
,  // measure 57
0101
1001
0101
0110
0101
1001
0101
0110
,  // measure 58
1010
0000
1000
0100
0000
0010
0100
0010
,  // measure 59
0011
1001
0011
0110
0011
1001
0011
0110
,  // measure 60
1100
0000
0001
0100
0000
0010
0100
0001
,  // measure 61
0010
0100
2000
0010
0000
3010
0100
0001
,  // measure 62
0010
0001
0200
0010
0000
0310
1000
0001
,  // measure 63
0011
0110
1100
1001
0101
0110
1010
1001
,  // measure 64
0011
0000
0000
0000
0100
0000
1000
0100
1000
0000
0010
0000
0100
0000
0001
0100
,  // measure 65
0002
1000
1003
0001
0020
0001
0031
0010
,  // measure 66
0100
0000
0000
0000
1000
0000
0010
0100
0010
0000
1000
0000
0001
0000
0010
0100
,  // measure 67
2000
0000
0000
3000
0000
0000
0000
0000
;

//---------------dance-single - ----------------
#NOTES:
     dance-single:
     Shortysnmn2010:
     Easy:
     4:
     0.220532,0.229278,0.136882,0.243346,0.000000,203.000000,185.000000,18.000000,32.000000,0.000000,0.000000,0.220532,0.229278,0.136882,0.243346,0.000000,203.000000,185.000000,18.000000,32.000000,0.000000,0.000000:
0000
0000
0000
0000
,
0000
0000
0000
0000
,
0000
0000
0000
0000
,
0000
0000
0000
0000
,
0000
0000
0000
0000
,
1000
0000
0010
0000
,
0001
0000
0010
0000
,
1000
0000
0000
2002
0000
3003
0000
0000
,
0001
0000
0000
2002
0000
3003
0000
0000
,
1000
0000
0010
0000
,
0100
0001
0000
0000
1000
0000
0100
0000
,
0010
0000
0001
0000
,
0100
0010
0000
0000
0100
0000
0001
0000
,
0010
0000
0100
0000
,
1000
0010
0000
0000
1000
0000
0100
0000
,
0010
0000
0000
1001
0000
0000
0000
0000
,
0001
1000
0001
1000
,
0010
0010
0010
0010
,
1000
0000
0001
1000
0000
0000
0100
0000
,
0010
0010
0010
0010
,
0001
0000
1000
0001
0000
0000
0100
0000
,
0010
0100
0010
0100
,
0001
0000
0010
0001
0000
0000
0100
0000
,
0010
0000
0000
0220
0000
0330
0000
0000
,
0100
0000
0000
0220
0000
0330
0000
0000
,
1000
1000
1000
1000
,
0100
0000
0010
0100
0000
0000
0010
0000
,
0001
0001
0001
0001
,
0100
0000
0010
0100
0000
0000
0001
0000
,
0010
0100
1000
0010
,
1000
0100
0010
0001
,
0100
0000
0000
0202
0000
0303
0000
0000
,
0001
0000
0000
0202
0000
0303
0000
0000
,
1000
0000
0100
0000
,
0010
0000
0100
1000
0000
0000
0010
0000
,
0100
0000
0001
0000
,
0010
0000
0001
0100
0000
0000
0010
0000
,
0100
0000
0010
1000
,
0100
0000
0010
0001
,
0100
0000
0000
0202
0000
0303
0000
0000
,
0001
0000
0000
2002
0000
3003
0000
0000
,
1000
1000
1000
1000
,
0010
0000
1000
0010
0000
0000
1000
0000
,
0001
0001
0001
0001
,
0100
0000
1000
0100
0000
0000
0001
0000
,
0010
0100
0000
0100
,
0010
0100
0000
0100
,
1000
0000
0000
2020
0000
3030
0000
0000
,
0010
0000
0000
2020
0000
3030
0000
0000
,
1000
0000
0001
0000
,
0010
0000
0000
0010
0000
0000
0001
0000
,
0100
0000
0000
0100
0000
0000
0000
0000
,
0010
0000
0000
0010
0000
0000
0000
0000
,
1000
0000
0100
0000
,
0001
0000
0000
0001
0000
0000
0100
0000
,
1000
0000
0000
2200
0000
3300
0000
0000
,
0100
0000
0000
2200
0000
3300
0000
0000
,
0010
0010
0010
0010
,
0100
0000
0010
0100
0000
0000
0010
0000
,
1000
1000
1000
1000
,
0001
0000
1000
0001
0000
0000
0010
0000
,
0100
0010
0000
0001
,
0100
0001
0000
0010
,
0100
0000
0000
0220
0000
0330
0000
0000
,
0010
0000
0000
0220
0000
0330
0000
0000
,
0001
0000
0000
2002
0000
3003
0000
0000
,
1000
0000
0000
2002
0000
3003
0000
0000
,
0110
0000
0000
0000
;

//---------------dance-single - ----------------
#NOTES:
     dance-single:
     Shortysnmn2010:
     Medium:
     5:
     0.270505,0.331179,0.098859,0.152091,0.095057,249.000000,236.000000,13.000000,20.000000,0.000000,0.000000,0.270505,0.331179,0.098859,0.152091,0.095057,249.000000,236.000000,13.000000,20.000000,0.000000,0.000000:
// measure 0
0000
0000
0000
0000
,  // measure 1
0000
0000
0000
0000
,  // measure 2
0000
0000
0000
0000
,  // measure 3
0000
0000
0000
0000
,  // measure 4
0000
0000
0000
0000
,  // measure 5
1000
0000
0000
1000
0001
0000
0000
0001
,  // measure 6
1000
0000
0000
1000
0002
0000
0003
0000
,  // measure 7
1100
0000
0000
1100
0000
0000
0000
0000
,  // measure 8
1001
0000
0000
1001
0000
0000
0000
0000
,  // measure 9
0001
0000
0000
0100
0010
0000
0000
1000
,  // measure 10
0100
0010
0001
0100
,  // measure 11
0010
0000
0000
0100
0001
0000
0000
0001
,  // measure 12
0010
0100
1000
0010
,  // measure 13
1000
0000
0000
1000
0100
0000
0000
0100
,  // measure 14
1000
0001
0010
0100
,  // measure 15
1000
0000
0000
1000
0000
0000
1000
0000
0000
0000
0000
0000
0000
0000
0000
0000
,  // measure 16
0011
1001
1100
1001
,  // measure 17
1000
0001
0100
0001
,  // measure 18
1000
0000
0001
0010
0000
0010
0001
0000
,  // measure 19
1000
0010
1000
0001
,  // measure 20
0010
0000
1000
0010
0000
0010
0001
0000
,  // measure 21
1000
0010
0001
0010
,  // measure 22
0100
0000
0001
0010
0000
0010
0001
0000
,  // measure 23
0100
0000
0000
0100
0000
0000
0200
0000
0000
0000
0300
0000
0000
0000
0000
0000
,  // measure 24
0010
0000
0000
0010
0000
0000
0020
0000
0000
0000
0030
0000
0000
0000
0000
0000
,  // measure 25
1000
0100
1000
0100
,  // measure 26
1000
0000
0010
0100
0000
0010
0100
0000
,  // measure 27
0001
0010
0001
0010
,  // measure 28
0001
0000
0100
0010
0000
0100
0010
0000
,  // measure 29
2000
0000
3000
0100
0002
0000
0003
0100
,  // measure 30
2000
0000
3000
0010
0002
0000
0003
0000
,  // measure 31
0010
0000
0000
0010
0000
0000
0020
0000
0000
0000
0030
0000
0000
0000
0000
0000
,  // measure 32
0100
0000
0000
0100
0000
0000
0200
0000
0000
0000
0300
0000
0000
0000
0000
0000
,  // measure 33
0001
0000
0000
1000
0000
0000
0001
0000
1000
0000
0000
0001
0000
0000
1000
0000
,  // measure 34
0001
0000
0000
1000
0000
0000
0001
0000
0000
0000
0000
0000
0000
0000
0000
0000
,  // measure 35
0010
0000
0000
0100
0000
0000
0010
0000
0100
0000
0000
0010
0000
0000
0100
0000
,  // measure 36
0010
0000
0000
0100
0000
0000
0010
0000
0000
0000
0000
0000
0000
0000
0000
0000
,  // measure 37
0100
0000
0000
1000
0000
0000
0100
0000
1000
0000
0000
0000
0010
0000
0000
0000
,  // measure 38
0100
0000
0000
0010
0000
0000
0100
0000
0010
0000
0000
0000
0100
0000
0000
0000
,  // measure 39
0001
0000
0000
0001
0000
0000
0002
0000
0000
0000
0003
0000
0000
0000
0000
0000
,  // measure 40
1000
0000
0000
1000
0000
0000
2000
0000
0000
0000
3000
0000
0000
0000
0000
0000
,  // measure 41
0010
0100
0010
0100
,  // measure 42
0001
0000
0010
0001
0000
0001
0100
0000
,  // measure 43
0010
0100
0010
0100
,  // measure 44
0001
0000
1000
0100
0000
0100
1000
0000
,  // measure 45
0010
0000
0000
0110
0000
0000
0001
0000
,  // measure 46
0010
0000
0000
0110
0000
0000
0100
0000
,  // measure 47
1000
0000
0000
1000
0000
0000
2000
0000
0000
0000
3000
0000
0000
0000
0000
0000
,  // measure 48
0100
0000
0000
0100
0000
0000
0200
0000
0000
0000
0300
0000
0000
0000
0000
0000
,  // measure 49
0010
0001
1000
0100
,  // measure 50
0010
0000
0000
0100
0000
0000
0010
0000
0000
0000
0000
0000
0001
0000
0000
0000
,  // measure 51
0100
1000
0001
0010
,  // measure 52
0100
0001
2000
3000
,  // measure 53
0100
0010
0100
1000
,  // measure 54
0010
0000
0000
0100
0000
0000
0010
0000
0000
0000
0000
0000
1000
0000
0000
0000
,  // measure 55
0100
0000
0000
0100
0000
0000
0200
0000
0000
0000
0300
0000
0000
0000
0000
0000
,  // measure 56
0010
0000
0000
0010
0000
0000
0020
0000
0000
0000
0030
0000
0000
0000
0000
0000
,  // measure 57
0001
0100
0010
1000
,  // measure 58
0010
0000
0100
0001
0000
0001
0100
0000
,  // measure 59
0001
0010
0100
1000
,  // measure 60
0100
0000
0010
0100
0000
0100
0010
0000
,  // measure 61
0001
0000
0000
0101
0000
0000
0010
0000
,  // measure 62
1000
0000
0000
1100
0000
0000
0010
0000
,  // measure 63
0001
0000
0000
0001
0000
0000
0002
0000
0000
0000
0003
0000
0000
0000
0000
0000
,  // measure 64
1000
0000
0000
1000
0000
0000
2000
0000
0000
0000
3000
0000
0000
0000
0000
0000
,  // measure 65
0100
0000
0000
0010
0000
0000
0200
0000
0000
0000
0300
0000
0000
0000
0000
0000
,  // measure 66
1000
0000
0000
0001
0000
0000
2000
0000
0000
0000
3000
0000
0000
0000
0000
0000
,  // measure 67
0110
0000
0000
0000
;

//---------------dance-single - ----------------
#NOTES:
     dance-single:
     Shortysnmn2010:
     Hard:
     7:
     0.411733,0.433080,0.197719,0.205323,0.133080,379.000000,353.000000,26.000000,27.000000,0.000000,0.000000,0.411733,0.433080,0.197719,0.205323,0.133080,379.000000,353.000000,26.000000,27.000000,0.000000,0.000000:
// measure 0
0000
0000
0000
0000
,  // measure 1
0000
0000
0000
0000
,  // measure 2
0000
0000
0000
0000
,  // measure 3
0000
0000
0000
0000
,  // measure 4
0000
0000
0000
0000
,  // measure 5
1000
0000
0000
0100
0000
0000
1000
0000
0010
0000
0000
1000
0000
0000
0001
0000
,  // measure 6
0100
0000
0000
0001
0000
0000
0010
0000
0002
0000
0000
0000
0003
0000
1000
0000
,  // measure 7
0100
0000
0000
0010
0000
0000
0220
0000
0000
0000
0330
0000
0000
0000
0000
0000
,  // measure 8
0001
0000
0000
1000
0000
0000
2002
0000
0000
0000
3003
0000
0000
0000
0000
0000
,  // measure 9
0010
0000
0000
1000
0000
0000
0001
0000
0100
0000
0000
0001
0000
0000
0010
0000
,  // measure 10
1000
0010
0000
0100
0010
0100
0010
0000
,  // measure 11
0001
0000
0000
0100
0000
0000
1000
0000
0100
0000
0000
0010
0000
0000
1000
0000
,  // measure 12
0001
0100
0001
0000
1000
0000
0100
0000
,  // measure 13
0010
0000
0000
1000
0000
0000
0010
0000
0100
0000
0000
1000
0000
0000
0010
0000
,  // measure 14
0100
0010
0000
0100
0010
0100
0010
0000
,  // measure 15
1000
0000
0000
0100
0000
0000
2200
0000
0000
0000
3300
0000
0000
0000
0000
0000
,  // measure 16
0011
1100
0011
1100
,  // measure 17
1000
0010
1000
0010
1000
0010
1000
0010
,  // measure 18
0100
0001
0010
0001
0000
0001
0100
0000
,  // measure 19
0110
0000
0010
0100
0010
0100
0010
0100
,  // measure 20
0001
0010
0100
2000
0000
0100
0100
0100
,  // measure 21
3100
0000
1000
0100
1000
0010
0100
0010
,  // measure 22
1000
0001
0100
0002
0000
1000
1000
1000
,  // measure 23
1003
0000
0000
0001
0000
0000
1001
0000
0000
0000
0000
0000
0000
0000
0000
0000
,  // measure 24
0010
0000
0000
0100
0000
0000
0110
0000
0000
0000
0000
0000
0000
0000
0000
0000
,  // measure 25
0001
1000
0001
1000
0001
1000
0001
1000
,  // measure 26
0010
0100
0001
0010
0000
0010
0001
0000
,  // measure 27
1000
0100
1000
0100
1000
0100
1000
0100
,  // measure 28
0010
1000
0010
0002
0000
1000
1000
1000
,  // measure 29
1003
0000
0000
0100
0000
0000
0010
0000
0100
0000
0000
1000
0000
0000
0010
0000
,  // measure 30
0100
0000
0000
0010
0000
0000
1000
0000
0001
0000
0010
0000
0001
0000
1000
0000
,  // measure 31
0100
0000
0000
2000
0000
0000
0020
0000
0000
0000
3030
0000
0000
0000
0000
0000
,  // measure 32
0100
0000
0000
0002
0000
0000
0020
0000
0000
0000
0033
0000
0000
0000
0000
0000
,  // measure 33
0001
0000
0000
0100
0000
0000
0010
0000
0100
0000
0000
0001
0000
0000
0010
0000
,  // measure 34
0001
0000
0000
1100
0000
0000
1001
0000
0000
0000
1000
0000
0010
0000
1000
0000
,  // measure 35
0100
0000
0000
1000
0000
0000
0010
0000
0100
0000
0000
0001
0000
0000
0010
0000
,  // measure 36
0001
0000
0000
0101
0000
0000
1010
0000
0000
0000
0001
0000
0100
0000
0001
0000
,  // measure 37
0010
0000
0000
0100
0000
0000
1000
0000
0010
0000
0000
0000
1000
0000
0100
0000
,  // measure 38
0010
0000
0000
0001
0000
0000
0100
0000
0010
0000
0000
0000
0100
0000
0000
0000
,  // measure 39
0001
0000
0000
0010
0000
0000
0022
0000
0000
0000
0000
0033
0000
0000
0000
0000
,  // measure 40
0100
0000
0000
1000
0000
0000
2200
0000
0000
0000
0000
3300
0000
0000
0000
0000
,  // measure 41
0001
0001
1000
1000
0001
0001
1000
1000
,  // measure 42
0001
0000
0010
0100
0000
0100
0010
0100
,  // measure 43
1000
1000
0010
0010
1000
1000
0010
0010
,  // measure 44
1000
0000
0100
0010
0000
0010
0100
1000
,  // measure 45
0010
0100
0010
1000
0000
0100
0010
0100
,  // measure 46
1000
0010
0100
0010
0000
0100
0001
0010
,  // measure 47
0001
0001
0100
0100
0001
0001
0100
0100
,  // measure 48
0001
0000
0010
0100
0000
0010
0100
0010
,  // measure 49
0100
1000
0010
0100
,  // measure 50
0110
0000
0000
0110
0000
0000
0110
0000
0000
0000
0010
0000
1000
0000
0001
0000
,  // measure 51
1000
0000
0000
0001
0000
0000
1001
0000
0000
0000
0001
0000
0010
0000
0001
0000
,  // measure 52
0010
0000
0000
0100
0000
0000
0110
0000
0000
0000
2002
0000
0000
3003
0000
0000
,  // measure 53
0010
0001
0100
0010
,  // measure 54
0110
0000
0000
0110
0000
0000
0110
0000
0000
0000
1000
0000
0001
0000
1000
0000
,  // measure 55
0002
0000
0000
0010
0000
0000
0020
0000
0000
0000
0000
0033
0000
0000
0000
0000
,  // measure 56
2000
0000
0000
0100
0000
0000
0200
0000
0000
0000
0000
3300
0000
0000
0000
0000
,  // measure 57
1000
1000
0001
0001
1000
1000
0001
0001
,  // measure 58
0100
0000
0010
0100
0000
0100
0010
0100
,  // measure 59
0001
0001
0010
0010
0001
0001
0010
0010
,  // measure 60
0100
0000
0001
0100
0000
0010
0100
0010
,  // measure 61
0001
0100
0010
0100
0000
0001
0010
0100
,  // measure 62
0001
0100
0010
0001
0000
0100
0010
0100
,  // measure 63
1000
1000
0100
0100
0001
0001
1000
1000
,  // measure 64
0100
0000
0020
0200
0000
0000
0330
0000
,  // measure 65
0001
1000
0100
0001
0100
1000
0001
0100
,  // measure 66
1000
0000
0100
0002
0000
0000
0003
0000
,  // measure 67
1001
0000
0000
0000
;
