#TITLE:Evacuate The Dance Floor;
#SUBTITLE:;
#ARTIST:Cascada;
#TITLETRANSLIT:;
#SUBTITLETRANSLIT:;
#ARTISTTRANSLIT:;
#GENRE:;
#CREDIT:;
#MUSIC:Evacuate The Dance Floor.mp3;
#BANNER:;
#BACKGROUND:;
#CDTITLE:;
#SAMPLESTART:98.525;
#SAMPLELENGTH:15.118;
#SELECTABLE:YES;
#OFFSET:-0.257;
#BPMS:0.000=127.000;
#STOPS:;
#BGCHANGES:;
#FGCHANGES:;

//--------------- dance-single - Shortysnmn2010 ----------------
#NOTES:
     dance-single:
     Shortysnmn2010:
     Beginner:
     1:
     0.105168,0.156438,0.05368,0.107359,0,96,89,7,14,0,0,0.105168,0.156438,0.05368,0.107359,0,96,89,7,14,0,0:
0000
0000
0000
0000
,
0000
0000
0000
0000
,
0000
0000
0000
0000
,
0000
0000
0000
0000
,
0000
1000
0000
0001
,
0000
1001
0000
0000
,
0000
0001
0000
1000
,
0000
1001
0000
0000
,
0000
0010
0000
0100
,
0000
0110
0000
0000
,
0000
0200
0000
0300
,
0000
0200
0000
0300
,
0000
1000
0000
1000
,
0000
0001
0000
0000
,
0000
0001
0000
0001
,
0000
1000
0000
0000
,
0000
0100
0000
0100
,
0000
1000
0000
0000
,
0000
0001
0000
0000
,
0011
0000
0000
0000
,
0001
0000
0000
0000
,
1000
0000
0010
0000
,
0100
0000
0000
0000
,
0010
0000
0000
0000
,
1000
0000
0000
0000
,
0100
0000
0010
0000
,
0002
0000
0000
0003
,
2000
0000
0000
3000
,
0010
0000
0000
0000
,
0100
0000
0001
0000
,
0010
0000
0000
0000
,
0001
0000
0000
0000
,
1000
0000
0000
0000
,
0010
0000
1000
0000
,
0100
0000
0000
0000
,
1000
0000
0000
2200
,
0000
0000
3300
0000
,
1000
0000
0000
1000
0000
0000
0000
0000
,
0001
0000
0000
0001
0000
0000
0000
0000
,
0010
0000
0000
0010
0000
0000
0000
0000
,
0200
0000
0000
0300
,
0010
0000
0000
0010
0000
0000
0000
0000
,
0002
0000
0000
0003
,
0200
0000
0000
0300
,
0001
0000
0001
0000
,
0010
0000
0000
0000
,
0100
0000
0100
0000
,
1000
0000
0000
0000
,
0010
0000
1000
0000
,
1000
0000
0000
0000
,
0200
0000
0000
0300
,
0020
0000
0000
0030
,
0100
0000
0000
0000
,
1000
0000
0001
0000
,
0100
0000
0000
0000
,
0001
0000
1000
0000
,
0100
0000
0000
0000
,
1000
0000
0001
0000
,
0010
0000
0000
0000
,
0001
0000
1000
0000
,
0010
0000
0000
0000
,
0100
0000
0100
0000
,
0110
0000
0000
0000
,
0010
0000
0010
0000
,
0110
0000
0000
0000
,
1000
0000
1000
0000
,
0002
0000
0000
0003
,
2000
0000
0000
0002
,
3003
0000
0000
0000
;

//--------------- dance-single - Shortysnmn2010 ----------------
#NOTES:
     dance-single:
     Shortysnmn2010:
     Easy:
     3:
     0.179663,0.209351,0,0.046011,0,164,164,0,6,0,0,0.179663,0.209351,0,0.046011,0,164,164,0,6,0,0:
0000
0000
0000
0000
,
0000
0000
0000
0000
,
0000
0000
0000
0000
,
0000
0000
0000
0000
,
0001
1000
0100
0010
,
0100
0000
0000
0000
,
1000
0001
0010
0100
,
0010
0000
0000
0000
,
0001
0100
1000
0100
,
0001
0000
0000
0000
,
2000
3000
0001
1000
,
0002
0003
1000
0001
,
1000
0000
0100
0000
,
1000
0100
0010
0000
,
0001
0000
0010
0000
,
0001
0010
0100
0000
,
1000
0000
0001
0000
,
1000
0001
0100
0000
,
0010
0000
0000
0010
0000
0000
0000
0000
,
0200
0000
0300
0000
,
0001
0000
0000
0000
1000
0000
0000
0100
,
0000
1000
0100
0000
,
0010
0000
0000
0000
0100
0000
0000
1000
,
0000
0010
1000
0000
,
0001
0000
0000
0000
0100
0000
0000
0001
,
0000
0010
0001
0000
,
1000
0001
1000
0001
,
0100
0001
1000
0000
,
0010
0000
0000
0000
1000
0000
0000
0100
,
0000
0010
0100
0000
,
0010
0000
0000
0000
0001
0000
0000
0100
,
0000
0001
0100
0000
,
0001
0000
0000
0000
1000
0000
0000
0001
,
0000
0010
0001
0000
,
0100
0010
0100
0010
,
1000
0010
0100
0002
,
0000
0000
0000
1000
,
1000
0000
0000
1003
0000
0000
0000
0000
,
0001
0010
0100
1000
,
0001
0000
0000
0000
,
1000
0100
0010
0001
,
1000
0000
0000
0000
,
0001
0100
0010
0100
,
0001
0000
1000
0000
,
0100
1000
0100
0000
,
0010
0000
0001
0000
,
1000
0000
0001
0000
,
0100
0000
0010
0000
,
0100
0000
0001
0000
,
0010
0000
0100
0000
,
1000
0000
0000
1000
0000
0000
0000
0000
,
0002
0000
0003
0000
,
1000
0000
0000
0000
0010
0000
0000
0100
,
0000
0010
0100
0000
,
0010
0000
0000
0000
1000
0000
0000
0100
,
0000
0010
0100
0000
,
0001
0000
0000
0000
0100
0000
0000
0010
,
0000
0100
1000
0000
,
0010
0100
0010
0100
,
0001
0100
0010
0000
,
1000
0000
0000
0000
0001
0000
0000
0010
,
0000
0001
0010
0000
,
0001
0000
0000
0000
1000
0000
0000
0100
,
0000
1000
0100
0000
,
0001
0000
0000
0000
0100
0000
0000
0001
,
0000
0100
1000
0000
,
0001
1000
0001
1000
,
0010
1000
0001
2000
,
0000
3000
0000
0000
;

//--------------- dance-single - Shortysnmn2010 ----------------
#NOTES:
     dance-single:
     Shortysnmn2010:
     Medium:
     5:
     0.273876,0.286803,0.092022,0.153371,0,250,238,12,20,0,0,0.273876,0.286803,0.092022,0.153371,0,250,238,12,20,0,0:
0000
0000
0000
0000
,
0000
0000
0000
0000
,
0000
0000
0000
0000
,
0000
0000
0000
0000
,
1000
0000
0000
0001
0000
0000
0010
0000
,
0001
0000
0000
2000
0000
3000
0000
0000
,
0010
0000
0000
1000
0000
0000
0001
0000
,
0100
0000
0000
0002
0000
0003
0000
0000
,
0100
0000
0000
0010
0000
0000
0100
0000
,
0001
0000
0000
0020
0000
0030
0000
0000
,
0100
0000
1000
0100
1000
0000
0100
0000
,
1000
0000
0010
1000
0010
0000
1000
0000
,
0001
0100
0101
0000
,
1100
0001
0010
0001
,
1000
0010
1010
0000
,
0101
0010
0001
1000
,
0001
0000
0100
0010
0100
0000
0001
0000
,
1000
0000
0001
0000
,
0010
0000
0000
0110
0000
0000
0002
0000
,
2000
0000
3003
0000
,
1000
0000
0100
0000
0010
0000
0100
0010
,
0000
0100
1000
0000
0010
0000
0100
0000
,
0001
0000
0100
0000
0010
0000
1000
0001
,
0000
1000
0001
0000
0020
0000
0030
0000
,
0100
0000
1000
0000
0010
0000
1000
0001
,
0000
1000
0001
0000
0010
0000
0010
0000
,
0002
0010
1000
0100
,
2003
0100
0010
0001
,
3100
0000
0010
0000
0100
0000
1000
0010
,
0000
1000
0010
0000
0100
0000
0100
0000
,
0001
0000
0010
0000
0001
0000
0100
0001
,
0000
0010
0001
0000
2000
0000
3000
0000
,
0001
0000
0100
0000
1000
0000
0100
0001
,
0000
0100
0001
0000
0010
0000
0010
0000
,
0002
1000
0010
0100
,
2003
0100
0010
0002
,
3003
0000
0000
0110
,
1000
0000
0000
0001
0000
0000
0010
0000
,
0100
0000
0000
0010
0000
0000
0001
0000
,
0100
0000
0000
0010
0000
0000
1000
0000
,
0100
0000
0000
1000
0000
0000
0010
0000
,
0100
0000
0000
0001
0000
0000
0100
0000
,
1000
0000
0100
0001
0100
0000
0001
0000
,
0010
0000
0001
0010
0001
0000
0010
0000
,
1000
0010
0011
0000
,
1100
1000
0010
0100
,
0001
0010
0011
0000
,
1100
1000
0010
0100
,
0001
1000
0110
0000
,
0110
0001
0010
0100
,
1000
0000
0001
1000
0000
0000
0001
0000
,
0020
0000
0030
0000
,
0001
0000
0001
0000
0100
0000
1000
0100
,
0000
0100
0001
0000
1000
0000
1000
0000
,
0001
0000
0001
0000
0010
0000
1000
0010
,
0000
0010
0001
0000
2000
0000
3000
0000
,
0010
0000
0010
0000
1000
0000
0100
1000
,
0000
1000
0010
0000
0100
0000
0010
0000
,
2000
0100
0001
0010
,
3002
0010
1000
0100
,
1003
0000
1000
0000
0100
0000
0001
0100
,
0000
0100
1000
0000
0001
0000
0001
0000
,
0100
0000
0100
0000
1000
0000
0100
0001
,
0000
0001
1000
0000
0002
0000
0003
0000
,
0010
0000
0010
0000
0001
0000
0100
0001
,
0000
0001
0010
0000
0100
0000
0010
0000
,
0002
0010
1000
0100
,
2003
0010
0001
0200
,
3300
0000
0000
0000
;

//--------------- dance-single - ----------------
#NOTES:
     dance-single:
     Shortysnmn2010:
     Hard:
     8:
     0,0,0,0,0:
0000
0000
0000
0000
,
0000
0000
0000
0000
,
0000
0000
0000
0000
,
0000
0000
0000
0000
,
1100
0000
0001
0200
0000
0000
0310
1000
,
0001
1000
0100
0010
0000
0000
1001
0000
,
0101
0000
0010
2000
0000
0000
3100
0010
,
0100
1000
0010
0100
0000
0000
0001
0010
,
0001
0000
1000
0200
0000
0000
1300
0000
,
0001
0100
0010
2000
0000
0000
3001
0000
,
1000
0010
0100
1000
0100
0010
1000
0000
,
0100
0010
0001
0100
0010
0001
0010
0000
,
0110
0000
0100
0001
0010
0000
0100
1000
,
0010
0000
0100
0001
0010
0001
1000
0100
,
1000
0000
0010
1000
0100
0000
0010
0001
,
0100
0000
0001
1000
0010
0001
0010
0100
,
0001
0000
1000
0100
0001
0000
0110
0000
,
1001
0000
1000
0010
1000
0001
0100
0001
,
2000
0000
3001
0110
0000
0000
1001
0000
,
0020
0000
0000
0030
,
1000
0100
1000
0000
0100
1000
0200
0010
,
0000
1000
1300
0001
0100
0000
1001
0000
,
0001
0100
0001
0000
0100
0001
0020
0001
,
0000
0100
0130
1000
0001
0000
0110
0000
,
1000
0001
0100
0000
0001
1000
0200
0010
,
0000
1000
1300
0001
0100
0010
0100
0000
,
0001
0010
1000
0010
0100
0001
0100
1000
,
0010
0100
1000
0100
0001
0100
0010
1000
,
0001
0010
0001
0010
0001
0010
0002
0100
,
0000
1000
1003
0100
0010
0000
1010
0000
,
0010
0100
1000
0000
0010
0100
0002
0010
,
0000
0100
0103
0001
0010
0000
0110
0000
,
1000
0100
1000
0100
1000
0100
2000
0010
,
0000
0100
3100
0010
0001
0100
0001
0000
,
0100
1000
0100
0010
0001
0010
1000
0001
,
0100
1000
0100
0001
0010
0001
1000
0200
,
0000
0300
0000
1001
,
0110
0000
1000
1010
0000
0000
1001
0000
,
0011
0000
0100
2000
0100
0000
3100
0010
,
0001
0010
0100
2000
0000
3000
0101
0000
,
0010
1000
0001
1000
0100
0001
0100
0000
,
1000
0010
0100
0002
0000
0003
1100
0000
,
0010
0000
0001
0010
0001
0000
1000
0000
0001
0000
1000
0000
0010
0000
0000
0000
,
1000
0000
0001
1000
0001
0000
0100
0000
0010
0000
0100
0000
0001
0000
0000
0000
,
1001
0000
0100
1000
0010
0000
0100
0001
,
0010
0000
0001
0001
1000
0010
0001
0010
,
0100
0000
0010
1000
0100
0000
0010
0001
,
0100
0000
0010
0010
1000
0001
0010
1000
,
0010
0000
0100
1000
0010
0000
1001
0000
,
0101
0000
0010
1000
0100
1000
0010
0100
,
0002
0000
1003
0110
0000
0000
2000
0000
,
0002
0000
0000
3003
,
0001
0100
0001
0000
0100
0001
0200
0010
,
0000
0001
0301
1000
0100
0000
1100
0000
,
1000
0010
1000
0000
0100
1000
0200
0001
,
0000
0010
0310
0001
1000
0000
0001
0000
,
0100
0010
0100
0000
0010
0100
0020
1000
,
0000
0100
0130
0001
0010
0001
0100
0000
,
0001
0100
0010
0001
0010
0100
1000
0100
,
0001
0010
0100
0001
0100
1000
0010
0100
,
0001
1000
0001
1000
0001
1000
0002
1000
,
0000
0010
0013
0100
1000
0000
1010
0000
,
1000
0100
0010
0000
0001
0010
0200
1000
,
0000
0010
0310
0001
0100
0000
0010
0000
,
1000
0001
1000
0001
1000
0001
2000
0001
,
0000
0010
3010
0100
0001
0010
1000
0000
,
0001
0100
0001
0100
1000
0100
0010
0001
,
1000
0010
0001
0010
1000
0100
0010
0200
,
0000
0300
0000
0000
0000
0000
0000
0000
;
