#TITLE:Checkpoint;
#SUBTITLE:;
#ARTIST:Nitro Fun & Hyper Potions;
#TITLETRANSLIT:;
#SUBTITLETRANSLIT:;
#ARTISTTRANSLIT:;
#GENRE:;
#CREDIT:;
#MUSIC:Checkpoint.mp3;
#BANNER:;
#BACKGROUND:;
#CDTITLE:;
#SAMPLESTART:68.627;
#SAMPLELENGTH:13.694;
#SELECTABLE:YES;
#OFFSET:-0.041;
#BPMS:0.000=140.000
,29.000=140.800
,32.000=140.001
,158.000=139.600
,160.000=140.000
;
#STOPS:;
#DISPLAYBPM:140.000;
#BGCHANGES:;
#FGCHANGES:;

//--------------- dance-single - Shortysnmn2010 ----------------
#NOTES:
     dance-single:
     Shortysnmn2010:
     Beginner:
     1:
     0.100945,0.13977,0,0.06212,0,91,91,0,8,0,0,0.100945,0.13977,0,0.06212,0,91,91,0,8,0,0:
0000
0000
0000
0000
,
0000
0000
0000
0000
,
0000
0000
0000
0000
,
0000
0000
0000
0000
,
0001
0000
0000
0000
,
0010
0000
0000
0000
,
0200
0000
0000
0000
,
0000
0000
0300
0000
,
1000
0000
0000
0010
,
0010
0000
0000
0100
,
0100
0000
0000
0000
,
0001
0000
0000
0000
,
1000
0000
0100
0000
,
1000
0000
0100
0000
,
0200
0000
0000
0000
,
0000
0000
0300
0000
,
0010
0000
0000
0001
,
0001
0000
0000
0100
,
0100
0000
0010
0000
,
0100
0000
0000
0000
,
0010
0000
1000
0000
,
1000
0000
0001
0000
,
0002
0000
0000
0000
,
0000
0000
0003
0000
,
1000
0000
0100
0000
,
0010
0000
0000
0000
,
0100
0000
0010
0000
,
0001
0000
0000
0000
,
0010
0000
0001
0000
,
1000
0000
0000
0000
,
0001
0000
1000
0000
,
0100
0000
0000
0000
,
1000
0000
0000
0000
,
0001
0000
0000
0000
,
0100
0000
0010
0000
,
0100
0000
0000
0000
,
0010
0000
0000
0000
,
1000
0000
0000
0000
,
0100
0000
0001
0000
,
0200
0000
0300
0000
,
1000
0000
0000
0000
,
0010
0000
0000
0000
,
0100
0000
0001
0000
,
0100
0000
0000
0000
,
0010
0000
0000
0000
,
1000
0000
0000
0000
,
0001
0000
0010
0000
,
0001
0000
0000
0000
,
1000
0000
0000
0000
,
0100
0000
0000
0000
,
0010
0000
0100
0000
,
1000
0000
0000
0000
,
0010
0000
0000
0000
,
0100
0000
0000
0000
,
0001
0000
0100
0000
,
0010
0000
0010
0000
,
0010
0000
0000
0000
,
0100
0000
0000
0001
,
0002
0000
0003
0000
,
1000
0000
0000
0000
,
0100
0000
0010
0000
,
0010
0000
0100
0000
,
0200
0000
0300
0000
,
1000
0000
0000
0000
,
0001
0000
0001
0000
,
0001
0000
0000
0000
,
1000
0000
1000
0000
,
1000
0000
0000
0000
,
0010
0000
0000
0000
,
0100
0000
0000
0000
,
0002
0000
0000
0000
,
2000
0000
3003
0000
,
0010
0000
0000
0000
;

//--------------- dance-single - Shortysnmn2010 ----------------
#NOTES:
     dance-single:
     Shortysnmn2010:
     Easy:
     4:
     0.235169,0.307494,0.20189,0.20189,0,212,186,26,26,0,0,0.235169,0.307494,0.20189,0.20189,0,212,186,26,26,0,0:
0000
0000
0000
0000
,
0000
0000
0000
0000
,
0000
0000
0000
0000
,
0000
0000
0000
0000
,
1000
0001
0100
1000
,
0100
0001
1000
0001
,
0020
0000
0000
0030
,
1001
0000
0000
0000
,
1000
0000
0000
0000
0000
0010
0000
0010
,
0000
1000
0000
0100
,
0220
0330
1000
0100
,
2000
0000
3000
0100
,
1001
0001
0010
0010
,
1100
0100
1000
1000
,
0020
0000
0000
0030
,
0100
0001
0010
0100
,
1000
0000
0000
0000
0000
0001
0000
0001
,
0000
0010
0000
0001
,
2002
3003
0010
1000
,
0002
0000
0003
0100
,
1010
0010
0100
0100
,
1001
0001
0010
0010
,
0200
0000
0000
0300
,
1000
0000
0001
0000
,
1000
0100
0010
0001
,
0100
0000
1001
0000
,
0010
1000
0001
0100
,
0010
0000
0101
0000
,
0010
1000
0100
0010
,
0001
0000
1100
0000
,
0010
0001
0100
1000
,
0100
0000
1001
0000
,
0010
0000
1000
0000
,
0100
0010
0001
0100
,
0001
0001
1000
1000
,
0010
0010
1000
1000
,
0001
0000
0010
0000
,
0100
0000
1000
0000
,
0010
0100
0010
0100
,
0110
0000
0000
0000
,
2002
3003
0010
0001
,
1000
0010
0000
1000
,
0100
0000
0010
0000
,
0002
0000
0003
0000
,
1100
1000
0010
0010
,
0101
0000
0000
1000
0000
1000
0000
0000
,
0200
0000
0010
1300
,
1001
0000
0000
0000
,
2002
3003
0010
1000
,
0100
0010
0000
0001
,
0100
0000
0010
0000
,
2000
0000
3000
0000
,
0101
0001
1000
1000
,
0110
0000
0000
1000
0000
0001
0000
0000
,
0020
0000
0001
0130
,
1001
0000
0000
0000
,
1000
0000
0000
0000
0000
0010
0000
0010
,
0000
0100
0000
0001
,
0011
0000
0001
0100
,
0020
0030
2000
3000
,
0001
0001
1000
0100
,
1000
1000
0010
1000
,
0002
0000
0010
0020
,
0000
0033
1000
0100
,
1001
1001
0000
0010
,
1000
0100
0100
1000
,
0002
0003
2000
3000
,
0100
0010
0100
0000
,
1100
1100
0010
0020
,
0030
0001
0100
0001
,
2000
0000
0000
0000
0000
0000
0000
0002
,
0000
0000
0000
3003
,
0110
0000
0000
0000
;

//--------------- dance-single - Shortysnmn2010 ----------------
#NOTES:
     dance-single:
     Shortysnmn2010:
     Medium:
     6:
     0.320584,0.391356,0.163065,0.194125,0,289,268,21,25,0,0,0.320584,0.391356,0.163065,0.194125,0,289,268,21,25,0,0:
0000
0000
0000
0000
,
0000
0000
0000
0000
,
0000
0000
0000
0000
,
0000
0000
0000
0000
,
1000
0100
0001
0100
,
1000
0010
0001
0010
,
2002
0000
0000
3003
,
0010
0000
0000
1001
,
1000
0000
0000
0000
0000
0001
0010
0100
,
0000
0000
1000
0100
0000
0000
0010
0000
,
1001
0000
0000
0001
0100
0001
1000
0002
,
0000
0000
0003
1000
,
0110
0000
0001
0100
0001
0000
0010
0000
,
0110
0000
1000
0100
1000
0000
0010
0000
,
0220
0000
0000
0330
,
0001
0010
0001
0000
1000
0100
1000
0000
,
0010
0000
0000
0000
0000
0100
0001
0010
,
0000
0000
0100
1000
0000
0000
1010
0000
,
0101
0000
0000
1000
0100
1000
0001
2000
,
0000
0000
3000
0010
,
0110
0000
0001
0100
0001
0000
0010
0000
,
0110
0000
1000
0100
1000
0000
0010
0000
,
0220
0000
0000
0330
,
1000
0001
1000
0110
,
0001
0000
1000
0000
0100
0000
0010
0001
,
0000
0000
1000
0100
0000
0000
1000
0010
,
0100
0000
0001
0100
0010
0000
1000
0001
,
0000
0000
1000
0001
0010
0000
0100
0010
,
0100
0000
1000
0010
0000
0000
0100
0001
,
0000
0000
1000
0100
0000
0000
0010
0100
,
2000
3002
2003
3002
,
0023
0230
0320
0230
,
1300
0000
0100
0000
1000
0001
0000
0100
,
0000
0000
0010
1000
0000
0000
0100
0010
,
0100
0000
1000
0001
0100
0000
0010
0100
,
0000
0000
0001
0010
0001
0000
1000
0100
,
0010
0001
0100
0010
,
1000
0100
0010
0001
,
0100
0010
0100
0010
0100
0010
0100
0010
,
0100
0010
0100
0020
0000
0000
0030
0000
,
0100
0000
0000
0010
1000
0010
1000
0010
,
0000
0000
0100
0001
0000
1000
0000
0001
,
2000
0000
3000
0100
0010
0000
0010
0002
,
0000
0000
0000
0000
0000
0003
0000
1000
,
0010
0000
0001
0000
1000
0000
0100
0001
,
0000
0000
1000
0100
0000
0110
0000
0000
,
0011
0000
0000
0001
1000
0001
1000
0002
,
0000
0000
0003
0000
,
1000
0000
0000
0010
1000
0010
0100
0010
,
0000
0000
0100
0001
0000
0010
0000
0010
,
0200
0000
0300
1000
0001
0000
0001
2000
,
0000
0000
0000
0000
0000
3000
0000
0001
,
0010
0000
1000
0000
0001
0000
0100
1000
,
0000
0000
0001
0100
0000
0010
0000
0000
,
1010
0000
0000
1000
0001
0000
0100
0000
,
0010
0010
0100
0100
,
0010
0000
0000
0000
0000
1000
0001
1000
,
0000
0000
0100
0010
0000
0000
0011
0000
,
1100
0000
0000
0001
1000
0001
1000
0001
,
0000
0000
0100
0010
,
1000
1000
0001
0001
,
0100
0100
0010
0010
,
1001
0000
0000
1000
0100
0000
0010
0002
,
0000
0100
1000
0103
,
1010
0000
1010
0000
0000
0001
0000
0001
,
0000
1000
0000
1000
0000
0010
0100
0000
,
0001
0000
0000
1000
0100
0000
1000
0010
,
0000
0000
0100
0001
,
0010
0000
0010
0000
0001
0000
0001
0100
,
0000
0100
0010
0000
0010
0000
1000
0000
,
0002
0000
0000
0000
0003
0000
0000
2000
,
0000
0000
3000
0000
,
0110
0000
0000
0000
;

//--------------- dance-single - Shortysnmn2010 ----------------
#NOTES:
     dance-single:
     Shortysnmn2010:
     Hard:
     8:
     0.459244,0.55908,0.225185,0.225185,0.104827,414,385,29,29,0,0,0.459244,0.55908,0.225185,0.225185,0.104827,414,385,29,29,0,0:
0000
0000
0000
0000
,
0000
0000
0000
0000
,
0000
0000
0000
0000
,
0000
0000
0000
0000
,
1000
0100
0001
0100
1000
0010
1000
0100
,
0001
0100
1000
0010
1000
0100
0010
0002
,
2000
0000
0000
3003
,
0110
0000
0000
0000
,
1001
0000
1000
0000
0001
0100
0010
0100
,
0000
0000
0001
0010
0100
0000
1100
0000
,
1001
0000
0000
0000
0000
0000
1000
0100
1000
0000
0001
0000
0010
0000
0002
0000
,
0000
0000
0100
0000
0100
0000
1003
0010
,
0100
0001
1000
0010
1000
0100
0010
0001
,
1000
0010
0001
1000
0100
0001
1000
0100
,
0020
0000
0000
0030
,
0001
1000
0001
0100
0001
1000
0001
0010
,
0100
0000
1000
0000
0001
0100
1000
0100
,
0000
0000
0010
1000
0100
0000
0010
0000
,
0011
0000
0000
0000
0000
0000
0001
0100
0001
0000
1000
0000
0100
0000
2000
0000
,
0000
0000
0010
0000
0010
0000
3001
0100
,
0010
1000
0100
0010
0100
1000
0010
0100
,
0001
0010
1000
0001
0100
1000
0001
0100
,
0020
0000
0000
0030
,
0101
1001
1100
1001
,
1000
0100
0010
0001
0100
0001
0010
0200
,
0000
0300
1000
0200
0000
0300
0001
0100
,
1000
0000
0010
1000
0100
0000
0001
0100
,
1000
0000
0010
1000
0100
0000
0010
0100
,
1000
0001
0100
0001
0010
0100
1000
0020
,
0000
0030
0100
0020
0000
0030
0001
0010
,
0100
0000
0100
0000
0001
0100
1000
0100
,
0001
0011
0101
0011
,
0001
0000
0000
0010
0000
0000
0001
0000
0100
0000
0000
0010
0000
0000
1000
0000
,
0100
0000
0000
1000
0000
0000
0001
0000
0100
0000
0000
1000
0000
0000
0100
0000
,
0010
0000
0000
1000
0000
0000
0100
0000
0001
0000
0000
0100
0000
0000
0010
0000
,
0001
0000
0000
0100
0000
0000
0010
0000
0100
0000
0000
0001
0000
0000
1000
0000
,
0010
0001
0010
0001
1000
0100
1000
0100
,
0001
0010
0001
0010
1000
0001
1000
0001
,
0400
0040
0000
0000
0000
0000
0000
0000
0000
0000
0000
0000
0000
0000
0000
0000
,
0000
0000
0000
0000
0330
0000
0000
0000
0100
1000
0000
0100
0000
1000
0001
0000
,
2002
0000
0000
3003
0000
0000
0010
0000
0001
0000
0100
0000
0010
0000
0100
0000
,
0000
0000
0000
0100
0001
0000
0010
0000
0000
0000
0110
0000
0000
0000
0100
0000
,
2000
0000
0000
0000
3000
0000
0100
1000
0100
0000
0010
0000
0001
0000
0100
0000
,
0002
0000
0000
0000
0000
0000
0003
1000
,
0100
0001
0100
1000
0001
0100
1000
0200
,
0000
0300
0001
0010
0000
0011
0000
0000
,
1001
0000
0000
0000
0000
0000
0001
0100
0001
0000
0010
0000
0100
0000
0010
0000
,
0002
0000
0000
0003
,
1001
0000
0000
1000
0010
0001
0010
1000
,
0000
0000
0000
0100
1000
0000
0010
0000
0000
0000
1010
0000
0000
0000
0100
0000
,
0002
0000
0000
0000
0003
0000
1000
0010
1000
0000
0001
0000
0010
0000
0200
0000
,
0001
0000
1000
0000
0310
0000
1001
0001
,
1000
0001
0100
1000
0100
0001
1000
0200
,
0000
0300
0001
0100
0000
1100
0000
0000
,
1001
0000
0000
0000
0000
0000
0010
0100
0010
0000
0001
0000
0100
0000
0010
0000
,
0100
0000
0100
0000
0001
0000
0001
0100
0010
0100
0001
0000
0100
0001
0100
0000
,
0020
0000
1030
0001
2000
0100
3100
0010
,
0000
0000
0011
0000
0011
0000
0001
0000
1000
0000
0100
0010
0100
0000
1000
0000
,
0002
0000
0000
0000
0003
0000
1000
0010
0100
0000
0001
0000
0100
0000
0020
0000
,
0000
0100
0100
0000
0130
0000
0000
0000
,
0001
0100
0001
0010
0100
1000
0010
1000
,
0001
0010
0100
0001
0100
1000
0010
1000
,
0200
0000
0000
0000
0300
0000
0010
0100
0010
0000
0100
0000
1000
0000
1000
0000
,
0000
0000
0001
1000
0001
0100
0001
0010
,
0110
0000
0110
0000
0100
1000
0010
1000
,
0000
0001
0010
0001
0000
0100
0010
0000
,
0220
0000
0000
0330
0000
0000
0100
0010
0100
0000
0001
0000
1000
0000
0020
0000
,
0000
0100
0100
0000
0130
0000
0010
0000
,
1001
0000
1001
1000
0001
0001
0010
0100
,
0000
0100
1000
0010
1000
0100
0010
0001
,
2000
0000
0000
0000
3000
0001
0100
2000
,
0000
0000
3000
0000
,
0110
0000
0000
0000
;
