#TITLE:Break The Ice;
#SUBTITLE:Jason Nevins Remix;
#ARTIST:Britney Spears;
#TITLETRANSLIT:;
#SUBTITLETRANSLIT:;
#ARTISTTRANSLIT:;
#GENRE:;
#CREDIT:;
#MUSIC:Break The Ice (Jason Nevins Remix).mp3;
#BANNER:;
#BACKGROUND:;
#CDTITLE:;
#SAMPLESTART:44.934;
#SAMPLELENGTH:14.830;
#SELECTABLE:YES;
#OFFSET:-0.061;
#BPMS:0.000=126.000
,32.000=129.620
,77.000=129.480
,120.000=129.420
,134.000=129.380
,149.000=129.340
,162.000=129.000
,163.000=129.338
,169.000=129.100
,170.000=129.319
,173.000=129.280
,190.000=129.240
,197.000=129.140
,198.000=129.040
,199.000=129.130
,200.000=129.220
,212.000=129.180
,213.000=129.020
,214.000=129.160
,220.000=129.120
,236.000=128.800
,239.000=128.550
;
#STOPS:;
#BGCHANGES:;
#FGCHANGES:;

//--------------- dance-single - ----------------
#NOTES:
     dance-single:
     Shortysnmn2010:
     Beginner:
     1:
     0.105448,0.182626,0.042422,0.050906,0,87,82,5,6,0,0,0.105448,0.182626,0.042422,0.050906,0,87,82,5,6,0,0:
0000
0000
0000
0000
,
0000
0000
0000
0000
,
0000
0000
0000
0000
,
0000
0000
0000
0000
,
1000
0000
0000
0001
,
0001
0000
0000
0100
,
0100
0000
0000
0010
,
0020
0000
0030
0000
,
2000
0000
0000
3000
,
0001
0000
0000
0010
,
0010
0000
0000
0000
,
0100
0000
0000
1000
,
1000
0000
0000
0000
,
0001
0000
0000
0010
,
0010
0000
0010
0000
,
0001
0000
0000
0000
,
1000
0000
0010
0000
,
1000
0000
0010
0000
,
0100
0000
0000
0000
,
0001
0000
0000
0000
,
0010
0000
0001
0000
,
0010
0000
0001
0000
,
0100
0000
0000
0000
,
0010
0000
0000
0000
,
1000
0000
0000
0000
,
0100
0000
0000
0000
,
0001
0000
0100
0000
,
1000
0000
0000
0000
,
0001
0000
0000
0000
,
0100
0000
0000
0000
,
1000
0000
0100
0000
,
0001
0000
0000
0000
,
1001
0000
0000
0000
,
1000
0000
0000
0000
,
0110
0000
0000
0000
,
0020
0000
0030
0000
,
0000
0110
0000
0000
0000
0000
1000
0000
,
1001
0000
0000
0000
,
0110
0000
0000
0000
,
0001
0000
0000
0000
,
2000
0000
0000
3000
,
0001
0000
1000
0000
,
0002
0000
0000
0003
,
1000
0000
0000
0000
,
0100
0000
0100
0000
,
1000
0000
1000
0000
,
0100
0000
0000
0000
,
1000
0000
0000
0000
,
0010
0000
0010
0000
,
0001
0000
0001
0000
,
0010
0000
0000
0000
,
1000
0000
0000
0000
,
0100
0000
0000
0010
,
0010
0000
0000
0001
,
0001
0000
1000
0000
,
0001
0000
0000
0000
,
0100
0000
0000
0010
,
0010
0000
0000
1000
,
1000
0000
0100
0000
,
1000
0000
0000
0000
,
0002
0000
0000
0000
,
0000
0000
0003
0000
;

//--------------- dance-single - ----------------
#NOTES:
     dance-single:
     Shortysnmn2010:
     Easy:
     3:
     0.176959,0.234805,0.008484,0.101812,0,146,145,1,12,0,0,0.176959,0.234805,0.008484,0.101812,0,146,145,1,12,0,0:
0000
0000
0000
0000
,
0000
0000
0000
0000
,
0000
0000
0000
0000
,
0000
0000
0000
0000
,
1000
0000
0000
0100
0000
0000
0000
0000
,
1000
0000
0000
0010
0000
0000
0000
0000
,
0100
0000
0000
0010
0000
0000
0000
0000
,
2000
0000
0000
3000
,
0000
0001
0000
0000
0010
0000
0001
0000
,
0100
0000
0010
0000
,
0000
0100
0000
0000
0001
0000
0010
0000
,
0001
0000
1000
0000
,
0000
0010
0000
0000
1000
0000
0001
0000
,
1000
0000
0000
0100
0000
0000
0000
0000
,
0010
0001
0010
0001
,
0200
0000
0300
0000
,
0001
1000
0100
0000
,
1000
0001
0100
0000
,
0010
0000
0100
0000
,
0020
0000
0030
0000
,
1000
0100
0001
0000
,
0100
1000
0100
0000
,
1000
0010
0001
0000
,
0010
0000
0000
1000
0000
0000
0100
0000
,
0010
0000
0001
0100
,
0001
0000
1000
0010
,
0200
0300
0200
0300
,
0001
1000
0001
1000
,
0100
0000
0010
0100
,
1000
0000
0010
0000
,
0100
0010
0100
0010
,
2000
3000
2000
3000
,
0001
0000
0010
0001
,
0010
0000
0001
0000
,
0100
0000
0001
0100
,
0002
0000
0003
0000
,
0000
1001
0000
0000
1000
0000
0001
0000
,
0010
0000
0000
0100
0000
0000
1000
0000
,
0000
0010
0000
0000
1000
0000
0000
0000
,
0100
0000
0000
0100
0000
0000
1000
0000
,
0010
0000
0000
1000
,
0100
0010
0100
1000
,
0001
0100
0001
1000
,
0020
0000
0030
0000
,
2000
3000
0001
0010
,
0001
0000
1000
0100
,
1000
0000
0010
0000
,
0100
0000
0010
0000
,
0200
0300
0001
0010
,
0001
0000
0100
0010
,
0100
0000
0010
0000
,
1000
0000
0100
0000
,
1000
0000
0100
0100
,
1000
0000
0010
0000
,
0100
0001
0100
0001
,
0010
0000
0010
0000
,
0001
0000
0100
0010
,
0100
0000
0010
0000
,
1000
0100
1000
0100
,
1000
0000
0010
0000
,
0200
0000
0000
0000
,
0000
0000
0300
0000
;

//--------------- dance-single - ----------------
#NOTES:
     dance-single:
     Shortysnmn2010:
     Medium:
     6:
     0.329678,0.365251,0.161203,0.093328,0,272,253,19,11,0,0,0.329678,0.365251,0.161203,0.093328,0,272,253,19,11,0,0:
0000
0000
0000
0000
,
0000
0000
0000
0000
,
0000
0000
0000
0000
,
0000
0000
0000
0000
,
1000
0000
0000
0001
0000
0100
0001
0000
,
0010
0000
0000
0001
0000
1000
0010
0000
,
1000
0000
0000
0001
0000
0100
0010
0000
,
0200
0000
0300
0000
,
0010
2000
0000
0000
3001
0000
0010
0100
,
1000
0000
0010
1000
0000
1000
0010
1000
,
0000
0002
0000
0000
1003
0000
0010
0100
,
0010
0000
1000
0100
0000
0010
0001
0010
,
0000
0002
0000
0000
1003
0000
0100
0010
,
0100
0000
1000
0010
0000
0100
0010
0100
,
0010
1000
0100
0010
,
0002
0000
0003
0000
,
1000
0000
0100
0000
0010
0001
0010
0001
,
1000
0000
0100
0000
0010
0001
0010
0001
,
1000
0000
0100
0000
0010
0001
0010
0001
,
1000
0000
0000
1001
0000
1001
0000
0000
,
0001
0000
0100
0000
0010
1000
0010
1000
,
0001
0000
0100
0000
0010
1000
0010
1000
,
0001
0000
0100
0000
0010
1000
0010
1000
,
0001
0000
0000
1001
0000
1000
0001
0000
,
0010
0000
0000
0001
0010
0000
0001
0000
,
0100
0000
0000
0001
0100
0000
1000
0000
,
0100
0000
0001
0010
0001
0000
1000
0000
,
0100
1100
0001
1100
,
0010
0000
0000
0100
1000
0000
0010
0000
,
1000
0000
0000
0010
1000
0000
0100
0000
,
0010
0000
0001
0100
0001
0000
0010
0000
,
0100
1100
0010
1100
,
0001
0000
0000
0100
0001
0100
0001
0100
,
0001
0000
0000
0010
0100
0010
0100
0010
,
0100
0000
0000
1000
0010
1000
0010
1000
,
0020
0030
0200
0300
,
0000
1001
0000
0000
0001
0000
0010
0000
,
0001
0000
0000
1001
0000
0000
1000
0010
,
0000
1010
0000
1010
0000
0000
0100
0000
,
0001
0000
0010
0001
0000
0000
0000
0000
,
2000
0000
0000
0000
3000
1000
0100
0000
,
0010
0000
0001
0010
0000
0010
0001
0000
,
0010
0000
0001
0100
0000
0100
0001
0000
,
0010
0001
2000
3000
,
0001
0000
1000
0000
0010
0100
0010
0100
,
0001
0000
1000
0000
0100
0010
0100
0010
,
0001
0000
1000
0000
0010
0100
0010
0100
,
0001
0000
0000
0110
0000
0110
0000
0000
,
0100
0000
0010
0000
0001
1000
0001
1000
,
0100
0000
0010
0000
0001
1000
0001
1000
,
0010
0000
0100
0000
0001
1000
0001
1000
,
0100
0000
0000
0110
0000
0100
0010
0000
,
0100
0000
0000
1000
0100
0000
0001
0000
,
0100
0000
0000
0010
0100
0000
1000
0000
,
0010
0000
1000
0010
1000
0000
0010
0000
,
0100
0101
0010
0101
,
0010
0000
0000
1000
0001
0000
0010
0000
,
1000
0000
0000
0010
0100
0000
1000
0000
,
0001
0000
0100
0010
0100
0000
1000
0000
,
0100
0110
0001
0110
,
2002
0000
0000
0000
,
0000
0000
3003
0000
;

//--------------- dance-single - ----------------
#NOTES:
     dance-single:
     Shortysnmn2010:
     Hard:
     7:
     0.412097,0.41743,0.356343,0.144234,0,340,298,42,17,0,0,0.412097,0.41743,0.356343,0.144234,0,340,298,42,17,0,0:
0000
0000
0000
0000
,
0000
0000
0000
0000
,
0000
0000
0000
0000
,
0000
0000
0000
0000
,
2000
0000
0000
0100
0000
3100
0010
0001
,
2000
0000
0000
0010
0000
3010
0100
0001
,
0020
0000
0000
0100
0000
0130
1000
0001
,
0100
0000
0000
0000
,
1000
0001
0000
0001
1000
0000
0100
0010
,
0001
0000
0100
0010
0000
0100
0010
0100
,
0001
0010
0000
0010
0001
0000
0100
0010
,
1000
0000
0001
0010
0000
0100
0010
0100
,
0010
0001
0000
1000
0001
1000
0100
0010
,
0100
0000
1000
0010
0000
0100
0001
0100
,
0001
0010
0100
1000
0010
0001
0010
2000
,
0000
0001
3001
0000
,
1000
0000
1010
0000
0100
0001
0010
0001
,
0100
0000
1001
0000
0010
0001
0100
0001
,
0010
0000
1001
0000
0100
1000
0010
1000
,
0100
0010
0000
0110
0000
1001
0000
0000
,
1000
0000
1010
0000
0001
0100
1000
0100
,
0001
0000
1010
0000
0100
0001
0010
0001
,
0100
0000
1010
0000
0001
1000
0100
0010
,
0100
0000
1000
0010
0000
1000
0100
1000
,
0010
0000
0000
0100
0001
1000
0001
0100
,
1000
0000
0000
0100
0010
0100
0001
0010
,
0002
0000
1000
0100
1000
0000
0013
0000
,
1001
1100
1001
0101
,
0110
0000
0000
0001
0010
0100
1000
0001
,
1000
0000
0000
0100
0010
0001
0100
0010
,
2000
0000
0001
0010
0001
0000
3100
0000
,
0110
0011
0110
1100
,
1001
0000
0000
0001
0100
0001
0100
0001
,
0010
0000
0000
0100
1000
0100
1000
0100
,
0010
0000
0000
0001
1000
0001
1000
0001
,
0200
0000
0300
0000
,
0000
0110
0000
0100
0010
0000
0100
0001
,
0010
0000
0001
2000
0000
0000
0100
3100
,
0000
0110
0000
0110
0000
0010
0001
0100
,
0001
0000
1000
0020
0000
0030
0000
0000
,
0202
0000
0000
0303
0000
1000
0010
1000
,
0100
0010
0100
1000
0000
0001
0100
0010
,
0100
0001
1000
0001
0000
0010
0001
0010
,
0200
2000
0000
0000
3300
0000
1001
0000
,
0010
0000
1001
0000
0100
0010
0100
0010
,
1000
0000
0110
0000
0001
1000
0001
1000
,
0100
0000
1001
0000
0010
0001
0010
0001
,
0100
0010
0000
0101
0000
1001
0000
0000
,
1000
0000
1100
0000
0010
0001
0010
0001
,
0100
0000
0101
0000
0010
1000
0010
1000
,
0100
0000
0110
0000
0100
1000
0001
1000
,
0100
0010
0000
0011
0000
0001
0010
0001
,
1000
0000
0000
0001
0100
0001
0010
0100
,
1000
0000
0000
0010
1000
0010
0100
0001
,
0020
0000
0100
0001
0100
0000
1030
0000
,
1010
0110
0011
0101
,
0110
0000
0000
0100
0001
0010
0100
1000
,
0010
0000
0000
1000
0010
0100
0001
0010
,
0200
0000
0010
1000
0010
0000
0301
0000
,
0101
0110
0011
0101
,
0220
0000
0000
0000
,
0000
0000
0330
0000
;

//--------------- dance-single - ----------------
#NOTES:
     dance-single:
     Shortysnmn2010:
     Challenge:
     9:
     0.039998,0.060133,0,0,0.016969,33,33,0,0,0,0,0.039998,0.060133,0,0,0.016969,33,33,0,0,0,0:
0000
0000
0000
0000
,
0000
0000
0000
0000
,
0000
0000
0000
0000
,
0000
0000
0000
0000
0000
0000
0000
0000
0000
0000
0100
0001
0100
0000
0010
0000
,
1000
0000
0001
0100
0001
0000
0010
0000
0000
0000
0100
0000
1000
0000
0100
0000
,
0010
0000
0001
1000
0001
0000
0100
0000
0000
0000
0010
0000
0100
0000
0010
0000
,
1000
0000
0100
1000
0100
0000
0010
0000
0000
0000
0100
0000
0001
0000
0100
0000
,
1000
0001
1000
0000
0100
0000
0100
0000
0010
0000
0010
0000
0001
0000
0001
0000
,
1000
0010
0000
0010
1000
0000
0100
0010
,
0001
0000
0100
0010
0000
0110
1010
1001
,
0011
0001
0000
1000
0100
0000
0010
0100
,
1000
0000
0001
0100
0000
0101
1001
1010
,
0110
0100
0000
0001
0010
0001
0100
1000
,
0100
0000
0001
1000
0000
1100
1001
0011
,
0110
0100
1000
0010
0100
0010
1000
0100
,
0000
0000
1000
0100
1000
0000
0001
0010
0001
0000
0000
0100
0010
1000
0001
1000
,
0010
0000
1000
0100
1000
0000
0001
0000
0200
0000
0010
0000
0010
0000
0301
0000
,
1000
0000
0100
1000
0100
0000
0010
0000
0002
0000
0010
0000
0010
0000
1003
0000
,
0100
0000
0010
0001
0010
0000
0100
0000
2000
0000
0010
0000
0010
0000
3001
0000
,
0100
0010
0000
1010
0000
1001
0000
0000
,
1000
0000
0001
0100
0010
0000
1000
0000
0002
0000
0010
0000
0010
0000
1003
0000
,
0100
0000
0010
0001
1000
0000
0010
0000
0200
0000
0001
0000
0001
0000
0310
0000
,
1000
0000
0001
0010
0100
0000
1000
0000
0002
0000
0100
0000
0100
0000
1003
0000
,
0010
0100
0001
1000
0000
0001
1000
0001
,
0020
0000
0030
0001
1000
0010
0001
0010
,
0110
0000
0000
0000
0000
0000
0100
0001
1000
0000
0010
0000
0001
0000
0010
0000
,
2000
0100
3200
0001
0302
1000
2003
0000
,
0010
0000
0000
0000
3001
0000
0100
1000
0100
0000
1000
0010
1000
0000
0001
0000
,
0200
0000
0300
0001
1000
0010
0100
0010
,
1000
0000
0000
0000
0000
0000
0100
0010
0100
0000
1000
0000
0010
0000
0001
0000
,
0020
0001
0032
1000
2003
0100
3200
0000
,
0001
1000
0001
1300
,
2002
0000
0000
3003
0000
0000
1000
0000
0100
0000
0001
0000
0100
0000
0010
0000
,
1000
1000
0000
0100
1000
0010
0001
1000
,
0100
0100
0000
0001
0010
1000
0010
0100
,
1000
0001
1000
0000
0001
0010
0001
0000
1000
0100
0010
0100
1000
0000
0001
0000
,
0000
0101
0000
0001
0010
0000
0011
0000
,
1100
0000
1001
1001
0000
0000
0100
1000
,
1010
0010
0000
0110
0000
0001
0100
0000
,
1010
0000
0100
0001
1000
0100
0001
0100
,
2000
0000
0100
0000
3100
1000
0100
0010
,
0001
0010
0100
1000
0000
0010
1000
0010
,
0100
0001
0010
0001
0000
0100
0010
0100
,
0001
0000
1000
0100
1000
0000
0001
0100
0001
0000
0000
1000
0100
0010
0100
1000
,
0001
0000
0100
0010
1000
0000
0002
0000
0010
0000
0010
0000
1003
0000
0100
0000
,
0010
0000
0001
0100
0010
0000
0200
0000
0001
0000
0001
0000
0310
0000
1000
0000
,
0100
0000
0010
0001
1000
0000
0200
0000
0001
0000
0010
0000
0310
0000
0001
0000
,
1000
0010
0000
1010
0000
0101
0000
0000
,
0010
0000
1000
0001
0100
0000
0020
0000
1000
0000
1000
0000
0130
0000
0001
0000
,
0010
0000
0100
1000
0001
0000
0020
0000
1000
0000
1000
0000
0130
0000
1000
0000
,
0001
0000
0100
0010
0001
0000
0020
0000
0001
0000
0001
0000
0130
0000
1000
0000
,
0100
0001
0010
0011
0000
1100
0100
1000
,
0020
0000
0030
1000
0001
0100
0001
0010
,
0110
0000
0000
0000
0000
0000
0001
1000
0001
0000
0100
0000
0010
0000
1000
0000
,
0200
0001
0302
1000
2003
0010
3020
0000
,
0001
0000
0000
0000
1030
0000
0001
0100
1000
0000
0010
0000
0100
0000
0001
0000
,
2000
0000
3000
0010
0100
0001
0010
0100
,
1100
0000
0000
0000
0000
0000
1000
0010
0001
0000
0010
0000
0100
0000
0001
0000
,
2000
0010
3020
0001
0032
1000
2003
0000
,
0100
0001
0100
3001
,
0220
0000
0000
0000
,
0330
0000
0000
0000
;
