#TITLE:Blackout;
#SUBTITLE:;
#ARTIST:Breathe Carolina;
#TITLETRANSLIT:;
#SUBTITLETRANSLIT:;
#ARTISTTRANSLIT:;
#GENRE:;
#CREDIT:;
#MUSIC:Blackout.mp3;
#BANNER:;
#BACKGROUND:;
#CDTITLE:;
#SAMPLESTART:57.898;
#SAMPLELENGTH:16.341;
#SELECTABLE:YES;
#OFFSET:-0.093;
#BPMS:0.000=123.000;
#STOPS:;
#BGCHANGES:;
#FGCHANGES:;

//--------------- dance-single - Shortysnmn2010 ----------------
#NOTES:
     dance-single:
     Shortysnmn2010:
     Beginner:
     1:
     0.110142,0.126695,0.043314,0.043314,0,89,84,5,5,0,0,0.110142,0.126695,0.043314,0.043314,0,89,84,5,5,0,0:
0000
0000
0000
0000
,
0000
0000
0000
0000
,
1000
0000
0000
0000
,
0100
0000
0000
0000
,
0010
0000
0000
0000
,
0110
0000
0000
0000
,
0001
0000
0000
0000
,
1000
0000
0000
0000
,
0010
0000
0000
0000
,
0110
0000
0000
0000
,
2000
0000
0000
0000
,
0100
0000
3000
0000
,
2000
0000
0000
0000
,
0010
0000
3000
0000
,
1001
0000
0000
0000
,
0001
0000
0010
0000
,
0001
0000
0000
0000
,
0100
0000
0000
0000
,
0110
0000
0000
0000
,
0010
0000
1000
0000
,
0010
0000
0000
0000
,
2000
0000
3000
0000
,
0100
0000
1000
0000
,
0100
0000
1000
0000
,
0100
0000
1000
0000
,
0010
0000
0000
0000
,
0100
0000
0001
0000
,
0100
0000
0001
0000
,
0010
0000
0000
0000
,
0100
0000
0000
0000
,
0110
0000
0000
0000
,
0100
0000
0000
0000
,
1000
0000
0000
0000
,
0001
0000
1000
0000
,
0001
0000
0000
0000
,
1000
0000
0001
0000
,
1000
0000
0000
0000
,
0010
0000
0000
0000
,
0100
0000
0000
0000
,
0001
0000
0010
0000
,
0001
0000
0000
0000
,
2000
0000
3000
0000
,
0010
0000
0000
1000
,
0000
0000
0100
0010
,
0100
0000
0000
1000
,
0000
0000
0001
0100
,
0001
0000
0000
1000
,
0000
0000
0010
0100
,
0010
0000
0000
1000
,
0000
0000
0100
0010
,
0100
0000
0000
1000
,
0000
0000
0001
0010
,
0001
0000
0000
1000
,
0000
0000
0010
1000
,
0010
0000
0000
0100
,
0000
0000
0001
1000
,
0001
0000
0000
1000
,
0000
0000
0100
0010
,
0100
0200
0300
0000
;

//--------------- dance-single - Shortysnmn2010 ----------------
#NOTES:
     dance-single:
     Shortysnmn2010:
     Easy:
     2:
     0.122518,0.126695,0.008663,0.051977,0,99,98,1,6,0,0,0.122518,0.126695,0.008663,0.051977,0,99,98,1,6,0,0:
0000
0000
0000
0000
,
0000
0000
0000
0000
,
0001
0000
0001
0000
,
0010
0000
0000
0000
,
0100
0000
1000
0000
,
0200
0000
0300
0000
,
1000
0000
1000
0000
,
0010
0000
0000
0000
,
0100
0000
0010
0000
,
0200
0000
0300
0000
,
1001
0000
0000
0000
,
0001
0000
0010
0000
,
0001
0000
0000
0000
,
1000
0000
0010
0000
,
1000
0000
0000
0100
,
0100
0000
0010
0000
,
0010
0000
0001
0000
,
0001
0000
0000
0000
,
1000
0000
0000
0010
,
0010
0000
0100
0000
,
0100
0000
0001
0000
,
0002
0000
0003
0000
,
1000
0000
0001
0000
,
1000
0000
0100
0000
,
0001
0000
1000
0000
,
0001
0000
0000
0000
,
0010
0000
0001
0000
,
0010
0000
0100
0000
,
0001
0000
0010
0000
,
0001
0000
0000
0000
,
2000
0000
3000
0000
,
0001
0000
0001
0000
,
0001
0000
0000
0000
,
0010
0000
0000
0000
,
0100
0000
0000
1000
,
1000
0000
0010
0000
,
0010
0000
1000
0000
,
1000
0000
0000
0000
,
0100
0000
0000
0001
,
0001
0000
0100
0000
,
0100
0000
1000
0000
,
2000
0000
3000
0000
,
0010
0000
0000
1000
,
0000
0000
0001
0001
,
0010
0000
0000
0001
,
0000
0000
0100
0100
,
0010
0000
0000
1000
,
0000
0000
0100
0100
,
0010
0000
0000
0100
,
0000
0000
1000
1000
,
0001
0000
0000
0010
,
0000
0000
0001
0001
,
1000
0000
0000
0010
,
0000
0000
1000
1000
,
0001
0000
0000
0100
,
0000
0000
1000
1000
,
0100
0000
0000
0001
,
0000
0000
0010
0010
,
0000
0200
0300
0000
;

//--------------- dance-single - Shortysnmn2010 ----------------
#NOTES:
     dance-single:
     Shortysnmn2010:
     Medium:
     6:
     0.33909,0.354745,0.45047,0.311864,0.017326,274,222,52,36,0,0,0.33909,0.354745,0.45047,0.311864,0.017326,274,222,52,36,0,0:
0000
0000
0000
0000
,
0000
0000
0000
0000
,
0100
0000
0100
0000
1001
0000
0010
0001
,
0010
0001
0000
0100
0000
0001
0000
0102
,
0000
0100
1000
0103
,
1001
0000
0220
0330
,
1000
0000
0001
0010
0001
0000
0100
0001
,
0100
0000
0001
1000
0000
0100
0000
0001
,
0000
0100
0000
1000
0000
1010
0000
0000
,
1000
0000
0001
0000
0100
0010
0100
0010
,
0200
0000
0300
0001
0100
0000
0000
1001
,
0000
1000
0100
0000
0010
0000
0001
1000
,
0000
0000
0001
1000
0001
0000
0000
0110
,
0000
0000
0000
1000
0001
0000
0010
0000
,
0110
0110
0100
1001
,
2002
0000
0000
0000
3003
0000
0000
0000
0010
0000
0000
0001
0000
0000
0100
0000
,
0000
0000
0010
0000
1000
0001
1000
0001
,
1000
0000
0100
0000
0010
0001
1000
0000
,
1001
1001
0010
0110
,
0220
0000
0000
0000
0330
0000
0000
0000
1000
0000
0000
0100
0000
0000
0001
0000
,
0000
0100
1000
0010
,
0110
0000
0000
0100
0001
0000
0010
0001
,
0100
0100
1001
0010
,
0100
1000
0000
0010
0000
0100
0000
0102
,
0000
1000
0100
1003
,
0110
0000
1001
0000
,
1000
0000
1100
0000
1001
0000
0001
0100
,
0010
0000
0100
0001
0000
0010
0000
0100
,
0000
1000
0000
0010
0000
1010
0000
0000
,
1000
0000
0001
0000
1000
0100
1000
0100
,
2000
0000
3000
0100
1000
0000
0000
1010
,
0000
0100
0001
0000
0010
0000
0001
0100
,
0000
0000
0010
0100
0010
0000
0000
0110
,
0000
0000
0000
0010
1000
0000
1000
0000
,
0011
0011
0100
1001
,
2002
0000
0000
0000
3003
0000
0000
0000
0100
0000
0000
0001
0000
0000
0010
0000
,
0000
0000
0100
0000
1000
0001
1000
0001
,
1000
0000
0100
0000
0010
0001
0100
0000
,
0101
0101
0010
1100
,
2200
0000
0000
0000
3300
0000
0000
0000
0001
0000
0000
0100
0000
0000
1000
0000
,
0000
0100
0001
0010
,
0220
0330
0001
1000
,
0020
0000
0030
0002
0000
0003
2000
0000
,
3000
0100
0000
0001
0010
0000
0011
0000
,
0002
0000
0003
2000
0000
3000
0200
0000
,
0300
0001
0000
1000
0010
0000
0110
0000
,
0200
0000
0300
2000
0000
3000
0020
0000
,
0030
0100
0000
0001
0010
0000
0011
0000
,
0001
0000
0000
0011
0000
0000
1100
0000
,
0000
1001
0000
0000
0110
0000
1001
0000
,
0020
0000
0030
2000
0000
3000
0200
0000
,
0300
0010
0000
0100
1000
0000
0101
0000
,
0020
0000
0030
0002
0000
0003
2000
0000
,
3000
0100
0000
0010
1000
0000
0011
0000
,
0200
0000
0300
0002
0000
0003
0200
0000
,
0300
1000
0000
0010
0100
0000
1001
0000
,
0010
0000
0000
0011
0000
0000
1100
0000
,
0000
1001
0000
0000
0101
0000
0110
0000
,
1010
2020
3030
0000
;

//--------------- dance-single - ----------------
#NOTES:
     dance-single:
     Shortysnmn2010:
     Hard:
     9:
     0,0,0,0,0:
0000
0000
0000
0000
,
0000
0000
0000
0000
,
0001
0000
0101
0000
1001
0000
1000
0100
,
0010
0001
0010
0001
1000
0000
0100
0000
0001
0000
0100
0000
0010
0000
0200
0000
,
0000
0001
0010
1300
,
0001
0100
0001
0100
0010
0000
1000
0000
0001
0010
0100
0010
0001
0010
0100
1000
,
0100
1000
0010
0100
0001
0000
1000
0010
,
0100
0001
0100
0001
1000
0000
0100
0000
0010
0000
0001
0000
0100
0000
0010
0000
,
0001
0010
1000
0010
0100
0020
0000
0000
,
0001
0000
0100
0000
1030
0001
0100
0001
,
1000
0100
0010
0001
1000
0100
0010
0001
1000
0000
0000
0010
0000
0000
1010
0000
,
0000
1000
0001
0010
0100
1000
0100
0010
,
0001
0000
0100
0000
1000
0000
0100
0000
0010
0000
0000
1000
0000
0000
1001
0000
,
0000
0000
0000
1000
0001
0000
0100
0000
,
1010
0000
0000
0000
1010
0000
0000
0000
0100
0000
0001
0010
0000
0001
0010
0001
,
0020
0000
0000
0000
0130
0000
1000
0000
0100
0000
0000
0110
0000
0000
0001
0000
,
1000
0000
1010
0000
0100
0001
1000
0100
,
0010
0000
0002
0010
0023
0100
0230
1000
,
1300
0000
0000
0000
1010
0000
0000
0000
0100
0000
0001
1000
0001
0000
1000
0000
,
0100
0000
0000
0000
0010
0000
0100
0000
1000
0000
0000
1010
0000
0000
0100
0000
,
0002
0010
0010
0010
,
0020
0000
0033
0001
1000
0100
1000
0010
,
0100
0000
0001
0000
1000
0000
0001
0010
,
0100
1000
0100
1000
0001
0000
0100
0000
1000
0000
0100
0000
0010
0000
0200
0000
,
0000
0300
0001
1000
0001
0010
0100
0000
,
1000
0010
1000
0010
0100
0000
0001
0000
1000
0000
0001
0000
0100
0000
0010
0000
,
2000
0000
0100
0000
0100
0000
3100
0010
,
0100
1000
0001
0100
0010
0000
0100
0000
0001
0000
1000
0000
0100
0000
0010
0000
,
1000
0010
0001
0010
0100
0020
0000
0000
,
1000
0000
0100
0000
0031
1000
0100
1000
,
0001
0100
0010
1000
0001
0100
0010
1000
0001
0000
0000
0010
0000
0000
0011
0000
,
0000
0001
0100
1000
0100
0001
0010
0100
,
1000
0000
0010
0000
1000
0000
0100
0000
0010
0000
0000
0001
0000
0000
1100
0000
,
0000
0000
0000
1000
0010
0000
0100
0000
,
0101
0000
0000
0000
0101
0000
0000
0000
0010
0000
1000
0100
0000
1000
0100
1000
,
0200
0000
0000
0000
0310
0000
0001
0000
1000
0000
0000
1001
0000
0000
0001
0000
,
0100
0000
0110
0000
0010
1000
0100
0001
,
0100
0000
1000
0001
0100
1000
0100
0010
,
1000
0000
0000
0000
1100
0000
0000
0000
0010
0000
0001
0010
0001
0000
0100
0000
,
0010
0000
0000
0000
1000
0000
0010
0000
0100
0000
0000
0101
0000
0000
0001
0000
,
0020
0100
0100
0100
,
0200
0000
0330
0100
1000
0100
1000
0010
,
0110
0000
0100
0000
0001
0000
0011
0000
0100
0000
1000
0100
0000
1000
0100
1000
,
0100
0000
0010
0000
0000
0000
0010
0000
0100
0000
0000
1000
0000
0000
0010
0000
,
0110
0100
0001
1001
1000
0010
0110
0000
,
0001
1000
0000
1000
0001
0000
0110
0000
,
1100
0000
0100
0000
0010
0000
0011
0000
0010
0000
0100
1000
0000
0100
1000
0100
,
1000
0000
0010
0000
0000
0000
0010
0000
1000
0000
0000
0100
0000
0000
0010
0000
,
0002
0100
1003
0002
0010
1003
0002
0100
,
1003
0002
0010
1003
0100
0010
0001
0100
,
0110
0010
1000
1001
0001
0010
0110
0000
,
0100
0000
1000
0000
0000
0000
1000
0000
0010
0000
0000
0100
0000
0000
0010
0000
,
1010
1000
0100
0110
0010
0100
1100
0000
,
0010
0001
0000
0001
0100
0000
0010
0000
,
1010
1000
0001
0011
0001
1000
1100
0000
,
0010
0000
0001
0000
0000
0000
1000
0000
0010
0000
0000
0100
0000
0000
0010
0000
,
2000
0100
3001
2000
0010
3001
2000
0100
,
3001
2000
0010
3001
0100
0010
1000
0001
,
2002
0000
0000
3003
2002
0000
0000
3003
0000
0000
0000
0000
0000
0000
0000
0000
;
