#TITLE:Ambivalent;
#SUBTITLE:;
#ARTIST:Keyakizaka46;
#TITLETRANSLIT:;
#SUBTITLETRANSLIT:;
#ARTISTTRANSLIT:;
#GENRE:;
#CREDIT:;
#MUSIC:Ambivalent.mp3;
#BANNER:;
#BACKGROUND:;
#CDTITLE:;
#SAMPLESTART:76.131;
#SAMPLELENGTH:14.729;
#SELECTABLE:YES;
#OFFSET:-0.399;
#BPMS:0.000=130.000;
#STOPS:;
#BGCHANGES:;
#FGCHANGES:;

//--------------- dance-single - ----------------
#NOTES:
     dance-single:
     Shortysnmn2010:
     Beginner:
     1:
     0.105705,0.159167,0.065049,0.089443,0,91,83,8,11,0,0,0.105705,0.159167,0.065049,0.089443,0,91,83,8,11,0,0:
0000
0000
0000
0000
,
0000
0000
0000
0000
,
0000
0000
0000
0000
,
0000
0000
0000
0000
,
1000
0000
0000
0000
,
0100
0000
0000
0000
,
0001
0000
0000
0000
,
0001
0000
0000
0000
,
0100
0000
0100
0000
,
0100
0000
1000
0000
,
0100
0000
0100
0000
,
1001
0000
0000
0000
,
0010
0000
0010
0000
,
0010
0000
0001
0000
,
0010
0000
0010
0000
,
1001
0000
0000
0000
,
0100
0000
0000
0000
,
1000
0000
0000
0000
,
0010
0000
0010
0000
,
0010
0000
0000
0000
,
0100
0000
0000
0000
,
0100
0000
0000
0000
,
0001
0000
0001
0000
,
0001
0000
0000
0000
,
2000
0000
0000
0000
,
0100
0000
0100
0000
,
0002
0000
3003
0000
,
1001
0000
0000
0000
,
0002
0000
0000
0000
,
0100
0000
0100
0000
,
2000
0000
3003
0000
,
1001
0000
0000
0000
,
1000
0000
0000
0000
0000
0000
0000
0010
,
0000
0000
0000
0000
,
0100
0000
0000
0000
0000
0000
0000
0001
,
0000
0000
0000
0000
,
0010
0000
0000
0000
0000
0000
0000
0001
,
0000
0000
0000
0000
0000
0000
0000
1000
,
0000
0000
0000
0000
0000
0000
0000
0001
,
0000
1001
0000
0000
,
0020
0000
0030
0000
,
0001
0000
0001
0000
,
0001
0000
1000
0000
,
0001
0000
0001
0000
,
0110
0000
0000
0000
,
1000
0000
1000
0000
,
0001
0000
1000
0000
,
1000
0000
1000
0000
,
0110
0000
0000
0000
,
0002
0000
0003
0000
,
0020
0000
0030
0000
,
0100
0000
0100
0000
,
1000
0000
0000
0000
,
0020
0000
0030
0000
,
2000
0000
3000
0000
,
0100
0000
0100
0000
,
0010
0000
0000
0000
,
0001
0000
1000
0000
,
1000
0000
0000
0000
,
1000
0000
0001
0000
,
0001
0000
0000
0000
,
0010
0000
0000
0000
,
0100
0000
0000
0000
,
0010
0000
0000
0000
,
0001
0000
0000
0000
,
2002
3003
0000
0000
;

//--------------- dance-single - ----------------
#NOTES:
     dance-single:
     Shortysnmn2010:
     Easy:
     4:
     0.238126,0.291806,0.252065,0.105705,0,205,174,31,13,0,0,0.238126,0.291806,0.252065,0.105705,0,205,174,31,13,0,0:
0000
0000
0000
0000
,
0000
0000
0000
0000
,
0000
0000
0000
0000
,
0000
0000
0000
0000
,
1001
1001
0000
0000
,
0010
0000
0010
0000
,
0001
0001
0000
0000
,
0100
0000
0000
0000
,
0001
1000
0100
0010
,
0100
1000
0010
1010
,
1010
1000
0001
0100
,
2000
0000
3000
0000
,
0100
0001
0010
0001
,
1000
0100
0010
0110
,
0110
0100
1000
0001
,
0200
0000
0300
0000
,
0001
0000
0000
0011
0000
0000
0000
0000
,
1000
0000
0000
1100
0000
0000
0000
0000
,
1000
0001
0100
0001
,
1000
0000
0000
1001
0000
0000
0000
0000
,
0001
0000
0000
0011
0000
0000
0000
0000
,
0001
0000
0000
0101
0000
0000
0000
0000
,
1000
0010
0001
0010
,
1000
0000
0000
1001
0000
0000
0000
0000
,
0001
0100
0100
1000
,
0100
0100
0001
1000
,
0100
0100
0001
0100
,
0100
1000
0001
0000
,
0100
0020
0000
0030
,
0100
0001
0011
0001
,
1000
0200
0300
1000
,
0010
0000
1010
0000
,
2000
0000
0000
0000
0001
0000
0000
0010
,
0000
0001
0010
3000
,
0002
0000
0000
0000
0100
0000
0000
1000
,
0000
0100
1000
0003
,
2000
0000
0000
0000
0100
0000
0000
0100
,
0000
0000
0010
0000
0001
0000
3000
0001
,
0000
0000
0000
1001
0000
0000
0000
1000
,
0000
1001
0000
0000
,
0020
0030
0020
0030
,
0100
1000
0010
1000
,
0100
0010
0110
0110
,
0100
1000
0001
0100
,
0010
0000
0000
2000
0000
3000
0000
0000
,
0001
0010
1000
0010
,
0001
1000
1100
1100
,
0100
0001
0100
1000
,
0010
0000
0000
0200
0000
0300
0000
0000
,
0001
0000
0000
1001
0000
0000
0000
0000
,
1000
0000
0000
1001
0000
0000
0000
0000
,
0010
0010
0010
1000
,
0100
0000
0000
0110
0000
0000
0000
0000
,
0100
0000
0000
0011
0000
0000
0000
0000
,
0001
0000
0000
0110
0000
0000
0000
0000
,
1000
1000
1000
0001
,
0100
0000
0000
1100
0000
0000
0100
0000
,
0001
0010
0100
1000
,
0001
0000
0000
0011
0000
0000
0000
0000
,
0001
1000
0100
0001
,
0100
0000
0000
1100
0000
0000
0000
0000
,
1000
0010
0001
0010
,
0100
0000
0000
0110
0000
0000
0000
0000
,
1000
0001
0010
0001
,
1000
0000
0000
1001
0000
0000
0000
0000
,
0220
0330
0000
0000
;

//--------------- dance-single - ----------------
#NOTES:
     dance-single:
     Shortysnmn2010:
     Medium:
     5:
     0.297367,0.318334,0.178885,0.260196,0.03659,256,234,22,32,0,0,0.297367,0.318334,0.178885,0.260196,0.03659,256,234,22,32,0,0:
0000
0000
0000
0000
,
0000
0000
0000
0000
,
0000
0000
0000
0000
,
0000
0000
0000
0000
,
0110
0220
0000
0330
,
0001
0000
1000
0000
,
0110
0220
0000
0330
,
1000
0000
0001
0000
,
1000
0000
0010
1000
0010
0000
1000
0000
,
0100
0010
0110
0110
,
0010
0000
0001
0010
0001
0000
0100
0000
,
0001
0000
2000
0002
0000
3003
0000
0000
,
0001
0000
0100
0010
0100
0000
0001
0000
,
0010
0100
0110
0110
,
0100
0000
1000
0010
1000
0000
0100
0000
,
0010
0000
0002
0020
0000
0033
0000
0000
,
1000
0000
0100
1000
0000
0000
0010
0000
,
1000
0000
0100
1000
0000
0000
0010
0000
,
0100
0100
0001
0100
,
1000
0000
0000
0100
0000
0000
0001
0000
0000
0000
0000
0000
0010
0000
0000
0000
,
0001
0000
0100
0001
0000
0000
0010
0000
,
0001
0000
0100
0001
0000
0000
0010
0000
,
0100
0100
0001
0100
,
1000
0000
0000
0100
0000
0000
0020
0000
0000
0000
0030
0000
0000
0000
0000
0000
,
1000
0000
1000
0000
0010
0000
0001
0010
,
0001
0010
0010
1000
,
0001
0000
0010
1000
0010
0000
0001
0000
,
1000
0000
0001
2000
0000
3000
0000
0000
,
0100
1000
0020
0000
0030
0000
0010
0000
,
0100
0001
0100
0000
1001
0000
0000
0000
,
0010
0001
0200
0000
0300
0000
0100
0000
,
0001
0000
0000
1000
0000
0000
0001
0000
1000
0000
0000
0000
0000
0000
0000
0000
,
0002
0000
0100
0000
0100
0000
0103
0010
,
0000
0100
0010
0000
2000
0000
3000
0000
,
0002
0000
0010
0000
0010
0000
0013
0100
,
0000
0010
0100
0000
2000
0000
3000
0000
,
0020
0000
1000
0000
1000
0000
1030
0001
,
0000
1000
0000
0001
0000
0100
0000
0101
,
0000
0000
0000
1001
0000
1000
0010
1000
,
0000
2002
0000
3003
,
0220
0330
0220
0330
,
0001
0000
0100
0001
0100
0000
0010
0000
,
0100
0001
0011
0011
,
0010
0000
0100
1000
0100
0000
0010
0000
,
0001
0000
1000
0002
0000
0003
0000
0000
,
1000
0000
0010
1000
0010
0000
0001
0000
,
0010
0100
0101
0101
,
0001
0000
0010
0100
0010
0000
0100
0000
,
1000
0000
0010
2000
0000
3000
0000
0000
,
0100
0000
1000
0100
0000
0000
0010
0000
,
0100
0000
1000
0100
0000
0000
0010
0000
,
0001
0001
0100
1000
,
0100
0000
0000
0001
0000
0000
0010
0000
0000
0000
0000
0000
0000
0000
0000
0000
,
0100
0000
1000
0010
0000
0000
0100
0000
,
0010
0000
1000
0100
0000
0000
0010
0000
,
0001
1000
1000
0010
,
0001
0000
0000
0010
0000
0000
0100
0000
0000
0000
0000
0000
0000
0000
0000
0000
,
0001
1000
0100
0010
,
0001
0000
0000
1000
0000
0000
2002
0000
0000
0000
3003
0000
0000
0000
0000
0000
,
1000
0010
0100
0001
,
0010
0000
0000
0100
0000
0000
0220
0000
0000
0000
0330
0000
0000
0000
0000
0000
,
0100
1000
0001
0100
,
1000
0000
0000
0100
0000
0000
0202
0000
0000
0000
0303
0000
0000
0000
0000
0000
,
0001
0010
0100
1000
,
0010
0000
0000
1000
0000
0000
1010
0000
0000
0000
1000
0000
0010
0000
1000
0000
,
0002
0003
0000
0000
;

//--------------- dance-single - ----------------
#NOTES:
     dance-single:
     Shortysnmn2010:
     Hard:
     8:
     0.432112,0.475672,0.203278,0.300852,0.085377,372,347,25,37,0,0,0.432112,0.475672,0.203278,0.300852,0.085377,372,347,25,37,0,0:
0000
0000
0000
0000
,
0000
0000
0000
0000
,
0000
0000
0000
0000
,
0000
0000
0000
0000
,
1001
2002
3003
0000
,
0010
0000
1000
0000
0000
0010
0000
0000
0100
0000
0000
0001
0000
0000
0000
0000
,
1000
0000
0100
1000
0200
0000
0000
0000
0010
0000
0000
0000
0310
0000
0001
0000
,
0100
0000
0000
0110
,
1000
0001
0010
0001
0100
0001
0010
0000
,
0100
1000
0010
1000
0001
0010
0110
0110
,
0100
1000
0010
0100
0001
1000
0001
0000
,
0100
0010
2000
0200
0000
0000
3300
0000
,
0010
0001
0100
1000
0100
0010
1000
0000
,
0100
1000
0100
0010
0001
1000
1001
1001
,
0001
0100
1000
0100
0001
0010
0001
0000
,
1000
0010
0200
0002
0000
0000
0303
0000
,
1000
0100
0010
0002
0000
0000
0103
0000
,
0001
0010
0100
2000
0000
0000
3010
0000
,
1000
1000
0100
0001
0100
0100
1000
0001
,
0100
0100
0010
2000
0000
0000
3000
0000
,
0001
0010
0100
2000
0000
0000
3010
0000
,
1000
0100
0010
0002
0000
0000
0103
0000
,
0001
0001
0100
1000
0100
0100
0001
1000
,
0100
0100
0001
0200
0000
0000
0300
0000
,
0010
0001
0100
0010
0100
0001
0010
0100
,
1000
0010
1000
0100
0010
0000
0110
0000
,
0100
1000
0010
1000
0001
0100
1000
0100
,
0010
1000
0001
0020
0000
0000
0130
0000
,
1000
0000
0100
0000
2000
0000
0000
0000
3000
0000
0000
0000
0001
0100
0001
0000
,
0100
0001
0010
0000
0110
0000
0100
1000
,
0010
0000
1000
0000
0200
0000
0000
0000
0300
0000
0000
0000
0010
0001
0010
0000
,
0001
0000
0000
1000
0000
0000
0100
0000
0010
0000
0000
0000
0000
0000
0000
0000
,
0001
0000
0101
0000
1001
0000
1000
0200
,
0000
0010
0010
0000
1300
0000
1001
0000
,
1000
0000
1010
0000
1001
0000
0100
0002
,
0000
0010
0010
0000
1003
0000
0000
0000
,
1000
0000
1010
0000
0110
0000
0100
0001
,
0000
0010
0001
0100
0000
0001
0000
2002
,
0000
3003
0000
0110
0000
0010
1000
0100
,
0000
0010
0200
0000
0000
0000
0300
0000
,
2002
3003
2002
3003
,
1000
0010
0100
0001
0010
0100
0010
0000
,
0001
0010
0100
1000
0010
0100
0101
0101
,
0001
1000
0100
0001
0100
1000
0010
0000
,
1000
0001
0100
0002
0000
0000
0003
0000
,
1000
0100
0010
0001
0010
1000
0010
0000
,
0100
1000
0010
0100
0001
1000
1100
1100
,
0100
1000
0010
0100
0001
0010
0001
0000
,
0100
1000
0100
0002
0000
0000
0003
0000
,
1000
0100
0010
0200
0000
0000
0310
0000
,
0001
1000
0100
0020
0000
0000
0130
0000
,
1000
1000
0100
0010
0001
0001
0010
0100
,
1000
1000
0010
0200
0000
0000
0310
0000
,
1000
0001
0100
0002
0000
0000
0013
0000
,
0001
1000
0100
2000
0000
0000
3010
0000
,
0100
0100
0001
0010
0001
0001
0100
0010
,
1000
1000
0001
0200
0000
0000
0310
0000
,
1000
0000
0001
0000
0100
0000
0001
0000
0010
0100
0000
1000
0000
0000
0000
0000
,
0010
0000
0100
0001
0000
0100
0002
0000
0000
0000
0000
0000
0013
0000
0000
0000
,
0100
0000
1000
0000
0001
0000
1000
0000
0100
0010
0000
0001
0000
0000
0000
0000
,
1000
0000
0010
1000
0000
0010
2000
0000
0000
0000
0100
0000
0100
0000
3100
0000
,
0000
0000
1000
0000
0010
0000
0000
1000
0001
0000
0100
0001
0000
0000
0000
0000
,
0010
0000
0100
0010
0000
0100
0020
0000
0000
0000
0000
0000
0130
0000
0000
0000
,
0000
0000
1000
0000
0001
0000
0000
0010
0001
0000
0100
0010
0000
0000
0000
0000
,
2000
0000
0000
0010
0000
0000
3010
0000
0000
0000
0100
0000
0001
0000
0010
0000
,
1001
0000
0000
0000
;

//--------------- dance-single - ----------------
#NOTES:
     dance-single:
     Shortysnmn2010:
     Challenge:
     10:
     0.128937,0.231737,0.065049,0.089443,0.07318,111,103,8,11,0,0,0.128937,0.231737,0.065049,0.089443,0.07318,111,103,8,11,0,0:
0000
0000
0000
0000
,
0000
0000
0000
0000
,
0000
0000
0000
0000
,
0000
0000
0000
0000
,
1000
0000
0001
1000
0001
0000
0000
0000
0000
0000
1000
0100
1000
0100
0000
0000
,
1000
0000
0010
0000
0000
0100
0000
0000
0001
0000
0000
0010
0000
0000
0000
0000
,
0100
0000
1000
0001
0200
0000
0000
0000
0000
0000
0000
0000
0300
0000
0010
0000
,
1001
0000
0000
0110
,
1000
0100
0010
0100
1000
0000
0001
0000
0100
0010
0000
0100
0010
0000
0000
0000
,
1000
0100
0000
1000
0100
1000
0010
0100
0001
0010
0001
1000
0100
0000
0110
0000
,
0001
1000
0001
1000
0001
0000
0100
0000
0010
1000
0000
0010
0100
0000
0001
0000
,
0020
0001
0130
2200
0000
0000
3300
0000
,
0001
0010
0000
0010
0001
1000
0100
0000
0010
0001
0000
1000
0010
0000
0000
0000
,
0100
0001
1000
0001
0100
0010
0100
1000
0100
0001
1000
0100
0010
0100
1000
0000
,
0001
0000
0100
0000
0001
0000
1000
0010
1000
0100
1000
0001
1000
0000
0002
0000
,
0100
1000
0013
1001
0000
0000
0000
0000
,
0001
0100
1000
0200
0000
0310
1001
0000
,
1000
0100
0010
0200
0000
0310
1001
0000
,
0001
0001
0100
1000
0100
0100
0001
1000
,
0100
0000
0001
0100
0001
0000
0200
0000
0000
0000
0000
0000
0300
0000
0000
0000
,
1000
0001
0100
0002
0000
1003
0110
0000
,
0001
1000
0100
2000
0000
3001
0110
0000
,
1000
1000
0010
0001
0010
0010
1000
0001
,
0010
0000
1000
0010
1000
0000
0010
0000
0000
0000
0001
0010
0100
0000
1000
0100
,
0010
0001
1000
0001
0010
0000
0100
0000
1100
0000
1000
0001
1000
0000
0001
0100
,
0001
0010
0100
1000
0001
0100
0010
0000
0110
0000
0100
0001
0100
0000
0010
1000
,
0002
0000
0000
0000
0103
0000
0010
0100
0000
0000
0001
0010
0001
0010
0001
0100
,
0000
0000
0010
1000
0001
0000
1001
0000
0000
0000
1000
0000
0001
1000
0001
0000
,
1000
0000
0100
0000
2000
0000
0000
0000
3000
0000
0000
0000
0001
1000
0010
0000
,
0100
0000
1000
0000
0200
0000
0000
0000
0302
0000
0000
0000
1003
0100
0010
0002
,
0000
0000
0100
0000
2000
0000
0000
0000
3003
0000
0000
0000
0001
0010
0001
0000
,
0011
0000
0000
1001
0000
0000
1100
0000
0220
0000
0000
0000
0330
0000
0000
0000
,
1000
0000
1100
0000
1001
0000
0001
0200
,
0000
1000
1000
0010
0301
0000
1001
0000
,
0001
0000
0011
0000
1001
0000
1000
0200
,
0000
0000
0001
0000
0001
0000
0010
0000
1300
0001
1000
0000
0001
0000
1000
0000
,
0010
0000
0110
0000
0101
0000
1000
0200
,
0000
1300
0001
2000
0000
3010
0000
1001
,
0000
0000
0000
0110
0000
1000
0001
2000
,
0000
0000
0100
0000
3100
0000
1000
0000
0010
0100
0000
0100
0001
0100
0010
0000
,
2000
3000
0002
0003
,
1000
0000
0001
0000
0100
0010
0100
0000
0001
0010
0001
0000
1000
0000
0000
0000
,
0010
0000
0010
0000
0010
1000
0100
0010
0001
0000
0010
0100
1000
0100
1000
0000
,
0010
1000
0001
0100
0010
0100
0001
0010
,
0002
0100
1000
0010
0000
0013
1001
0000
,
1000
0100
0010
0000
0100
1000
0100
0010
0100
1000
0001
0100
0001
0000
0000
0000
,
1000
0000
0010
0100
0010
0000
1000
0000
0001
0010
0001
1000
0100
0010
0001
0000
,
0100
0001
1000
0001
0010
0100
1000
0010
1000
0001
1000
0100
0010
0000
0001
0000
,
2000
0100
0001
0010
0000
3010
1001
0000
,
1000
0100
0010
0011
0000
0001
0110
0000
,
0001
0100
0010
1010
0000
0001
0110
0000
,
1000
1000
0010
0001
0010
0010
1000
0001
,
0010
0000
0100
0010
0100
0000
1001
0000
0000
0000
0000
0000
0000
0000
0000
0000
,
0100
0001
0010
0011
0000
0100
1001
0000
,
1000
0010
0100
0101
0000
0010
1001
0000
,
0001
0001
0100
1000
0100
0100
0001
1000
,
0100
0000
0001
0100
1000
0000
0001
0000
0000
0000
1000
0000
0110
0000
0000
0000
,
0001
0000
0010
0000
0001
0000
1000
0100
0010
0001
0000
0010
0100
0000
0000
0000
,
1000
0000
0010
1000
0000
0100
2000
0000
0000
0000
0010
0000
3010
0000
0000
0000
,
1000
0000
0001
0000
0100
0000
0001
0010
0100
1000
0000
0010
1000
0000
0000
0000
,
0001
0000
0100
0001
0000
0010
0002
0000
0000
0000
0100
0000
0100
0000
0103
0000
,
0010
0000
1000
0000
0100
0000
1000
0010
0100
0000
0001
1000
0000
0000
0000
0000
,
0100
0000
0001
0100
0000
1000
0200
0000
0000
0000
0000
0000
0300
0000
0000
0000
,
1000
0000
1010
0000
1001
0000
0001
0100
0001
0010
0100
1000
0001
1000
0100
0010
,
0001
0000
1000
0100
0000
1000
0010
0000
0000
0000
0100
0000
0001
0000
1000
0000
,
0110
0000
0000
0000
;
