#TITLE:snow storm;
#SUBTITLE:-euphoria-;
#ARTIST:Yooh;
#TITLETRANSLIT:;
#SUBTITLETRANSLIT:;
#ARTISTTRANSLIT:;
#GENRE:;
#CREDIT:;
#MUSIC:snow storm -euphoria-.mp3;
#BANNER:;
#BACKGROUND:;
#CDTITLE:;
#SAMPLESTART:69.367;
#SAMPLELENGTH:10.667;
#SELECTABLE:YES;
#OFFSET:-0.033;
#BPMS:0.000=180.000
,67.000=175.000
,67.250=170.000
,67.500=165.000
,67.750=160.000
,68.000=155.000
,68.250=150.000
,68.500=145.000
,68.750=140.000
,69.000=135.000
,69.250=130.000
,69.500=125.000
,69.750=120.000
,70.000=115.000
,70.250=110.000
,70.500=109.000
,70.750=106.000
,71.000=105.000
,71.250=104.000
,71.500=103.000
,71.750=101.000
,72.000=99.000
,72.250=97.000
,72.500=92.000
,72.750=91.000
,72.833=90.000
,105.000=94.000
,105.125=98.000
,105.250=103.000
,105.375=108.000
,105.500=114.000
,105.667=118.000
,105.833=123.000
,106.000=128.000
,106.167=133.000
,106.333=138.000
,106.500=143.000
,106.667=148.000
,106.833=152.000
,107.000=157.000
,107.167=162.000
,107.333=169.000
,107.500=175.000
,107.667=180.000
,282.000=90.040
,286.000=96.500
,289.000=65.000
,291.000=64.500
,292.000=51.500
,292.500=47.500
,292.750=46.500
,293.000=43.000
;
#STOPS:;
#BGCHANGES:;
#FGCHANGES:;

//--------------- dance-single - ----------------
#NOTES:
     dance-single:
     Shortysnmn2010:
     Beginner:
     2:
     0.11661,0.244882,0.058305,0.041647,0,98,91,7,5,0,0,0.11661,0.244882,0.058305,0.041647,0,98,91,7,5,0,0:
0000
0000
0000
0000
,
0000
0000
0000
0000
,
0000
0000
0000
0000
,
0000
0000
0000
0000
,
0000
0000
0000
0000
,
1000
0000
0000
0000
,
0001
0000
0000
0000
,
0010
0000
0000
0000
,
0010
0000
0000
0000
,
0100
0000
0000
0000
,
0100
0000
0000
0000
,
1000
0000
0000
0000
,
0001
0000
0000
0000
,
0100
0000
0000
0000
,
0010
0000
0000
0000
,
1000
0000
0000
0000
,
0001
0000
0000
2002
,
0000
0000
0000
3003
,
0000
0100
0000
0000
,
0000
1000
0000
0001
,
0000
1000
0000
0001
,
0000
0100
0000
0000
,
0000
0010
0000
1000
,
0000
0100
0000
0010
,
0000
0001
0000
0100
,
0000
0010
0000
1000
,
0000
0001
0000
0000
,
1000
0000
0000
0000
,
0100
0000
0000
0000
,
0001
0000
0100
0000
,
1000
0000
0000
0000
,
0010
0000
0000
0000
,
0100
0000
0000
0000
,
0010
0000
0000
0000
,
1000
0000
0001
0000
,
1000
0000
0000
0000
,
0010
0000
0000
0000
,
0001
0000
0010
0000
,
0001
0000
0000
0000
,
0010
0000
0000
0000
,
0100
0000
0000
0000
,
0001
0000
0000
0000
,
1000
0000
0000
0000
,
0100
0000
0100
0000
,
0100
0000
0100
0000
,
0100
0000
0000
0000
,
1001
0000
0000
0000
,
0010
0000
0010
0000
,
0010
0000
0010
0000
,
0010
0000
0000
0000
,
1001
0000
0000
0000
,
0100
0000
0001
0000
,
0100
0000
0001
0000
,
0200
0300
0100
0000
,
0000
0000
0010
0000
,
0000
0000
1000
0000
,
0000
0000
0001
0000
,
0000
0000
0010
0000
,
0000
0000
0100
0000
,
0000
0000
1000
0000
,
0001
0000
1000
0000
,
0000
0000
0010
0000
,
0000
0000
0001
0000
,
0000
0000
0010
0000
,
0000
0000
1000
0000
,
0000
0000
0001
0000
,
0001
0000
0001
0000
,
0001
0000
0001
0000
,
0000
0000
0110
0000
,
0000
0000
1000
0000
,
0000
0000
2002
0000
,
3003
0000
1001
0000
,
0000
0010
0000
1000
,
0001
1000
1001
0000
;

//--------------- dance-single - ----------------
#NOTES:
     dance-single:
     Shortysnmn2010:
     Easy:
     4:
     0.222512,0.306102,0.049976,0.166586,0,187,181,6,20,0,0,0.222512,0.306102,0.049976,0.166586,0,187,181,6,20,0,0:
0000
0000
0000
0000
,
0000
0000
0000
0000
,
0000
0000
0000
0000
,
0000
0000
0000
0000
,
0000
0000
0000
0000
,
1000
0000
0010
0000
,
1000
0000
0100
0000
,
0020
0000
0030
0000
,
1001
0000
0000
0000
,
0001
0000
0100
0000
,
0010
0000
0100
0000
,
0001
0000
0010
0000
,
0001
0001
1000
1000
,
0100
0000
0010
0000
,
0100
0000
1000
0000
,
0020
0000
0030
0000
,
1001
0001
1000
0220
,
0000
0000
0000
0330
,
0000
0001
0000
1000
,
0000
0100
1000
0100
,
0000
1000
0000
0010
,
0000
0100
0000
0001
,
0010
0001
0001
0100
,
0100
1000
0100
0001
,
0000
1000
1000
0010
,
0010
0001
0010
1000
,
0000
0000
0000
0000
,
0001
1000
0100
1000
,
0001
0000
0010
0000
,
0001
0000
1000
0000
,
0002
0000
0003
0000
,
1000
0010
0100
0010
,
1000
0000
0100
0000
,
0010
0100
0010
0000
,
0001
1000
0001
0000
,
1000
0010
0001
0010
,
1000
0000
0100
0000
,
0010
0000
0001
0000
,
1000
0001
1000
0000
,
0010
0100
0010
0100
,
0001
0100
0001
0100
,
0010
0000
1000
0000
,
0100
0010
0100
0000
,
2000
3000
2000
3000
,
2000
3000
2000
3000
,
0010
0100
0001
0010
,
0001
0100
0001
0000
,
0002
0003
0002
0003
,
0002
0003
0002
0003
,
0010
0001
0100
0010
,
0100
0001
0010
0000
,
0100
0000
1000
0000
,
0010
0001
0010
2000
,
0002
3003
0010
0000
,
1000
0100
0010
0000
,
0001
0100
0010
0000
,
0100
0000
0001
0010
,
0001
0000
1000
0100
,
1000
0100
0010
0001
,
0100
0000
0001
0100
,
0001
0100
0010
1000
,
0001
0000
1000
0000
,
0010
0100
0001
0000
,
0010
0001
0100
0000
,
0010
0000
1000
0001
,
1000
0000
0020
0030
,
0020
0030
0020
0030
,
0020
0030
1000
0001
,
0010
0001
1000
0100
,
0010
0000
0200
0000
,
1000
0001
1300
0000
,
0000
0000
1001
0000
,
0000
0010
1000
0100
,
0010
1001
0110
0000
;

//--------------- dance-single - ----------------
#NOTES:
     dance-single:
     Shortysnmn2010:
     Medium:
     6:
     0.36649,0.489763,0.191574,0.183245,0,308,285,23,22,0,0,0.36649,0.489763,0.191574,0.183245,0,308,285,23,22,0,0:
0000
0000
0000
0000
,
0000
0000
0000
0000
,
0000
0000
0000
0000
,
0000
0000
0000
0000
,
0000
0000
0000
0000
,
1000
0100
0010
0000
,
0100
1000
0010
0000
,
0100
0010
0100
0010
0100
0010
0100
0010
,
0200
0000
0300
0000
,
0001
1000
0100
0000
,
0010
0100
1000
0000
,
0001
0000
1000
0000
,
0010
0100
0001
1000
,
0110
1000
0001
1000
,
0110
0001
1000
0001
,
0110
0000
1001
0000
,
0002
0100
1003
2002
,
0000
0000
0000
0000
,
3003
0000
1000
0000
0100
1000
0100
0000
,
1000
0100
0010
0002
,
0003
1000
0010
1000
,
0001
0000
0100
0000
1001
0000
0010
1000
,
0010
1000
0100
0000
0010
0000
0001
0000
,
1000
0000
0010
0000
1000
0000
0001
0100
,
0001
0000
1000
0100
1000
0100
0010
0001
,
1000
0001
1000
0010
1000
0010
0200
0000
,
0001
0002
0303
0000
,
0010
0100
0010
0000
1000
0000
0100
0000
,
0010
0100
0010
0000
0001
0000
0100
0000
,
0001
1000
0001
0000
1000
0001
1000
0000
,
0100
0010
0001
0000
,
1000
0100
0010
0000
0100
0000
1000
0000
,
0010
0100
0010
0000
1000
0000
0100
0000
,
0010
0001
1000
0001
,
0100
0010
0100
0000
1001
0000
0000
0000
,
0001
0010
0001
0000
1000
0000
0100
0000
,
0010
0100
0010
0000
0001
0000
1000
0000
,
0010
0100
0010
0000
0100
0010
0100
0000
,
0001
0010
0001
0000
,
1000
0100
1000
0100
1000
0100
1000
0000
,
0001
0100
0001
0100
0001
0100
0001
0000
,
2000
3000
0002
0003
,
0010
0100
0010
0000
,
0012
1003
1002
0103
,
0102
0013
0012
1003
,
2100
3001
2001
3010
,
2010
0000
0100
0000
3001
0000
0010
0001
,
0010
0000
0010
0000
0001
1000
0100
0000
,
0010
0000
0010
0000
0100
1000
0010
0000
,
1000
0001
0100
0001
,
0010
0100
1000
0010
,
1000
0001
0100
1000
,
0100
0010
1000
0100
,
0002
0000
0003
0000
0100
0000
1000
0100
,
1000
0000
0001
0000
0100
0000
1000
0100
,
1000
0100
0001
0000
,
1000
0000
0010
1000
,
0100
0000
0000
0000
0010
0001
0010
0000
,
0001
0000
1000
0000
0100
1000
0100
0000
,
1000
0000
0010
0000
1000
0010
1000
0000
,
0001
0100
0001
0000
1000
0000
0100
0000
,
1001
0000
0000
0000
0010
0000
0001
0010
,
0001
0000
0100
0000
0010
0000
0001
0010
,
0001
0000
0010
0000
0100
0000
0001
1000
,
0001
0000
1000
0001
1000
0000
0100
0000
,
2000
3000
0120
1030
,
1020
0031
0021
0130
,
0120
1030
0001
0100
,
0010
1000
0001
0010
,
1000
0010
0100
1000
,
0010
0100
1001
0000
,
0000
0000
0110
0000
,
0000
0000
0001
0000
1000
0000
0100
0010
,
0100
1000
1001
0000
1001
0000
0000
0000
;

//--------------- dance-single - ----------------
#NOTES:
     dance-single:
     Shortysnmn2010:
     Hard:
     9:
     0.584241,0.704035,0.266538,0.216562,0.195739,491,459,32,26,0,0,0.584241,0.704035,0.266538,0.216562,0.195739,491,459,32,26,0,0:
0000
0000
0000
0000
,
0000
0000
0000
0000
,
0000
0000
0000
0000
,
0000
0000
0000
0000
,
0000
0000
0000
0000
,
2000
0000
3010
0100
0020
0000
1030
0001
,
0200
0000
0310
1000
0002
0000
0013
0100
,
1000
0010
1000
0010
0100
0001
1000
0001
,
0010
0000
0000
0000
0110
0000
0000
1000
0001
0000
0100
0000
0010
0000
0100
0000
,
0002
0000
0103
0010
0200
0000
0301
1000
,
0020
0000
0130
0001
2000
0000
3010
0100
,
0002
0000
0013
1000
0010
0000
0100
1000
,
0001
0000
0000
0100
0001
0000
0000
1000
0001
0000
0000
0010
0200
0000
0000
0000
,
1300
0001
1000
0001
0100
1000
0100
0001
,
1000
0100
1000
0100
0010
1000
0010
0001
,
2000
0100
0010
3100
,
1001
0000
0000
0101
0000
0000
0010
1000
0100
0020
0000
0000
,
0000
0000
0000
0000
,
0030
0001
1100
0010
,
1001
0100
1010
0100
,
0011
1000
0101
1000
,
0110
0000
0001
0000
1100
0000
0010
0001
,
0100
0001
0010
0000
0101
0000
1001
0000
,
1000
1100
1001
0010
,
1000
0000
0000
0000
0001
0100
0010
1000
0001
0100
0010
1000
0001
0010
0100
1000
,
0001
0010
0100
1000
0020
0000
0000
0030
0200
0000
0000
0300
0001
0000
1000
0000
,
0001
0020
0000
0000
0000
0000
0030
0000
,
1100
0000
0010
0001
1000
0001
0100
0010
,
1000
0000
0100
0010
0100
0010
0100
1000
,
0010
0000
0100
0001
1000
0000
0010
0100
,
0001
0000
1000
0001
1000
0000
0001
2000
0000
0000
3001
0000
1000
0000
0100
0000
,
1000
0010
1000
0010
1000
0010
0100
0001
,
0010
0100
0010
0100
0010
0100
1000
0010
,
0100
0001
0100
0001
1000
0100
1000
0100
,
0010
0000
0000
0000
0110
0000
0000
0010
0001
0000
1000
0000
0010
0000
0100
0000
,
0001
0000
0001
0010
0001
1000
0100
0010
,
0100
0000
1000
0010
0100
0001
0010
0001
,
1000
0000
0001
0100
0001
0000
1000
0100
,
0010
0000
0001
0000
1001
0000
0100
1000
,
0001
0010
0001
0010
0001
0010
0100
1000
,
0010
0001
0010
0001
0010
0001
1000
0100
,
0010
1000
0010
1000
0001
0010
0001
0010
,
0100
1000
0001
0000
,
1000
0000
0001
0100
0001
0000
1000
0100
1000
0000
0001
0000
0010
0000
0100
0000
,
1000
0001
0100
0010
1000
0001
1000
0100
,
0001
0000
0100
0010
0100
0000
1000
0000
0001
0000
0100
0000
0010
0000
0100
0000
,
0001
1000
0100
2000
0001
0001
0001
3001
,
0010
0000
0100
1000
0100
0000
1000
0001
1000
0000
0001
0000
0100
0000
0000
0000
,
0100
0000
0100
0000
0100
0000
0001
0000
0010
0000
0100
0010
0100
0000
1000
0000
,
0001
0100
1000
0100
0001
0010
1000
0010
,
0001
0000
1000
0000
0100
0000
0001
0100
0001
0000
0100
0000
1000
0000
0010
0000
,
1000
0000
0001
0100
0001
0000
0100
0001
0100
0000
0010
0100
0010
0000
1000
0010
,
1000
0100
0001
1000
,
0020
0000
0000
0000
0030
0000
0000
0000
0001
0000
0000
1001
0000
0000
1000
0000
,
0010
0000
0100
0000
0010
0000
1000
0000
0100
0000
0000
0110
0000
0000
0010
0000
,
0001
0000
1000
0000
0010
0000
0100
0000
0001
0000
0000
0011
0000
0000
0010
0000
,
0001
0000
0100
0000
0010
0000
1000
0000
0100
0000
0000
1100
0000
0000
1000
0100
,
1000
0000
0100
1000
0100
0000
0000
0000
1000
0000
0100
0000
0010
0000
0100
0000
,
0010
0001
1000
0010
0100
0010
0100
0001
,
1000
0100
0001
0100
1000
0010
1000
0010
,
0100
0000
0001
0000
0010
0000
0100
0000
1000
0000
0000
0000
0010
0000
0000
0010
,
0100
0000
0001
0000
1000
0000
0001
0000
0010
0000
0000
0110
0000
0000
0100
0000
,
1000
0000
0010
0000
1000
0000
0001
0000
0100
0000
0000
1100
0000
0000
1000
0000
,
0100
0000
0001
0000
0010
0000
0001
0000
1000
0000
0001
0100
0001
0000
1000
0000
,
0100
0000
1000
0100
1000
0000
0010
0000
0100
0000
0000
0000
0110
0000
0000
0000
,
1000
0001
1000
0001
1000
0001
2000
0000
0000
3000
0000
0000
,
0102
0003
2010
3000
,
0012
0000
1003
0100
0010
0001
0100
1000
,
0001
0010
0100
0010
1000
0100
0001
0100
,
0010
0001
1000
0100
0010
0000
0110
0000
,
0001
1001
0220
0000
,
0330
0000
2002
0000
,
3003
0000
0000
0000
0010
0000
1000
0000
0100
0000
0010
0000
0001
1000
0010
1000
,
0001
0100
0001
1000
0100
0000
0000
0000
0110
0000
0000
0000
0000
0000
0000
0000
;

//--------------- dance-single - ----------------
#NOTES:
     dance-single:
     Shortysnmn2010:
     Challenge:
     11:
     0.805563,1.01529,0.224891,0.324843,0.762132,677,650,27,39,0,0,0.805563,1.01529,0.224891,0.324843,0.762132,677,650,27,39,0,0:
0000
0000
0000
0000
,
0000
0000
0000
0000
,
0000
0000
0000
0000
,
0000
0000
0000
0000
,
0000
0000
0000
0000
,
2100
0000
3001
0010
0210
0000
1300
0001
,
0021
0000
0130
1000
1002
0000
0103
0010
,
1000
0001
1000
0100
0001
0100
0010
0100
,
1000
0000
0000
0000
1001
0000
0000
0001
0100
0000
0010
0000
0100
0000
0010
0000
,
2010
0000
3100
0010
0012
0000
0103
0010
,
0210
0000
0000
0000
0301
0000
1000
0000
1200
0000
0000
0000
0310
0000
0001
1000
,
0001
0100
0010
1000
0010
0100
0001
0010
,
0001
1000
0000
0100
0010
0100
0000
0010
0001
0010
0000
0001
1000
0001
0100
0010
,
1000
0001
0100
1000
0001
0010
1000
0001
,
0010
0100
0001
1000
0010
0001
1000
0010
,
1000
0100
1000
0100
0010
0001
0010
0001
1000
0010
1000
0010
0100
0001
0100
0001
,
1000
0000
0000
1100
0000
0000
0010
0001
2000
0200
0000
0000
,
0000
0000
0000
0000
,
3300
0000
0010
0001
0100
0010
0100
0001
,
0010
0000
0100
0000
1100
0000
1000
0010
0100
0000
0001
0000
1001
0000
0010
0000
,
1001
0100
0012
1000
0203
1000
0320
0001
,
2030
0100
3002
0100
0023
1000
0230
0001
,
1000
0000
0000
0000
0010
0000
0000
0000
1300
0000
0000
0001
0000
0000
0010
0000
0001
0000
0000
1000
0000
0000
0010
0000
0100
0000
0000
0001
0000
0000
0100
0000
,
1000
0000
0000
0100
0000
0000
0010
0000
1000
0000
0001
0000
1000
0000
0001
0000
0010
0000
0100
0000
0010
0000
0100
0000
1000
0000
0010
0000
0100
0000
0001
0000
,
0010
0100
1000
0001
0010
1000
0010
0100
0010
0001
0010
0100
1000
0010
1000
0001
,
1000
0000
0100
0000
1000
0000
0010
0000
0400
0040
0000
0000
0000
0000
0000
0000
0000
0000
0000
0000
0330
0000
0000
0000
1010
0000
0000
0000
0101
0000
0000
0000
,
0011
2200
0000
0000
0000
0000
3300
0000
,
0010
0000
0001
1000
0100
0000
1000
0001
0100
0000
0010
0000
0100
0000
0001
0000
,
0010
0000
0100
1000
0001
0000
0100
0001
1000
0000
0010
0000
0100
0000
0001
0000
,
1000
0000
0100
1000
0100
0000
0010
0000
0001
0000
1000
0100
1000
0000
0010
0000
,
0100
0000
0001
0100
0001
0000
0100
0001
0000
0000
1000
0100
1000
0001
0100
0001
,
1000
0001
0010
1000
0010
0100
1000
0010
,
0100
1000
0100
0001
1000
0100
0010
0001
,
1000
0000
0010
0100
0010
0100
0010
0100
0001
0000
1000
0100
1000
0000
0010
0000
,
1000
0010
0100
0001
1000
0000
0001
1000
0002
0000
0100
0000
2003
0000
0100
0000
,
3001
0000
0010
0100
1000
0000
0010
0100
0001
0000
1000
0000
0001
0000
0100
0000
,
0010
0000
0100
0010
1000
0000
0100
0010
0001
0000
0100
0000
0010
0000
0100
0000
,
0001
0000
1000
0100
1000
0001
0100
0010
0000
0000
0100
0001
1000
0100
0010
0001
,
2000
0000
0100
0000
3002
0000
0100
0103
,
0010
1000
0100
1000
0010
0100
0001
0010
,
0001
0100
0001
0010
0100
1000
0010
1000
,
0100
0010
0100
0010
0001
1000
0001
1000
0010
0100
0010
0100
0001
1000
0001
1000
,
0100
0000
0010
0001
0100
0000
0100
0001
1000
0000
0100
0000
0020
0000
0100
0000
,
0130
0000
1000
0100
1000
0000
0010
0100
0001
0000
0010
0000
0001
0000
1000
0000
,
0010
0000
0000
0100
0000
0000
0010
1000
0010
1000
0000
0000
0001
0000
0000
0100
0000
0000
1000
0000
0000
0100
0000
0000
,
0010
0000
0001
0010
1000
0000
0001
0000
0010
0000
0001
0000
0100
0000
0001
0000
,
1000
0000
0000
0100
1000
0100
1000
0000
0000
0002
0000
0000
0010
0000
0000
0010
0000
0000
1000
0000
0000
1003
0000
0000
,
0100
0000
1000
0001
0010
0000
0001
0010
0001
0010
0100
1000
0100
0000
1000
0100
,
0020
0000
0001
0000
0031
0000
1000
0000
0010
0000
0100
0001
1000
0010
0100
1000
,
0100
0001
0010
1000
0010
0100
1000
0010
,
0100
0000
0001
0000
0010
0000
0100
1000
0001
0000
0010
0000
0001
1000
0010
0100
,
1000
0000
0100
1000
0100
0000
0001
0100
0001
0000
1000
0100
0010
0000
1000
0010
,
1000
0001
1000
0001
0100
1000
0100
1000
0010
0100
0010
0100
0001
0010
0001
0010
,
0200
0000
0000
0000
0000
0000
0300
0000
1000
0000
0000
0110
0000
0000
0001
0000
,
1000
0000
0100
0000
0001
0000
0100
0000
1000
0000
0000
0110
0000
0000
0001
0000
,
1000
0000
0010
0000
0001
0000
0010
0000
1000
0000
0000
0110
0000
0000
0001
0000
,
1000
0000
0100
0000
0010
0000
0001
0000
1000
0000
0000
0110
0000
0000
0001
0100
,
0001
0000
0010
0100
1000
0000
0010
0100
0010
1000
0001
0100
0001
1000
0100
0010
,
0001
0000
1000
0100
1000
0001
0100
0010
0100
0000
0001
1000
0001
0010
0100
1000
,
0001
0000
1000
0010
1000
0000
0001
0100
0010
0100
0001
1000
0100
0000
0010
0100
,
0010
0000
0001
1000
0001
0000
1000
0100
0010
0000
0000
0000
1100
0000
0000
0100
,
2000
0000
0001
0000
3002
0000
0010
0000
0013
0000
0000
1001
0000
0000
0010
0000
,
1000
0000
0001
0010
0001
0010
0100
1000
0001
0000
0000
1001
0000
0000
0010
0000
,
0001
0000
0100
0010
0100
0000
0001
0100
0010
0000
1000
0100
0010
0100
1000
0001
,
0100
0000
0010
0100
0010
0100
0001
1000
0200
0000
0000
0300
2000
0000
0000
3000
,
0001
0000
0000
0000
1000
0000
0000
0000
0001
0000
0000
0000
1000
0000
0000
0000
0001
0000
0000
0000
1000
0000
0000
0000
0001
0000
0000
0000
0000
0000
0100
0000
0000
0001
0000
0000
1000
0000
0000
0000
0000
0000
0100
0000
0000
0000
0000
0000
,
0010
0100
0010
0100
1000
0000
0010
0000
0100
0001
0100
0001
1000
0000
0100
0000
,
0001
0100
0010
0010
0001
0100
0001
1000
,
0100
0000
1000
0000
0001
0000
0010
0000
0001
0100
0010
1000
0001
0100
0010
1000
,
0001
0010
0100
1000
0001
0010
0100
1000
0002
0000
0000
0000
0203
0000
0000
0000
,
0310
1000
0001
0100
0002
0000
0000
0000
2000
0000
0000
0000
0000
0000
0000
0000
,
0000
3003
0220
0000
,
0330
0000
0000
0000
0000
0000
0000
0000
0000
0000
0000
0000
0000
0000
0000
0000
0000
0000
1000
0000
0000
0010
0000
0000
1000
0000
0000
0000
0000
0000
0000
0000
0000
0000
0000
0000
0100
0000
0000
0000
0000
0000
0000
0000
0000
0000
0000
0000
0010
0000
0000
0000
0000
0000
0000
0000
0000
0000
0000
0000
0001
0000
0000
0000
0000
0000
1000
0000
0100
0000
1000
0000
0100
0000
0000
0000
0000
0000
0010
0000
0000
0000
0000
0000
0001
0000
0000
0000
0000
0000
0100
0000
0000
0000
0000
0000
,
1000
0100
0010
2000
0002
0000
0000
3003
0220
0000
0000
0000
0000
0000
0330
0000
;
